#TITLE:PopPiPo-;
#SUBTITLE:(Vegetable Juice);
#ARTIST:Lamaze-P feat. Hatsune Miku;
#TITLETRANSLIT:;
#SUBTITLETRANSLIT:;
#ARTISTTRANSLIT:;
#GENRE:;
#CREDIT:Timer Rabbit VS. Hiro Konobu;
#MENUCOLOR:;
#NEWMETERSYSTEM:NO;
#BANNER:popi_bn.PNG;
#BACKGROUND:popi_bg.PNG;
#LYRICSPATH:;
#CDTITLE:timerrabbit.png;
#MUSIC:popi.mp3;
#OFFSET:0.000;
#SAMPLESTART:48.000;
#SAMPLELENGTH:12.000;
#SELECTABLE:YES;
#LISTSORT:;
#BPMS:0.000=150.001,24.000=150.021;
#STOPS:;
#BGCHANGES:0.000=BGA.AVI=1.000=1=1=0,
99999=-nosongbg-=1.000=0=0=0 // don't automatically add -songbackground-
;
#ATTACKS:;

//---------------dance-single - ----------------
#NOTES:
     dance-single:
     :
     Easy:
     3:
     0.322,0.388,0.257,0.057,0.000: // measure 1
0000
0000
0000
0000
,  // measure 2
0000
0000
0000
0000
,  // measure 3
0000
0000
0000
0000
,  // measure 4
0000
0000
0000
0000
,  // measure 5
0000
0000
0000
0000
,  // measure 6
0000
0000
0000
0000
,  // measure 7
1000
0001
1000
0001
,  // measure 8
0100
0010
0100
0010
,  // measure 9
1000
0001
1000
0001
,  // measure 10
0100
0010
0100
0010
,  // measure 11
0001
0100
0001
0100
,  // measure 12
0010
1000
0010
1000
,  // measure 13
0100
1000
0100
1000
,  // measure 14
0010
0001
0010
0001
,  // measure 15
2002
0000
0000
0000
,  // measure 16
0000
0000
0000
0000
,  // measure 17
0000
0000
0000
3003
,  // measure 18
1000
0001
1000
0001
,  // measure 19
1000
1000
0100
0010
,  // measure 20
0001
0001
0010
0100
,  // measure 21
1000
1000
0100
0010
,  // measure 22
0001
0001
0010
0100
,  // measure 23
1000
0100
0001
0100
,  // measure 24
0010
0010
0010
0000
,  // measure 25
1000
0001
1000
0001
,  // measure 26
0100
0100
0110
0000
,  // measure 27
0001
1000
1000
0001
,  // measure 28
0100
0100
0110
0000
,  // measure 29
0100
0010
0100
0010
,  // measure 30
0220
0000
0000
0330
,  // measure 31
1000
0001
1000
0001
,  // measure 32
0001
1000
0100
0100
,  // measure 33
0001
1000
0001
1000
,  // measure 34
0001
1000
0010
0010
,  // measure 35
0100
0010
0100
0010
,  // measure 36
0100
0010
1000
1000
,  // measure 37
0010
0100
0010
0100
,  // measure 38
0010
0100
0001
0001
,  // measure 39
0100
0100
0010
0010
,  // measure 40
1001
1001
1001
0000
,  // measure 41
0010
0010
0100
0100
,  // measure 42
1001
1001
1001
0000
,  // measure 43
1000
1000
0001
0000
,  // measure 44
0100
0100
0100
0010
,  // measure 45
0000
0110
0110
1001
,  // measure 46
2002
0000
0000
3003
,  // measure 47
1000
0001
1000
1000
,  // measure 48
0001
1000
0001
0001
,  // measure 49
0100
0100
0100
0100
,  // measure 50
0110
0110
0110
0110
,  // measure 51
0001
1000
0001
0001
,  // measure 52
1000
0001
1000
1000
,  // measure 53
0001
0001
0001
0001
,  // measure 54
1001
1001
1001
1001
,  // measure 55
0100
0010
0100
0100
,  // measure 56
0010
0100
0010
0010
,  // measure 57
1000
0001
1000
0001
,  // measure 58
1001
1001
1001
1001
,  // measure 59
0001
1000
0001
0001
,  // measure 60
1000
0001
1000
1000
,  // measure 61
0100
0010
0100
0010
,  // measure 62
0001
0001
1000
1000
,  // measure 63
0100
0100
0100
0110
;

//---------------dance-single - Copied from----------------
#NOTES:
     dance-single:
     Copied from:
     Medium:
     5:
     0.392,0.478,0.267,0.362,0.000:
0000
0000
0000
0000
,
0000
0000
0000
0000
,
0000
0000
0000
0000
,
0000
0000
0000
0000
,
0000
0000
0000
0000
,
0000
0000
0000
0000
,
1000
0001
1000
0001
,
0100
0010
0100
0010
,
1000
0001
1000
0001
,
0100
0010
0100
0010
,
0001
1000
0001
1100
,
0100
0010
0100
0101
,
0001
1000
0001
1001
,
0010
0100
0010
0110
,
0220
0000
0000
0000
,
0000
0000
0000
0000
,
0000
0000
0000
0330
,
0100
0010
0100
0010
,
1000
0000
0001
0000
1000
0000
0001
0001
,
0100
0000
0010
0000
0100
0000
0010
0010
,
1000
0000
0001
0000
1000
0000
0001
0001
,
0100
0010
0100
0010
,
2000
3001
0002
1003
,
0200
0320
0230
0300
,
1100
0100
1100
0010
,
0011
0010
0011
0000
,
0200
0310
0020
0130
,
0002
2003
3002
0003
,
1000
0001
1000
0000
0110
0000
0110
0000
,
2002
0000
0000
3003
1001
0000
1001
0000
,
1000
1000
0001
0001
,
1000
1000
0101
0101
,
0100
0100
0010
0010
,
0100
0100
1100
1100
,
1000
0001
1000
0001
,
0100
0010
0110
0110
,
0010
0100
0010
0100
,
1000
0001
1001
1001
,
0002
1003
2000
3001
,
0200
0320
0230
0300
,
0002
0103
2000
3010
,
0002
2003
3002
0003
,
0110
0000
0110
0000
1001
0000
0000
1000
,
0001
1000
0001
1000
0001
0000
0001
0000
,
0000
0000
0100
0010
0100
0000
0110
0000
,
0220
0000
0330
0000
,
1000
0000
0001
0000
1000
0001
0001
0000
,
0100
0000
0010
0000
0100
0010
0010
0000
,
0002
0203
0320
2030
,
3001
0001
0001
0001
,
0001
0000
1000
0000
0001
1000
1000
0000
,
0010
0000
0100
0000
0010
0100
0100
0000
,
2000
3200
0320
0032
,
0103
0100
0100
0100
,
0001
0000
1000
0000
0001
1000
1000
0000
,
0100
0000
0010
0000
0100
0010
0010
0000
,
0200
0320
2030
3002
,
1003
1000
1000
1000
,
0100
0000
0010
0000
0100
0010
0010
0000
,
0001
0000
1000
0000
0001
1000
1000
0000
,
0100
0100
0100
0100
,
0010
0010
0010
0010
,
1000
0001
1000
1001
;

//---------------dance-single - Copied from----------------
#NOTES:
     dance-single:
     Copied from:
     Hard:
     7:
     0.435,0.508,0.314,0.371,0.000:
0000
0000
0000
0000
,
0000
0000
0000
0000
,
0000
0000
0000
0000
,
0000
0000
0000
0000
,
0000
0000
0000
0000
,
0000
0000
0000
0000
,
1000
0000
0001
0000
0100
0100
0100
0000
,
0001
0000
1000
0000
0010
0010
0010
0000
,
1000
0000
0001
0000
0100
0100
0100
0000
,
0001
0000
1000
0000
0010
0010
0010
0000
,
0100
0000
0010
0000
0001
0001
0001
0000
,
0010
0000
0100
0000
1000
1000
1000
0000
,
0100
0000
0010
0000
0001
0001
0001
0000
,
0010
0000
0100
0000
1000
1000
1000
0000
,
2002
0000
0000
0000
,
0000
0000
0000
0000
,
0000
0000
0000
3003
,
1000
0001
1000
0001
,
1000
0100
1000
0000
0200
0000
0310
0000
,
0010
0001
0010
0000
0002
0000
0103
0000
,
0100
0010
0100
0000
0020
0000
0130
0000
,
1000
0001
1000
0000
0002
0000
1003
0000
,
1000
0100
0010
0000
0001
0100
0010
0000
,
0200
0320
0230
0300
,
0010
0001
0100
0000
0100
0010
0100
0000
,
0110
1001
0101
0000
,
0100
0010
0001
0000
0001
1000
0100
0000
,
0002
2003
3002
0003
,
0100
0010
0100
0000
0001
1000
0001
0000
,
2002
0000
0000
3003
1001
0000
1001
0000
,
0001
1000
0001
0000
0100
0000
0100
0000
,
0100
0010
0100
0000
0110
0000
0110
0000
,
1000
0100
1000
0000
0010
0000
0010
0000
,
0001
0010
0001
0000
1001
0000
1001
0000
,
0001
0100
0001
0000
0010
0000
0010
0000
,
0010
1000
0010
0000
0101
0000
0101
0000
,
1000
0100
1000
0000
0100
0000
0100
0000
,
0001
0100
0001
0000
0110
0000
0110
0000
,
2000
3001
0002
1003
,
2000
3002
2003
3000
,
0200
0310
0020
0130
,
0002
2003
3002
0003
,
0110
0000
0110
0000
2002
0000
3003
0001
,
0100
0001
0100
0010
0200
0000
0320
0000
,
0030
0000
0001
1000
0001
0000
0110
0000
,
2002
0000
0000
3003
,
1000
0000
0001
0000
1000
1000
1000
0000
,
0001
0000
1000
0000
0001
0001
0001
0000
,
0101
1010
1100
1001
,
2000
3001
0002
1003
,
0100
0000
0010
0000
0100
0100
0100
0000
,
0010
0000
0100
0000
0010
0010
0010
0000
,
1100
0110
0011
1001
,
0002
1003
2000
3001
,
0001
0000
0100
0000
0010
0010
0010
0000
,
0010
0000
1000
0000
0100
0100
0100
0000
,
0110
1001
1100
0101
,
0200
0310
0020
0130
,
0010
0000
1000
0000
0001
0001
0001
0000
,
0100
0000
0010
0000
1000
1000
1000
0000
,
0020
0230
0320
0130
,
1000
0100
1000
0000
1000
0001
1000
0000
,
0010
0010
0010
0110
;

//---------------dance-single - ----------------
#NOTES:
     dance-single:
     :
     Challenge:
     10:
     0.641,0.598,0.724,0.152,0.333: // measure 1
0000
0000
0000
0000
,  // measure 2
0000
0000
0000
0000
,  // measure 3
0000
0000
0000
0000
,  // measure 4
0000
0000
0000
0000
,  // measure 5
0000
0000
0000
0000
,  // measure 6
0000
0000
0000
0000
,  // measure 7
1000
0000
1100
0000
1010
1010
1010
0000
,  // measure 8
0001
0000
0011
0000
1001
1001
1001
0000
,  // measure 9
0100
0000
0110
0000
1100
1100
1100
0000
,  // measure 10
0100
0000
0110
0000
0101
0101
0101
0000
,  // measure 11
0010
0000
1010
0000
0110
0110
0110
0000
,  // measure 12
1000
0000
1010
0000
0011
0011
0011
0000
,  // measure 13
0100
0000
1100
0000
0101
0011
0101
0000
,  // measure 14
0010
0000
0110
0000
1010
1100
1010
0000
,  // measure 15
0010
0000
1000
0000
0010
0000
1000
0000
0010
1000
0000
1010
0000
0000
1000
0000
,  // measure 16
0010
0000
0100
0000
0001
0000
0100
0000
0001
0100
0000
0101
0000
0000
0100
0000
,  // measure 17
0010
0000
0100
0000
0010
0000
0100
0000
0010
1000
0000
1010
0000
0000
0010
0000
,  // measure 18
1000
0000
0010
0000
1000
0000
0010
0000
1000
0010
0000
1010
0000
0000
0010
0000
,  // measure 19
1000
0000
0001
0000
0010
0000
0100
0000
1000
0100
0000
0101
0000
0000
0100
0000
,  // measure 20
1000
0000
0100
0000
0010
0000
0001
0000
0010
0001
0000
0110
0000
0000
1000
0000
,  // measure 21
0100
0000
0010
0000
0100
0000
0010
0000
1000
0001
0000
1100
0000
0000
0010
0000
,  // measure 22
0100
0000
0001
0000
1000
0000
0010
0000
0001
1000
0000
0110
0000
0000
1100
0000
,  // measure 23
0000
1000
0010
1000
0001
0100
0110
0000
,  // measure 24
0001
0000
1000
0000
0010
0000
0000
0000
0220
0000
0000
0000
0000
0330
0000
0000
,  // measure 25
0010
0000
1000
0000
0010
0000
0100
0000
0001
1000
0000
1001
0000
0000
0010
0000
,  // measure 26
1000
0000
0100
0000
1000
0000
2020
0000
3030
0000
0000
0000
0000
0010
1000
0010
,  // measure 27
1000
0010
0000
1010
0000
0000
0000
0000
0001
0000
0100
0010
0000
0000
1000
0000
,  // measure 28
0001
0000
0100
0000
0010
0000
0000
0000
2200
0000
0000
3300
0000
0000
0000
0000
,  // measure 29
0001
0100
0010
0001
1000
0001
0010
2000
,  // measure 30
0001
0000
0000
0010
0000
0000
0020
0000
0000
0000
0000
0000
0000
0000
3030
0000
,  // measure 31
0010
0000
1000
0000
0010
0000
1000
0000
0010
1000
0000
1010
0000
0000
0100
0000
,  // measure 32
1000
0000
0100
0000
1000
0000
0100
0000
1000
0100
0000
1100
0000
0000
0001
0000
,  // measure 33
0100
0000
0010
0000
0100
0000
1000
0000
0010
1000
0000
1010
0000
0000
1000
0000
,  // measure 34
0001
0000
1000
0000
0001
0000
1000
0000
0001
1000
0000
1001
0000
0000
0100
0000
,  // measure 35
0001
0000
1000
0000
0001
0000
0100
0000
0010
1000
0000
0101
0000
0000
1000
0000
,  // measure 36
0100
0000
0010
0000
0100
0000
1000
0000
0100
0010
0000
0011
0000
0000
1000
0000
,  // measure 37
0010
0000
0100
0000
0010
0000
0001
0000
0100
1000
0000
1010
0000
0000
1000
0000
,  // measure 38
0001
0000
1000
0000
0001
0000
1000
0000
0001
1000
0000
0110
0000
0000
1000
0000
,  // measure 39
0010
0000
1010
0000
0010
0100
0000
0001
,  // measure 40
1000
0010
0200
0000
0002
0000
0303
0000
,  // measure 41
0110
0000
1001
0000
0100
1000
0000
0010
,  // measure 42
0100
0001
2000
0000
0020
0000
3030
0000
,  // measure 43
1010
0000
1100
0000
0001
1000
0000
0010
,  // measure 44
1000
0100
0010
0001
1000
0000
0110
0000
,  // measure 45
0110
0000
0010
0100
1000
0001
0220
0000
,  // measure 46
0000
0000
0000
0000
0000
0330
0000
0000
0011
0000
0000
0110
0000
0000
1100
0000
,  // measure 47
0001
0000
0001
0010
0000
0010
0001
0000
0100
0000
0010
0000
1000
0000
0000
0000
,  // measure 48
0010
0000
0010
1000
0000
1000
0010
0000
0100
0000
0001
0000
0100
0000
0000
0000
,  // measure 49
1001
0000
1001
0000
0010
1000
0010
0100
,  // measure 50
0001
0000
0010
0100
0000
0100
0001
0000
0100
0000
0001
0000
0100
0010
0100
0000
,  // measure 51
0100
0000
0010
0100
0000
0001
0100
0000
1000
0000
1000
0000
0001
0000
0000
0000
,  // measure 52
0010
0000
0100
1000
0000
0010
0001
0000
0100
0000
0100
0000
0010
0000
0000
0000
,  // measure 53
0020
0000
2030
0000
3001
0100
0010
0100
,  // measure 54
1000
0000
0000
0010
1000
0000
0010
1000
0000
0001
0100
0000
1000
0010
1000
0000
,  // measure 55
0001
0000
0001
0010
0000
0100
1000
0000
0010
0000
0100
0000
0100
0000
0000
0000
,  // measure 56
1000
0000
1000
0100
0000
0010
0001
0000
0100
0000
0100
0000
0100
0000
0000
0000
,  // measure 57
0010
0000
1000
0000
0001
0100
0010
1000
,  // measure 58
0001
0000
0010
1000
0000
0010
1000
0000
0001
0000
0100
0000
0010
0100
0010
0000
,  // measure 59
0001
0000
0010
0100
0000
0010
1000
0000
0100
0000
0010
0000
1000
0000
0000
0000
,  // measure 60
0100
0000
0010
0100
0000
1000
0001
0000
0100
0000
1000
0000
0010
0000
0000
0000
,  // measure 61
1010
1001
0101
0110
,  // measure 62
0010
0000
1000
0010
0000
0000
0000
0000
0000
1000
0000
0100
1000
0000
0000
0000
,  // measure 63
0110
1100
0101
1010
;
