#TITLE:Hatcha Metcha Party;
#SUBTITLE:;
#ARTIST:Kors K;
#TITLETRANSLIT:;
#SUBTITLETRANSLIT:;
#ARTISTTRANSLIT:;
#GENRE:;
#CREDIT:Timer Rabbit;
#MENUCOLOR:;
#METERTYPE:DDR;
#BANNER:hatcha_bn.PNG;
#BACKGROUND:hatcha_bg.png;
#LYRICSPATH:;
#CDTITLE:timerrabbit.png;
#MUSIC:hatchametchaparty.ogg;
#OFFSET:0.000;
#SAMPLESTART:22.530;
#SAMPLELENGTH:12.000;
#SELECTABLE:YES;
#LISTSORT:;
#BPMS:0.000=200.000;
#STOPS:;
#BGCHANGES:36.000=worms1a.avi=1.000=1=0=1,
52.000=scissors1r.avi=1.000=0=0=1,
66.500=white.PNG=1.000=0=0=1,
67.000=hatcha_bg.png=1.000=1=0=1,
75.000=lines4.avi=1.000=0=0=1,
92.000=pig1.avi=1.000=0=0=1,
103.000=kangaroo1.avi=1.600=0=0=1,
105.000=hatcha_bg.png=1.000=0=0=1,
107.000=scissors1.avi=1.000=0=0=1,
122.500=white.PNG=1.000=0=0=1,
123.000=worms1a.avi=0.300=1=0=1,
131.000=hatcha_bg.png=1.000=1=0=1,
139.000=sheep1.avi=1.000=0=0=1,
152.000=washable7r.avi=1.000=0=0=1,
164.000=scissors1.avi=1.000=0=0=1,
176.000=hatcha_bg.png=1.000=0=0=1,
181.000=lines4.avi=1.000=0=0=1,
197.000=worms1a.avi=1.000=0=0=1,
209.000=hatcha_bg.png=1.000=0=0=1,
213.000=pig1.avi=1.400=0=0=1,
229.000=washable7r.avi=1.000=0=0=1,
237.000=kangaroo1.avi=1.000=0=0=1,
245.000=lines4.avi=1.000=0=0=1,
261.000=sheep1.avi=1.000=0=0=1,
268.000=scissors1r.avi=1.400=0=0=1,
276.500=white.PNG=1.000=0=0=1,
277.000=hatcha_bg.png=1.000=1=0=1,
309.000=lines4.avi=1.000=1=0=1,
325.000=washable7r.avi=0.800=1=0=1,
337.000=hatcha_bg.png=1.000=0=0=1,
341.000=scissors1.avi=1.000=0=0=1,
357.000=worms1a.avi=1.000=0=0=1,
369.000=hatcha_bg.png=1.000=0=0=1,
373.500=sheep1.avi=1.000=0=0=1,
389.000=pig1.avi=1.400=0=0=1,
397.000=kangaroo1.avi=0.800=0=0=1,
403.500=white.PNG=1.000=0=0=1,
404.000=hatcha_bg.png=1.000=1=0=1,
99999=-nosongbg-=1.000=0=0=0 // don't automatically add -songbackground-
;
#ATTACKS:;

//---------------dance-single - Steps by TImer R.----------------
#NOTES:
     dance-single:
     Steps by TImer R.:
     Hard:
     10:
     0.609,0.897,0.428,0.222,0.174: // measure 1
0000
0000
0000
0000
,  // measure 2
0000
0000
0000
0000
,  // measure 3
0000
0000
0000
0000
,  // measure 4
0000
0000
0000
0000
,  // measure 5
0000
0000
0000
0000
,  // measure 6
0000
0000
0000
0000
,  // measure 7
0000
0000
0000
0000
,  // measure 8
0000
0000
0000
0000
,  // measure 9
0000
0000
0000
0000
,  // measure 10
0001
0100
0001
0100
0010
0000
0000
0000
,  // measure 11
0000
0000
0000
0010
,  // measure 12
1000
0100
0001
0010
,  // measure 13
1000
0010
0001
0100
,  // measure 14
0010
1000
0010
1000
0100
0000
0000
0000
,  // measure 15
0000
0000
1000
0001
,  // measure 16
0010
0000
0100
0000
1000
0100
0010
0001
,  // measure 17
1000
0100
0010
0001
0010
0100
4000
0000
,  // measure 18
3400
0340
0034
0043
,  // measure 19
0430
4300
3000
1100
,  // measure 20
0011
1100
0011
0101
,  // measure 21
1010
0000
0101
0000
1010
0000
0010
1000
,  // measure 22
0100
0010
0001
0010
1000
0010
0001
0100
,  // measure 23
0010
0100
0010
1000
0100
0001
0000
0000
,  // measure 24
1000
0100
0000
0000
0010
0001
0000
0000
0001
0100
0000
0000
0010
1000
0000
0000
,  // measure 25
0001
0000
0010
0100
1000
0100
0010
0001
0000
1100
0000
0000
,  // measure 26
0011
0101
1010
1MM1
,  // measure 27
1MM1
0000
2MM2
0MM0
0MM0
3MM3
0001
0100
,  // measure 28
0010
0100
1000
0100
0010
0100
0001
0010
,  // measure 29
0100
0010
1000
0100
0010
0100
0010
0001
,  // measure 30
0100
0010
1000
0100
0010
0001
0010
1000
,  // measure 31
0100
0100
0100
0010
0010
0010
4000
0000
,  // measure 32
0000
0000
3001
0100
,  // measure 33
1000
0001
1000
0000
1000
0000
M000
0000
,  // measure 34
0M00
00M0
000M
000M
,  // measure 35
0000
0000
0000
0000
MMMM
0000
0000
0000
0000
0000
0000
0000
0001
0100
0000
0000
,  // measure 36
0101
0000
0000
0000
0010
1000
0000
0000
1010
0000
0000
0000
1000
0100
0000
0000
,  // measure 37
1100
0000
0000
0000
0010
0001
0000
0000
0011
0000
0000
0000
0010
0100
0000
0000
,  // measure 38
0110
0000
0000
0000
0100
0010
0000
0000
0110
0000
0000
0000
0000
0000
0000
0000
,  // measure 39
0110
1001
0000
1001
,  // measure 40
0110
0000
0000
0000
1000
0001
0000
0000
0001
1000
0000
0000
1000
0001
0000
0000
,  // measure 41
0001
1000
0000
0000
4004
0000
0000
0000
0000
0000
0000
0000
3003
0000
0000
0000
,  // measure 42
0010
0011
0000
0100
,  // measure 43
0110
0000
0010
1010
,  // measure 44
0000
1000
1001
0000
,  // measure 45
M00M
M00M
M00M
M00M
M00M
M00M
M00M
M00M
M00M
0000
0000
0000
0MM0
0000
0000
0000
,  // measure 46
0000
0000
1000
0100
0010
0001
0010
0100
,  // measure 47
1000
0000
0000
0000
0100
0000
0000
0010
0000
0000
0100
0000
0000
0010
0000
0000
1000
0000
0000
0001
0000
0000
1000
0000
,  // measure 48
0000
0001
0000
0000
0000
0000
0001
0000
0000
0010
0000
0000
0100
0000
0000
1000
0000
0000
0100
0000
0000
0010
0000
0000
,  // measure 49
0001
0000
1000
0000
0000
0001
0000
0000
1000
0000
0000
0001
0000
0000
0100
0000
0000
0010
0000
0000
0000
0000
0100
0000
,  // measure 50
0000
1100
0000
0011
,  // measure 51
0000
1100
0000
0011
,  // measure 52
0000
1001
1001
0110
,  // measure 53
0110
2002
0000
0000
,  // measure 54
3003
0000
0001
0010
1000
0100
0010
0001
,  // measure 55
0100
1000
0110
0000
1001
0000
0110
0000
,  // measure 56
1001
0000
1000
0001
1000
0001
1000
0001
,  // measure 57
1000
0100
0010
0001
0010
0000
0100
1000
0100
0010
0001
0010
0100
1000
0100
0010
,  // measure 58
0001
0000
1000
0001
1000
0000
1000
0001
,  // measure 59
1000
0000
0100
0100
0110
0000
0010
0010
,  // measure 60
0110
0000
0001
0010
0001
0010
0100
0010
,  // measure 61
0100
0010
1000
0100
1000
0100
0010
0001
,  // measure 62
1001
0000
0001
0010
1000
0100
0010
0001
,  // measure 63
0100
0010
1000
0100
0010
1000
0100
0001
,  // measure 64
0010
1000
0010
0001
1000
0001
0100
0010
,  // measure 65
0100
0010
1000
0100
0010
0100
0010
0001
,  // measure 66
0000
0000
1000
0100
0010
0001
0010
0100
,  // measure 67
1000
0010
0100
0001
0010
1000
0100
0010
,  // measure 68
0004
4000
0000
0000
0000
0000
0000
0000
,  // measure 69
3443
0000
0000
0000
,  // measure 70
0330
0000
1001
0000
0001
0100
0010
0000
,  // measure 71
1000
0000
0001
0010
,  // measure 72
1000
0100
0001
0010
,  // measure 73
1000
0000
1000
0100
,  // measure 74
0010
0001
0100
0010
,  // measure 75
1000
0000
0001
0001
,  // measure 76
1000
1000
0100
0100
,  // measure 77
0010
0010
0001
1000
,  // measure 78
0001
0000
0001
0100
0001
0100
0010
0000
,  // measure 79
0000
0000
0000
0000
,  // measure 80
0010
1000
0100
0001
,  // measure 81
0010
1000
0010
0001
,  // measure 82
0100
0000
0010
1000
0010
1000
0000
0000
,  // measure 83
1000
0001
0010
0100
,  // measure 84
1000
0100
0010
0001
1000
0100
0010
0001
,  // measure 85
0010
0100
1000
0000
0001
0000
0010
0000
,  // measure 86
0100
0000
1000
0100
0010
0000
0001
0010
,  // measure 87
0100
0000
0100
0010
0100
0010
1000
0001
,  // measure 88
1000
0001
1000
0100
0010
0001
0010
1000
,  // measure 89
0100
0010
0100
0001
0010
1000
0001
0000
,  // measure 90
0000
0000
0010
1000
0100
0000
0100
0010
,  // measure 91
0001
0000
0001
1000
0001
1000
0100
0010
,  // measure 92
0100
0010
0001
0010
1000
0100
0001
0100
,  // measure 93
0010
4000
0000
3004
,  // measure 94
0000
0000
0003
0000
1000
0100
0010
0000
,  // measure 95
0010
0100
0001
0000
0001
0100
0010
0000
,  // measure 96
0010
1000
0100
0000
0100
0010
0001
0000
,  // measure 97
0001
0010
0100
0000
2000
0000
3002
0000
,  // measure 98
0003
0400
0000
0340
,  // measure 99
0000
4030
0000
3004
,  // measure 100
0000
1103
0011
0000
,  // measure 101
1001
1001
1001
0000
0000
0000
0000
0000
,  // measure 102
2002
0000
0000
0000
,  // measure 103
0000
0000
0000
0000
,  // measure 104
3003
0000
0000
0000
;

//---------------dance-single - Steps by Timer R.----------------
#NOTES:
     dance-single:
     Steps by Timer R.:
     Easy:
     5:
     0.352,0.532,0.230,0.206,0.000:
0000
0000
0000
0000
,
0000
0000
0000
0000
,
0000
0000
0000
0000
,
0000
0000
0000
0000
,
0000
0000
0000
0000
,
0000
0000
0000
0000
,
0000
0000
0000
0000
,
0000
0000
0000
0000
,
0000
0000
0000
0000
,
1000
0010
0001
0100
,
1000
0000
0000
0000
,
1000
0100
0010
0001
,
0010
1000
0000
0000
,
0001
0010
1000
0100
,
0001
0000
0000
0000
,
0100
0010
0001
0100
,
0010
0000
2002
0000
,
0000
0000
0000
0000
,
0000
3003
0000
1000
,
0001
1000
0001
1000
,
0001
1000
0001
0100
,
0010
0100
0010
0100
,
0010
0100
0020
0030
,
0110
1001
0110
1001
,
0100
0010
0100
0010
,
0001
1000
0001
1001
,
1001
2002
3003
0000
,
0001
0100
0010
1000
,
0001
0000
1000
0001
1000
0000
0100
0000
,
0100
0100
0010
0010
,
0010
0000
0001
1000
0001
0000
2002
0000
,
0000
0000
0000
0000
,
0000
0000
3003
0000
,
0000
0000
0000
0000
,
0000
0000
0000
0100
,
0100
0100
0100
0100
,
0100
0110
0010
0010
,
0010
0010
0010
0010
,
0001
1001
0000
1000
,
1001
0000
1001
0110
,
1001
0000
0110
0000
1000
0001
1000
0000
,
1000
1000
0000
0001
,
0001
0000
0010
0010
,
0000
0100
0100
0000
,
0220
0000
0000
0330
,
1000
0100
0010
0001
,
0000
0001
0010
0100
,
1000
1000
0001
1000
,
0001
0100
0010
0100
,
0010
1000
1000
1000
,
1000
0001
0001
0001
,
0001
0110
0110
0110
,
1001
2002
0000
3003
,
0000
0010
0010
0100
,
0100
0200
0300
0200
,
0300
1000
0010
0001
,
1000
0002
0000
2003
,
0000
3010
0001
0010
,
0100
1000
1001
0001
,
1001
1000
1000
1000
,
0001
0002
0000
0000
,
0103
0010
1000
0100
,
0010
0001
0100
0010
,
1000
0001
0100
0010
,
2000
0000
0000
3000
,
0000
0100
0010
0001
,
0100
0010
0100
0001
,
0010
1000
1000
1000
,
0001
0001
2002
0000
,
0000
3003
0000
0000
,
0000
0000
0000
0000
,
0000
0000
0000
0000
,
0000
0000
0000
0000
,
0000
0000
0000
0000
,
0000
0000
0000
0000
,
0000
0000
0000
0000
,
0000
0000
0000
0000
,
0000
1000
0010
0001
,
0100
1000
0000
0000
,
0000
1000
0100
0010
,
0001
0010
0000
0000
,
0001
0010
1000
0010
,
0001
0000
0000
0000
,
0001
0100
1000
0010
,
0100
2002
0000
0000
,
3003
0010
0100
0010
,
1000
0001
1000
0100
,
0001
0010
0001
0100
,
1000
0010
0001
0100
,
1000
0000
1000
0010
,
0001
0000
0001
0010
,
1000
0000
1000
0100
,
0001
0000
0001
0100
,
2000
0000
3001
0010
,
1000
0001
1000
0100
,
0010
0100
0001
1000
,
0100
0010
0001
0010
,
1000
0200
0000
0000
,
0000
0000
0000
0320
,
0000
1031
1001
0000
,
1000
0001
1000
0000
0000
0000
0000
0000
,
0220
0000
0000
0000
,
0000
0000
0000
0000
,
0000
0330
0000
0000
;

//---------------dance-single - Steps by Timer R.----------------
#NOTES:
     dance-single:
     Steps by Timer R.:
     Medium:
     7:
     0.494,0.695,0.277,0.246,0.000:
0000
0000
0000
0000
,
0000
0000
0000
0000
,
0000
0000
0000
0000
,
0000
0000
0000
0000
,
0000
0000
0000
0000
,
0000
0000
0000
0000
,
0000
0000
0000
0000
,
0000
0000
0000
0000
,
0000
0000
0000
0000
,
1000
0010
0001
0100
,
1000
0000
0000
1000
,
0100
0001
0010
1000
,
0000
0000
0000
0010
,
0100
0010
0100
1000
,
0000
0000
1000
0001
,
1000
0001
0010
1000
,
1000
0000
0001
0000
0001
0000
1000
0100
,
0010
0001
1000
0100
0010
0001
0010
0100
,
1000
0100
0010
0100
0010
0000
0110
0000
,
0100
0110
0010
1001
,
1000
0000
1001
0000
0001
1000
0001
0000
,
1100
0001
0101
1000
,
1100
0000
0001
0010
1000
0100
0010
0001
,
0102
0100
0100
0103
,
0100
0010
0100
0000
1000
0000
0001
0000
,
1000
0001
1000
1001
,
1001
0000
1001
0000
0000
0000
1000
0010
,
0001
0000
0001
0010
1000
0000
1000
0010
,
0100
0001
0100
0010
0000
0000
1000
0100
,
0001
0000
0001
0100
1000
0000
1000
0100
,
1000
0100
0010
0001
0010
0001
2002
0000
,
0000
3003
1000
0001
,
1000
1000
1000
0000
,
0000
0000
0000
0000
,
0000
0000
1010
1000
,
0100
0010
0011
0001
,
0100
0010
0110
0010
,
1000
0100
0002
2003
,
3001
0001
0000
1000
,
1000
0000
0000
0000
0001
0010
0100
1000
,
0001
0010
0100
1000
0000
0000
1100
0000
,
0100
0010
0001
0011
,
0001
0010
0100
1100
,
0100
0001
0010
1000
,
2002
0000
0000
3003
,
0000
0000
1000
0100
1000
0001
1000
0100
,
0000
0000
0001
0100
0001
1000
0001
0100
,
0000
0000
1000
0100
0001
1000
0001
0100
,
0000
0000
1000
0010
0001
1000
0001
0010
,
0000
2100
3100
0120
,
0130
0012
0013
2000
,
3001
0002
1003
0001
,
1000
2002
0000
3003
,
1000
0100
0001
0010
0000
0000
1000
0010
,
0001
0100
1001
0000
0110
0000
1001
0000
,
0110
0000
1000
0010
0100
0000
0100
0001
,
0010
4004
0000
0000
,
0000
3003
0000
0000
,
0001
1000
1001
0000
1000
0001
1001
0000
,
0001
0010
1000
0100
0001
0000
0001
0100
,
1000
0010
0002
0000
0000
0000
0000
0000
,
1003
0000
1000
0100
0010
0100
0010
0001
,
0010
0100
0010
0100
1000
0100
0010
0100
,
0010
0001
1000
0001
1000
0001
1000
0001
,
0200
0000
0000
0300
,
1000
0010
0001
0100
1000
0100
0010
0001
,
0010
1000
0100
0001
0100
0010
0001
1000
,
2002
0000
0000
3003
,
0220
0000
0000
0000
,
0000
0330
0000
0000
,
0000
0000
0000
0000
,
0000
0000
0000
0000
,
0000
0000
0000
0000
,
0000
0000
0000
0000
,
0000
0000
0000
0000
,
0000
0000
0000
0000
,
0000
0000
0000
0000
,
0000
1000
0010
0001
,
0100
1000
0000
0000
,
1000
0100
0001
0010
,
1000
0000
0000
0000
,
0010
0100
0010
0100
,
1000
0000
0000
1000
,
0001
1000
0001
0010
,
1000
1000
0001
0000
,
0000
0000
1000
0010
0001
0000
0001
0010
,
1000
0000
1000
0100
0010
0100
0010
0001
,
0000
0000
0010
1000
0100
0001
0100
1000
,
0010
0001
0000
1000
1000
1000
0001
0001
,
0001
0000
0001
0100
1000
0000
1000
0100
,
0001
0000
0001
0010
1000
0100
0010
0100
,
0000
0000
0010
0001
0010
0100
1000
0100
,
0010
0001
0000
0100
0100
0100
0010
0010
,
0010
0000
0010
0001
0100
0000
0100
0010
,
1000
0000
1000
0100
0001
0000
1000
0010
,
0001
0000
0001
0010
0100
0000
1000
0100
,
0010
0000
0001
1000
0001
1000
0002
0000
,
0000
0003
2000
3200
,
0320
0032
2003
3002
,
0003
0110
1001
0000
,
1000
0001
1000
0000
0000
0000
0000
0000
,
2002
0000
0000
0000
,
0000
0000
0000
0000
,
0000
3003
0000
0000
;
