#TITLE:YAMATO NADESHIKO ~MAXXX400∞STYLE~;
#SUBTITLE:大和撫子魂;
#ARTIST:小阪りゆ;
#TITLETRANSLIT:YAMATO NADESHIKO ~MAXXX400 STYLE~;
#SUBTITLETRANSLIT:Yamato Nadeshiko Damashi;
#ARTISTTRANSLIT:Kosaka Riyu;
#GENRE:;
#CREDIT:djKEN.;
#MENUCOLOR:;
#NEWMETERSYSTEM:NO;
#BANNER:YAMATO NADESHIKO ~MAXXX400 Style~ENG edit~-bn.png;
#BACKGROUND:YAMATO NADESHIKO ~MAXXX400 Style~ENG edit~-bg.png;
#LYRICSPATH:yamato-lyrics.lrc;
#CDTITLE:!tsm-cdtitle.png;
#MUSIC:YAMATO NADESHIKO ~MAXXX400 Style~ENG edit~.mp3;
#OFFSET:1.045;
#SAMPLESTART:30.500;
#SAMPLELENGTH:16.000;
#SELECTABLE:YES;
#LISTSORT:;
#DISPLAYBPM:400.000;
#BPMS:0.000=100.000,4.000=400.000,319.000=430.000,320.000=460.000,321.000=490.001,322.000=520.000,323.000=550.000,324.000=572.000,325.000=573.000,331.000=400.003,419.000=100.000,421.500=200.000,424.000=300.000,427.000=400.000,432.000=600.000,439.000=999.000,464.000=400.000,656.000=300.002,659.000=200.002,660.500=100.002,661.500=57.302;
#STOPS:98.000=0.165,160.000=0.450,447.000=0.420,455.000=0.420;
#BGCHANGES:;
#ATTACKS:;

//---------------dance-single - TimeSpaceMage----------------
#NOTES:
     dance-single:
     TimeSpaceMage:
     Beginner:
     4:
     0.223,0.462,0.065,0.428,0.000:
0000
0000
1001
0000
,
0000
0000
0000
0000
,
0000
0000
0000
0000
,
0002
0000
0000
0000
,
0000
0000
0000
0000
,
2003
0000
0000
0000
,
0000
0000
0000
0000
,
3002
0000
0000
0000
,
0000
0000
0000
0000
,
2003
0000
0000
0000
,
0000
0000
0000
0000
,
3002
0000
0000
0000
,
0000
0000
0000
0000
,
2003
0000
0000
0000
,
0000
0000
0000
0000
,
3002
0000
0000
0000
,
0000
0000
0000
0000
,
2003
0000
0000
0000
,
0000
0000
0000
0000
,
3002
0003
0000
0000
,
2000
3000
0000
0000
,
1001
0000
0000
0000
,
1001
0000
0000
0000
,
2002
0000
0000
0000
,
3000
0000
0000
0000
,
0000
0000
0000
0000
,
0000
0000
0000
0000
,
0000
0000
0003
0000
,
0000
0000
0000
2000
,
0000
0000
0000
3000
,
0000
0000
0000
0002
,
0000
0000
0000
0003
,
0000
0000
0000
2000
,
0000
0000
0000
3000
,
0000
0000
0000
0002
,
0000
0000
0000
0003
,
0000
0000
0000
0010
,
0000
0000
0000
0010
,
0000
0000
0000
0010
,
0000
0000
0000
0020
,
0030
0000
0000
0000
,
2000
0000
0000
0000
,
3000
0000
0000
0000
,
0002
0000
0000
0000
,
0003
0000
0000
0000
,
2000
0000
0000
0000
,
3000
0000
0000
0000
,
0002
0000
0000
0000
,
0003
0000
0000
0000
,
0002
0003
0000
0000
,
2000
3000
0000
0000
,
0002
0003
0000
0000
,
0010
0000
0000
0000
,
0010
0000
0000
0000
,
0010
0000
0000
0000
,
0010
0000
0000
0000
,
1000
0000
0000
0000
,
1000
0000
0000
0000
,
1000
0000
0000
0000
,
1000
0000
0000
0000
,
0100
0000
0000
0000
,
0100
0000
0000
0000
,
0100
0000
0000
0000
,
0100
0000
0000
0000
,
0001
0000
0000
0000
,
0001
0000
0000
0000
,
0001
0000
0000
0000
,
0001
0000
0000
0000
,
0010
0000
0000
0000
,
0010
0000
0000
0000
,
0010
0000
0000
0000
,
0010
0000
0000
0000
,
0020
0000
0000
0000
,
0030
0000
0000
0000
,
2000
0000
0000
0000
,
3000
0000
0000
0000
,
0002
0000
0000
0000
,
0003
0000
0000
0000
,
2000
0000
0000
0000
,
0000
0000
0000
0000
,
0000
0000
0000
0000
,
0000
0000
0000
0000
,
0000
0000
0000
0000
,
3000
0000
0000
0002
,
0000
0000
0000
0003
,
0000
0000
0000
2000
,
0000
0000
0000
3000
,
0000
0000
0000
0002
,
0000
0000
0000
0003
,
0000
0000
0000
2000
,
0000
0000
0000
3001
,
0000
0000
0000
0001
,
0000
0000
0000
0001
,
0000
0000
0000
0001
,
0000
0000
0000
1000
,
0000
0000
0000
1000
,
0000
0000
0000
1000
,
0000
0000
0000
1000
,
0000
0000
0000
0001
,
0000
0001
0000
0001
,
0000
0000
0000
1000
,
0000
1000
0000
1000
,
0000
0000
0000
0100
,
0000
0000
0000
0100
,
0000
0000
0000
0200
,
0000
0000
0000
0000
,
0000
0000
0000
0000
,
0000
0000
0000
0000
,
0000
0000
0000
0000
,
0000
0000
0000
0000
,
0000
0000
0000
0000
,
0000
0000
0000
0000
,
0000
0000
0000
0000
,
0000
0000
0000
0000
,
0000
0000
0000
0000
,
0000
0000
0000
0000
,
0300
0000
0000
0000
,
0000
0000
0000
0000
,
0001
0000
0000
0000
,
0001
0000
0000
0000
,
1000
0000
0000
0000
,
1000
0000
0000
0000
,
1000
0000
0000
0000
,
1000
0000
0000
0000
,
0002
0000
0000
0000
,
0003
0000
0000
0000
,
2000
0000
0000
0000
,
3000
0000
0000
0000
,
1001
0000
0000
0000
,
1001
0000
0000
0000
,
1001
0000
0000
0000
,
0002
0000
0000
0000
,
2003
0000
0000
0000
,
0001
0000
0000
0000
,
3001
0000
0000
0000
,
0001
0000
0000
0000
,
0002
0000
0000
0000
,
1000
0000
0000
0000
,
1003
0000
0000
0000
,
1000
0000
0000
0000
,
2000
0000
0000
0000
,
0001
0000
0000
0000
,
3001
0000
0000
0000
,
0001
0000
0000
0000
,
0010
0000
0000
0000
,
0010
0000
0000
0000
,
1000
0000
0000
0000
,
1000
0000
0000
0000
,
2000
0000
0000
0000
,
0000
0000
0000
0000
,
3002
0000
0000
0000
,
0000
0000
0000
0000
,
2003
0000
0000
0000
,
0000
0000
0000
0000
,
3002
0000
0000
0000
,
0000
0000
0000
0000
,
2003
0000
0000
0000
,
0000
0000
0000
0000
,
3002
0000
0000
0000
,
0000
0000
0000
0000
,
1003
0000
0000
0000
,
1000
0000
0000
0000
,
0001
0000
0001
0000
,
0001
0000
0001
0000
,
0002
0000
0000
0000
,
0000
0000
0000
0000
0000
0003
0000
0000
;

//---------------dance-single - TimeSpaceMage----------------
#NOTES:
     dance-single:
     TimeSpaceMage:
     Medium:
     8:
     0.517,1.000,0.270,0.577,0.000: // measure 1
0000
0000
2000
0000
,  // measure 2
3100
0000
0000
1000
,  // measure 3
0000
0001
0100
0000
,  // measure 4
0001
0000
0000
0001
,  // measure 5
0000
1000
0100
0000
,  // measure 6
1000
0000
0000
1000
,  // measure 7
0000
0001
0010
0000
,  // measure 8
0001
0000
0000
0001
,  // measure 9
0000
1000
0010
0000
,  // measure 10
1000
0000
0000
1000
,  // measure 11
0000
0010
0100
0000
,  // measure 12
0001
0000
0000
0001
,  // measure 13
0000
0010
0100
0000
,  // measure 14
1000
0000
0000
1000
,  // measure 15
0000
0010
0100
0000
,  // measure 16
0001
0000
0000
0001
,  // measure 17
0000
0010
0100
0000
,  // measure 18
2200
3300
0000
0000
0000
0000
0000
0000
,  // measure 19
0100
0000
1000
0000
,  // measure 20
0010
0000
0100
0000
,  // measure 21
0001
0000
0010
0000
,  // measure 22
0001
0000
1000
0000
,  // measure 23
0100
0000
0010
0000
,  // measure 24
0001
0000
1000
0000
,  // measure 25
0001
0000
0000
0000
0100
0000
0000
0000
0002
0003
0000
0000
0000
0000
0000
0000
,  // measure 26
0000
0010
0000
0001
,  // measure 27
0000
0010
0000
0001
,  // measure 28
0000
0100
0000
1000
,  // measure 29
0000
0000
0200
0300
0000
0000
0000
0000
,  // measure 30
0000
0010
0000
1000
,  // measure 31
0000
0010
0000
1000
,  // measure 32
0000
0100
0000
1000
,  // measure 33
0000
0000
0200
0300
0000
0000
0000
0000
,  // measure 34
0000
0010
0000
0001
,  // measure 35
0000
0001
0000
1000
,  // measure 36
0000
0100
0000
0100
,  // measure 37
0000
1000
0000
0200
,  // measure 38
0000
0000
0000
0320
,  // measure 39
0000
0000
0000
0032
,  // measure 40
0000
0000
0000
0203
,  // measure 41
0000
0000
1000
0300
,  // measure 42
0010
0000
2000
0000
,  // measure 43
0000
0000
3001
0000
,  // measure 44
0010
0000
0002
0000
,  // measure 45
0000
0000
0103
0000
,  // measure 46
1000
0000
0200
0000
,  // measure 47
0000
0000
0301
0000
,  // measure 48
0010
0000
0002
0000
,  // measure 49
0100
0000
1000
0000
,  // measure 50
1000
0000
0000
0000
0000
0000
0000
0000
0200
0003
0000
0000
0000
0000
0000
0000
,  // measure 51
0010
0000
0001
0000
,  // measure 52
0001
0000
0310
0000
,  // measure 53
0220
0330
0000
0000
0000
0000
0000
0000
,  // measure 54
0202
0303
0000
0000
0000
0000
0000
0000
,  // measure 55
2002
3003
0000
0000
0000
0000
0000
0000
,  // measure 56
2200
3300
0000
0000
0000
0000
0000
0000
,  // measure 57
1000
0000
0100
0000
,  // measure 58
1000
0000
0100
0000
,  // measure 59
0020
0030
0000
0000
,  // measure 60
0010
0000
0001
0000
,  // measure 61
0010
0000
0001
0000
,  // measure 62
0100
0000
1000
0000
,  // measure 63
0200
0300
0000
0000
,  // measure 64
1000
0000
0100
0000
,  // measure 65
0001
0000
0010
0000
,  // measure 66
0001
0000
0001
0000
,  // measure 67
0200
0000
0000
0000
1000
0000
0000
0300
,  // measure 68
0100
0000
0010
0000
,  // measure 69
1000
0000
0100
0000
,  // measure 70
0001
0000
0100
0000
,  // measure 71
0020
0030
0000
0000
,  // measure 72
0000
0000
0000
0000
,  // measure 73
2000
0000
0000
0000
,  // measure 74
3200
0000
0000
0000
,  // measure 75
0320
0000
0000
0000
,  // measure 76
0032
0000
0000
0000
,  // measure 77
0203
0000
0000
0000
,  // measure 78
0000
0000
0010
0020
,  // measure 79
0300
0000
0000
0000
,  // measure 80
0000
0000
0000
0000
,  // measure 81
0000
0000
0000
0000
,  // measure 82
0000
0000
0000
0000
,  // measure 83
0000
0000
0000
0030
,  // measure 84
0000
1000
0000
0010
,  // measure 85
1000
0010
0000
0000
,  // measure 86
0000
0100
0000
0001
,  // measure 87
0100
0001
0000
0000
,  // measure 88
0000
0010
0000
0001
,  // measure 89
0010
0001
0000
0000
,  // measure 90
0000
1000
0000
0010
,  // measure 91
1000
0010
0000
1000
,  // measure 92
0200
0000
0000
0000
,  // measure 93
0000
0000
0000
0000
0000
0000
0001
0300
,  // measure 94
0200
0000
0000
0000
,  // measure 95
1000
0300
1000
0020
,  // measure 96
1000
0000
0000
0000
,  // measure 97
0000
0001
0000
0000
,  // measure 98
1000
0000
0000
0030
0020
0000
0000
0000
,  // measure 99
1000
0000
1030
0000
,  // measure 100
0000
0001
0100
0001
,  // measure 101
0100
0001
0000
0000
,  // measure 102
0000
1000
0010
1000
,  // measure 103
0010
1000
0000
1100
,  // measure 104
0000
0000
1001
0000
,  // measure 105
0000
0201
0000
0020
,  // measure 106
0000
0000
0000
0000
,  // measure 107
0000
0000
0000
0000
,  // measure 108
0000
0000
0000
0000
,  // measure 109
0000
0000
0000
0000
,  // measure 110
0000
0000
0000
0000
,  // measure 111
0000
0000
0000
0000
,  // measure 112
0000
0000
0000
0000
0000
0000
0000
0000
0000
0000
0000
0000
0000
0030
0000
0000
,  // measure 113
0000
0000
0000
0000
,  // measure 114
0000
0000
0000
0000
0000
0000
0000
0000
0000
0000
0000
0000
0000
0300
0000
0000
,  // measure 115
0000
0000
0000
0000
,  // measure 116
0000
0000
0000
0000
,  // measure 117
0000
0000
0001
0010
,  // measure 118
0001
0000
1000
0100
,  // measure 119
1000
0000
0001
0100
,  // measure 120
0001
0000
1000
0010
,  // measure 121
1000
0000
0010
1000
,  // measure 122
0001
0010
0001
0010
,  // measure 123
0001
0000
0100
0001
,  // measure 124
0100
0001
0100
0010
,  // measure 125
2000
0000
0000
0000
,  // measure 126
0000
0100
0100
3200
,  // measure 127
0000
0000
0000
0000
,  // measure 128
0000
0010
0010
0310
,  // measure 129
0000
0000
0011
0000
,  // measure 130
0011
0000
1001
0000
,  // measure 131
1010
0000
1000
0000
,  // measure 132
0100
0000
1000
0100
,  // measure 133
0010
0000
0100
0010
,  // measure 134
0001
0000
0010
0001
,  // measure 135
0100
0000
0001
0100
,  // measure 136
0010
1000
0010
1000
,  // measure 137
0001
0000
0010
0001
,  // measure 138
1000
0100
1000
0100
,  // measure 139
0010
0000
0010
0000
,  // measure 140
0011
0000
0001
0000
,  // measure 141
2100
0000
0000
0000
,  // measure 142
3000
0100
0000
0110
,  // measure 143
0000
0010
0000
0011
,  // measure 144
0000
0001
0000
1001
,  // measure 145
0000
0010
0000
2020
,  // measure 146
0000
3030
0000
0000
0100
0000
0000
0000
,  // measure 147
0110
0000
0001
0000
,  // measure 148
0101
0000
1000
0000
,  // measure 149
1000
0100
1000
0100
,  // measure 150
0000
0100
1000
0000
,  // measure 151
0001
0010
0001
0010
,  // measure 152
0000
0010
0001
0000
,  // measure 153
0100
0001
0100
0001
,  // measure 154
0000
0001
0100
0000
,  // measure 155
0010
1000
0010
1000
,  // measure 156
0000
1000
0010
0000
,  // measure 157
1000
0001
1000
0001
,  // measure 158
0000
1000
0001
0000
,  // measure 159
0010
0100
0010
0100
,  // measure 160
0000
0010
0100
0000
,  // measure 161
2200
3300
0000
0000
2002
3003
0000
0000
,  // measure 162
2020
3030
0000
0000
0220
0330
0000
0000
,  // measure 163
0202
0303
0000
0000
2020
3030
0000
0000
,  // measure 164
0022
0033
0000
0000
2200
3300
0000
0000
,  // measure 165
0220
0000
0000
0000
,  // measure 166
0000
0000
0000
0000
0000
0330
0000
0000
;
