#TITLE:A Brighter Day;
#SUBTITLE:;
#ARTIST:NAOKI feat. Aleisha G;
#TITLETRANSLIT:;
#SUBTITLETRANSLIT:;
#ARTISTTRANSLIT:;
#GENRE:;
#CREDIT:;
#MENUCOLOR:;
#METERTYPE:DDR;
#BANNER:A Brighter Day.png;
#BACKGROUND:A Brighter Day-bg.png;
#LYRICSPATH:ABD.lrc;
#CDTITLE:!tsm-cdtitle.png;
#MUSIC:A Brighter Day - NAOKI feat. Aleisha G.mp3;
#OFFSET:-0.792;
#SAMPLESTART:65.990;
#SAMPLELENGTH:12.200;
#SELECTABLE:YES;
#LISTSORT:;
#DISPLAYBPM:155.000;
#BPMS:0.000=155.000;
#STOPS:;
#BGCHANGES:;
#ATTACKS:;

//---------------dance-single - TimeSpaceMage----------------
#NOTES:
     dance-single:
     TimeSpaceMage:
     Easy:
     3:
     0.325,0.399,0.045,0.641,0.000: // measure 1
0000
0000
0000
0000
,  // measure 2
1000
0000
0001
0010
,  // measure 3
0100
0010
0001
0000
,  // measure 4
0001
0000
1000
0010
,  // measure 5
0100
0010
1000
0000
,  // measure 6
2000
0000
0000
3000
,  // measure 7
0002
0000
0000
0003
,  // measure 8
0200
0000
0000
0300
,  // measure 9
0010
0100
0010
0100
,  // measure 10
0010
0000
1000
0001
,  // measure 11
0001
1000
0001
0000
,  // measure 12
0010
0000
1000
0001
,  // measure 13
1000
1000
0001
0000
,  // measure 14
0200
0000
0000
0300
,  // measure 15
0020
0000
0000
0030
,  // measure 16
0200
0000
0000
0300
,  // measure 17
0002
0000
0000
0000
2003
0000
0000
3000
,  // measure 18
0200
0320
0230
0300
,  // measure 19
0002
0023
0032
0003
,  // measure 20
2000
3200
2300
3000
,  // measure 21
0002
0203
0302
0003
,  // measure 22
2000
3020
2030
3000
,  // measure 23
0200
0320
0230
0300
,  // measure 24
0002
2003
3020
0030
,  // measure 25
2000
3002
0023
0030
,  // measure 26
0001
0010
0100
1000
,  // measure 27
0100
0010
0001
0000
,  // measure 28
1000
0100
0010
0001
,  // measure 29
0010
0100
1000
0000
,  // measure 30
1000
0100
1000
0100
,  // measure 31
0010
0001
0010
0001
,  // measure 32
2000
0000
3002
0000
,  // measure 33
1000
0010
0010
0003
,  // measure 34
0001
0010
0100
1000
,  // measure 35
0100
0010
0001
0000
,  // measure 36
1000
0010
1000
0010
,  // measure 37
2000
0000
0020
3030
,  // measure 38
0100
0000
0100
0100
,  // measure 39
0001
0001
1000
0001
,  // measure 40
0020
0000
0030
0000
,  // measure 41
1001
0000
0110
0000
,  // measure 42
1001
0000
1001
0000
,  // measure 43
0000
1000
0001
1000
,  // measure 44
0001
0000
0001
0010
,  // measure 45
0100
0010
0001
0000
,  // measure 46
0001
0000
1000
0010
,  // measure 47
0100
0010
1000
0000
,  // measure 48
2000
0000
0000
3000
,  // measure 49
0002
0000
0000
0003
,  // measure 50
0200
0000
0000
0300
,  // measure 51
0010
0100
0010
0100
,  // measure 52
0010
0000
1000
0100
,  // measure 53
0001
0100
1000
0000
,  // measure 54
0010
0000
0001
0100
,  // measure 55
1000
0100
0001
0000
,  // measure 56
0200
0000
0000
0300
,  // measure 57
0020
0000
0000
0030
,  // measure 58
0200
0000
0000
0300
,  // measure 59
0002
0000
0000
0000
2003
0000
0000
3000
,  // measure 60
0200
0320
0230
0300
,  // measure 61
0002
0023
0032
0003
,  // measure 62
2000
3200
2300
3000
,  // measure 63
0002
0203
0302
0003
,  // measure 64
2000
3020
2030
3000
,  // measure 65
0200
0320
0230
0300
,  // measure 66
0002
2003
3020
0030
,  // measure 67
2000
3002
0023
0030
,  // measure 68
2002
0000
0000
0000
,  // measure 69
3003
0000
0000
0000
;

//---------------dance-single - TimeSpaceMage----------------
#NOTES:
     dance-single:
     TimeSpaceMage:
     Medium:
     5:
     0.392,0.430,0.099,0.316,0.000: // measure 1
0000
0000
0000
0000
,  // measure 2
1000
0000
0000
1000
0000
0000
1000
0000
,  // measure 3
0002
0000
0000
0013
0000
0000
1000
0000
,  // measure 4
0001
0000
0000
0001
0000
0000
0001
0000
,  // measure 5
0200
0000
0000
0310
0000
0000
1000
0000
,  // measure 6
2020
3030
2002
3003
,  // measure 7
0101
0001
0100
0001
,  // measure 8
2000
0000
0000
3020
0000
0000
0030
0000
,  // measure 9
0101
0001
1000
1000
,  // measure 10
1200
0000
0000
0310
0000
0000
0010
0000
,  // measure 11
0001
0001
0010
0001
,  // measure 12
1000
0000
0000
1000
0000
0000
1000
0000
,  // measure 13
0010
0010
1000
0010
,  // measure 14
0100
0100
0010
0010
,  // measure 15
1000
1000
0100
0100
,  // measure 16
0010
0001
0010
0001
,  // measure 17
2000
0000
0000
0000
3002
0000
0000
0003
,  // measure 18
1000
0000
1000
0000
0100
1000
0100
0000
,  // measure 19
1000
0000
1000
0000
0100
0010
0100
0000
,  // measure 20
0001
0000
0001
0000
0010
0001
0010
0000
,  // measure 21
0001
0000
0001
0000
0010
0100
0010
0000
,  // measure 22
0100
0000
1000
0000
0100
1000
0100
0000
,  // measure 23
0001
0000
0010
0000
0001
0010
0001
0000
,  // measure 24
1000
0000
0001
0000
1000
0001
1000
0000
,  // measure 25
0001
0000
1000
0000
0001
1000
0001
0000
,  // measure 26
1000
0100
0010
0001
,  // measure 27
0010
0001
0010
0001
0000
0000
0000
0000
,  // measure 28
0001
0010
0100
1000
,  // measure 29
0100
1000
0100
1000
0000
0000
0000
0000
,  // measure 30
2000
0100
0100
3100
,  // measure 31
0020
0001
0001
0031
,  // measure 32
0002
0000
0000
0010
0013
0000
0000
0000
,  // measure 33
0100
1000
0100
0000
0010
0001
0010
0000
,  // measure 34
0001
0100
0010
1000
,  // measure 35
0010
1000
0010
1000
0000
0000
0000
0000
,  // measure 36
1000
0010
0100
0001
,  // measure 37
0020
0100
0100
0130
,  // measure 38
1000
0000
1000
0010
1000
0000
0001
0100
,  // measure 39
0001
0000
1000
0100
0010
0000
0001
0010
,  // measure 40
0200
0000
0000
0000
0000
0300
0000
1000
,  // measure 41
2000
3200
0320
0032
,  // measure 42
0023
0000
0000
0001
0032
0000
0000
0000
,  // measure 43
0003
0100
0010
0100
,  // measure 44
1000
0000
0000
1000
0000
0000
1000
0000
,  // measure 45
0002
0000
0000
0013
0000
0000
1000
0000
,  // measure 46
0001
0000
0000
0001
0000
0000
0001
0000
,  // measure 47
0200
0000
0000
0310
0000
0000
1000
0000
,  // measure 48
2020
3030
2002
3003
,  // measure 49
0101
0001
0100
0001
,  // measure 50
2000
0000
0000
3020
0000
0000
0030
0000
,  // measure 51
0101
0001
1000
1000
,  // measure 52
1200
0000
0000
0310
0000
0000
0010
0000
,  // measure 53
0001
0001
0010
0001
,  // measure 54
1000
0000
0000
1000
0000
0000
1000
0000
,  // measure 55
0010
0010
1000
0010
,  // measure 56
0100
0100
0010
0010
,  // measure 57
1000
1000
0100
0100
,  // measure 58
0010
0001
0010
0001
,  // measure 59
2000
0000
0000
0000
3002
0000
0000
0003
,  // measure 60
1000
0000
1000
0000
0100
1000
0100
0000
,  // measure 61
1000
0000
1000
0000
0100
0010
0100
0000
,  // measure 62
0001
0000
0001
0000
0010
0001
0010
0000
,  // measure 63
0001
0000
0001
0000
0010
0100
0010
0000
,  // measure 64
0100
0000
1000
0000
0100
1000
0100
0000
,  // measure 65
0001
0000
0010
0000
0001
0010
0001
0000
,  // measure 66
1000
0000
0001
0000
1000
0001
1000
0000
,  // measure 67
0001
0000
1000
0000
0001
1000
0001
0000
,  // measure 68
2002
0000
0000
0000
,  // measure 69
3003
0000
0000
0000
;

//---------------dance-single - TimeSpaceMage----------------
#NOTES:
     dance-single:
     TimeSpaceMage:
     Hard:
     8:
     0.597,0.552,0.217,0.560,0.244: // measure 1
0000
0000
0000
0000
,  // measure 2
0200
0000
0000
2300
0000
3001
0001
0010
,  // measure 3
0100
0010
0001
2000
0000
0010
3100
0001
,  // measure 4
0020
0000
0000
0230
0000
1300
0001
0010
,  // measure 5
0100
0001
0100
0010
0000
0001
0002
0100
,  // measure 6
0203
0000
0000
0010
0320
0000
0000
1000
,  // measure 7
2030
3200
0320
0032
,  // measure 8
0203
0010
0010
0310
0000
0000
0000
0000
,  // measure 9
2000
0000
0000
0000
3200
0000
0000
0000
0320
0000
0000
0000
0032
0000
0000
0003
,  // measure 10
2000
0000
0000
3002
0000
0100
0103
0001
,  // measure 11
1000
0010
1000
0010
0000
0100
0001
0001
,  // measure 12
0020
0000
0000
0032
0000
1000
1003
0001
,  // measure 13
0010
0100
0010
0100
0000
0010
0001
0001
,  // measure 14
1001
0000
0000
1000
0110
0000
0000
0010
,  // measure 15
1001
0000
0000
1000
0110
0000
0000
0010
,  // measure 16
1001
0000
0000
1000
0110
0000
0000
0000
,  // measure 17
0200
0320
2030
3002
,  // measure 18
0103
0000
0000
0001
0100
0000
0000
0100
0010
0000
0000
0010
1000
0000
0010
0000
,  // measure 19
0100
0000
0000
0001
0010
0000
0000
0010
0001
0000
0000
0001
0010
0000
0100
0000
,  // measure 20
1000
0000
0000
0100
0010
0000
0000
0010
0001
0000
0000
0001
0010
0000
0001
0000
,  // measure 21
1000
0000
0000
1000
0010
0000
0000
0001
0010
0000
0000
1000
0010
0000
1000
0000
,  // measure 22
0100
0000
0000
0100
0010
0000
0000
0010
0100
0000
0000
0100
0010
0000
0001
0000
,  // measure 23
0100
0000
0000
0100
0010
0000
0000
0010
0100
0000
0000
0100
0010
0000
1000
0000
,  // measure 24
0100
0000
0000
0010
0001
0000
0000
0001
1000
0000
0000
1000
0001
0000
0100
0000
,  // measure 25
0001
0000
0000
0100
0010
0000
0000
0010
1000
0000
0000
1000
0010
0000
0100
0000
,  // measure 26
0001
0100
0001
0100
0000
0010
1000
1000
,  // measure 27
0100
0010
0010
0200
0000
0000
0300
0000
,  // measure 28
0010
0001
0010
0001
0000
1000
0001
0001
,  // measure 29
0100
0010
0010
0200
0000
0000
0300
0000
,  // measure 30
0001
0010
1000
0010
0000
0010
0100
1000
,  // measure 31
0100
0110
0010
0011
,  // measure 32
1002
0000
0000
0100
0200
0000
0303
0000
,  // measure 33
0001
0000
1000
0000
0100
0000
0010
0001
0000
0100
0000
0001
0010
0000
0110
0000
,  // measure 34
0100
1000
0010
1000
0000
0001
0100
0100
,  // measure 35
0010
1000
1000
0002
0000
0000
0003
0000
,  // measure 36
1000
0100
0010
0001
0000
0001
0010
0100
,  // measure 37
1000
0010
0100
0010
,  // measure 38
1000
0000
0000
0000
0000
0000
1000
0000
1010
0000
0000
0010
0000
0000
0100
0000
,  // measure 39
0101
0000
0000
1000
0000
0000
0100
0000
1100
0000
0000
0010
0000
0000
0100
0000
,  // measure 40
0220
0000
0000
0000
0000
0330
0000
0001
,  // measure 41
0012
1000
0100
0013
,  // measure 42
0210
0000
0000
1000
2000
0000
0000
0000
,  // measure 43
3300
0001
0110
0010
,  // measure 44
0200
0000
0000
2300
0000
3001
0001
0010
,  // measure 45
0100
0010
0001
2000
0000
0010
3100
0001
,  // measure 46
0020
0000
0000
0230
0000
1300
0001
0010
,  // measure 47
0100
0001
0100
0010
0000
0001
0002
0100
,  // measure 48
0203
0000
0000
0010
0320
0000
0000
1000
,  // measure 49
2030
3200
0320
0032
,  // measure 50
0203
0010
0010
0310
0000
0000
0000
0000
,  // measure 51
2000
0000
0000
0000
3200
0000
0000
0000
0320
0000
0000
0000
0032
0000
0000
0003
,  // measure 52
2000
0000
0000
3002
0000
0100
0103
0001
,  // measure 53
1000
0010
1000
0010
0000
0100
0001
0001
,  // measure 54
0020
0000
0000
0032
0000
1000
1003
0001
,  // measure 55
0010
0100
0010
0100
0000
0010
0001
0001
,  // measure 56
1001
0000
0000
1000
0110
0000
0000
0010
,  // measure 57
1001
0000
0000
1000
0110
0000
0000
0010
,  // measure 58
1001
0000
0000
1000
0110
0000
0000
0000
,  // measure 59
0200
0320
2030
3002
,  // measure 60
0103
0000
0000
0001
0100
0000
0000
0100
0010
0000
0000
0010
1000
0000
0010
0000
,  // measure 61
0100
0000
0000
0001
0010
0000
0000
0010
0001
0000
0000
0001
0010
0000
0100
0000
,  // measure 62
1000
0000
0000
0100
0010
0000
0000
0010
0001
0000
0000
0001
0010
0000
0001
0000
,  // measure 63
1000
0000
0000
1000
0010
0000
0000
0001
0010
0000
0000
1000
0010
0000
1000
0000
,  // measure 64
0100
0000
0000
0100
0010
0000
0000
0010
0100
0000
0000
0100
0010
0000
0001
0000
,  // measure 65
0100
0000
0000
0100
0010
0000
0000
0010
0100
0000
0000
0100
0010
0000
1000
0000
,  // measure 66
0100
0000
0000
0010
0001
0000
0000
0001
1000
0000
0000
1000
0001
0000
0100
0000
,  // measure 67
0001
0000
0000
0100
0010
0000
0000
0010
1000
0000
0000
1000
0010
0000
0100
0000
,  // measure 68
0220
0000
0000
0000
,  // measure 69
0330
0000
0000
0000
;

//---------------dance-single - TimeSpaceMage----------------
#NOTES:
     dance-single:
     TimeSpaceMage:
     Challenge:
     10:
     0.770,0.798,0.370,0.190,0.677: // measure 1
0000
0000
0000
0000
,  // measure 2
1100
0000
0000
0101
0000
0010
1000
0010
,  // measure 3
0100
0010
1000
0010
0000
0100
0001
0010
,  // measure 4
0110
0000
0000
1100
0000
1000
0100
0010
,  // measure 5
0001
0010
0100
1000
0000
0001
1000
0010
,  // measure 6
0200
0000
0000
0010
0320
0000
0000
1000
,  // measure 7
1030
2100
3001
0101
,  // measure 8
0010
0010
1000
0020
0000
0000
0030
0000
,  // measure 9
1000
1100
1010
0101
,  // measure 10
1010
0000
0000
0011
0000
0001
0100
0100
,  // measure 11
0010
1000
0100
0010
0000
0001
0100
0010
,  // measure 12
1010
0000
0000
0101
0000
0100
0010
1000
,  // measure 13
0001
0010
0010
0001
0000
0100
1000
0100
,  // measure 14
1100
0000
0000
0010
0011
0000
0000
0100
,  // measure 15
1001
0000
0000
0010
1001
0000
0000
0001
,  // measure 16
0110
0000
0000
1000
0110
0000
0000
0000
,  // measure 17
0200
0320
0032
2003
,  // measure 18
3100
0000
0100
0010
0000
0010
0001
0010
0001
0010
0001
0010
0001
0000
1000
0000
,  // measure 19
0100
0010
0100
0000
0000
0010
0100
1000
0100
1000
0100
0010
0001
0000
0100
0000
,  // measure 20
0001
0100
0001
0000
0000
0100
0010
1000
0010
1000
0010
1000
0010
0000
0100
0000
,  // measure 21
0001
0100
0001
0000
0000
0010
0001
0010
0001
0010
0001
0010
0001
0000
0100
1000
,  // measure 22
0100
0010
0100
0000
0000
0001
0100
1000
0100
0000
0100
0001
0100
0000
1000
0100
,  // measure 23
0010
0100
1000
0000
0000
0001
0100
1000
0100
0000
0100
0001
0100
0000
1000
0010
,  // measure 24
1000
0001
0100
0000
0000
0001
0010
0100
1000
0000
0100
0010
0001
0000
0100
0010
,  // measure 25
1000
0010
1000
0000
0000
1000
0010
0100
0001
0000
0100
0010
1000
0000
1000
0100
,  // measure 26
0010
0000
0100
0000
1000
0000
0100
0000
0010
0001
1000
0100
0001
0000
0100
0000
,  // measure 27
1000
0001
0100
0000
0001
0000
0100
0000
0010
1000
0000
0001
0000
1000
0010
0000
,  // measure 28
0100
0001
1000
0000
0100
0000
0010
0000
0100
1000
0000
1000
0010
0000
1000
0000
,  // measure 29
0001
0100
0010
0100
0001
0000
1000
0000
0100
1000
0000
0001
0000
1000
0010
0000
,  // measure 30
0100
0010
1000
0010
1000
0000
0001
0000
0010
0001
0010
0001
0000
1000
0001
0000
,  // measure 31
0100
0001
0100
0001
0100
0000
0010
0000
1000
0100
0000
0010
0000
0100
1000
0000
,  // measure 32
0010
0100
0010
0000
1000
0000
0010
0000
0100
1000
0000
0100
0000
0001
0100
0000
,  // measure 33
0010
1000
0100
0010
0001
0000
0010
0000
0100
1000
0000
1000
0010
0000
1000
0000
,  // measure 34
0010
1000
0010
0000
0100
0000
0010
0000
1000
0100
0000
0010
0001
0000
0010
0000
,  // measure 35
0100
1000
0100
0000
0010
0000
0100
0000
0010
0001
0000
0001
0010
0000
0001
0000
,  // measure 36
1000
0010
0100
0000
0010
0000
0100
0000
0001
1000
0000
1000
0100
0000
0010
0000
,  // measure 37
0001
0010
0001
0010
0001
0000
1000
0000
0100
1000
0000
0010
0000
0010
1000
0000
,  // measure 38
0001
0100
0001
0100
1000
0000
0100
0000
0010
1000
0000
0010
0000
0100
0010
0000
,  // measure 39
1000
0100
0010
0100
1000
0000
0001
0000
0100
0010
0100
0010
0000
1000
0010
0000
,  // measure 40
0100
0001
0010
0001
0100
0000
0001
0000
1000
0010
0000
1000
0010
0000
1000
0000
,  // measure 41
0100
0010
0001
0010
0100
0010
0001
0010
0100
0010
0001
0010
0100
0010
0001
0010
,  // measure 42
0200
0000
0000
0000
0000
0300
0010
0000
2002
0000
0000
0000
0000
0000
0000
0000
,  // measure 43
3003
1000
0100
0110
,  // measure 44
0011
0000
0000
1010
0000
0100
0001
0100
,  // measure 45
0010
0100
0001
0100
0000
0010
1000
0100
,  // measure 46
0110
0000
0000
0011
0000
1000
0010
0100
,  // measure 47
0010
0001
0010
0100
0000
0001
1000
0100
,  // measure 48
0020
0000
0000
0100
0230
0000
0000
1000
,  // measure 49
1300
0012
1003
1010
,  // measure 50
0100
0100
0001
0200
0000
0000
0300
0000
,  // measure 51
1000
1100
1010
0101
,  // measure 52
1010
0000
0000
0011
0000
0010
0001
0001
,  // measure 53
0010
0100
1000
1000
0000
0010
0100
0010
,  // measure 54
0101
0000
0000
1010
0000
0100
0010
0010
,  // measure 55
1000
0100
0010
0001
0000
0100
1000
0100
,  // measure 56
1100
0000
0000
0010
0011
0000
0000
0100
,  // measure 57
1001
0000
0000
0010
1001
0000
0000
0001
,  // measure 58
0110
0000
0000
1000
0110
0000
0000
0000
,  // measure 59
0200
0320
0032
2003
,  // measure 60
3100
0000
0100
0010
0000
0010
0001
0010
0001
0010
0001
0010
0001
0000
1000
0000
,  // measure 61
0100
0010
0100
0000
0000
0010
0100
1000
0100
1000
0100
0010
0001
0000
0100
0000
,  // measure 62
0001
0100
0001
0000
0000
0100
0010
1000
0010
1000
0010
1000
0010
0000
0100
0000
,  // measure 63
0001
0100
0001
0000
0000
0010
0001
0010
0001
0010
0001
0010
0001
0000
0100
1000
,  // measure 64
0100
0010
0100
0000
0000
0001
0100
1000
0100
0000
0100
0001
0100
0000
1000
0100
,  // measure 65
0010
0100
1000
0000
0000
0001
0100
1000
0100
0000
0100
0001
0100
0000
1000
0010
,  // measure 66
1000
0001
0100
0000
0000
0001
0010
0100
1000
0000
0100
0010
0001
0000
0100
0010
,  // measure 67
1000
0010
1000
0000
0000
1000
0010
0100
0001
0000
0100
0010
1000
0000
1000
0100
,  // measure 68
0220
0000
0000
0000
,  // measure 69
0330
0000
0000
0000
;
