#TITLE:Tru-E;
#SUBTITLE:;
#ARTIST:Squad-E;
#TITLETRANSLIT:;
#SUBTITLETRANSLIT:;
#ARTISTTRANSLIT:;
#GENRE:UK Hardcore;
#CREDIT:Thumbsy;
#MENUCOLOR:;
#METERTYPE:DDR;
#BANNER:tru-e-bn.png;
#BACKGROUND:tru-e-bg.png;
#LYRICSPATH:;
#CDTITLE:CDTitle.png;
#MUSIC:Tru-E.mp3;
#OFFSET:-1.401;
#SAMPLESTART:64.940;
#SAMPLELENGTH:21.620;
#SELECTABLE:YES;
#LISTSORT:;
#BPMS:0.000=177.450;
#STOPS:;
#BGCHANGES:;
#ATTACKS:;

//---------------dance-single - ----------------
#NOTES:
     dance-single:
     :
     Beginner:
     2:
     0.244,0.292,0.100,0.055,0.000:
0000
0000
0000
0000
,
1000
0000
0000
0000
,
0001
0000
0000
0000
,
0100
0000
0001
0000
,
1000
0000
0000
0000
,
0010
0000
0000
0000
,
1000
0000
0000
0000
,
0001
0000
0010
0000
,
0100
1000
0000
0001
,
0000
1000
0000
0001
,
0000
0010
0000
0100
,
0000
1000
0000
0001
,
0000
0100
0000
0010
,
0000
1000
0000
0001
,
0000
1000
0000
0001
,
0000
1000
0000
1000
,
1000
0000
0010
0000
,
1000
0000
0001
0001
,
0001
0000
1000
0000
,
0010
0000
0100
0100
,
0100
0000
0001
0000
,
0010
0000
0010
0000
,
0010
0001
0000
1000
,
0000
0001
0000
0100
,
0100
0000
0000
0000
,
0010
0000
1000
0000
,
0001
0000
1000
0000
,
0010
0000
0100
0100
,
0100
0000
0100
0000
,
0001
0000
1000
0000
,
0001
0000
1000
0000
,
2002
0000
0000
3003
,
0001
0001
0001
0000
,
0100
0000
0100
0000
,
0010
0010
0010
0000
,
1000
0000
1000
0000
,
0001
0000
0100
0000
,
0010
1000
1000
1000
,
0001
0000
0010
0000
,
0100
0000
1000
0000
,
1001
0000
0000
0000
,
0110
0000
0000
0000
,
1100
0000
0000
0000
,
0011
0000
0010
0001
,
1000
0000
0100
0000
,
1000
0000
0001
0000
,
0010
0000
0001
0000
,
2002
0000
0000
3003
,
0010
0010
0010
0000
,
0001
0000
1000
0000
,
0010
0010
0010
0000
,
1000
0000
0001
0000
,
0100
0100
0100
0000
,
0010
0000
1000
0000
,
0010
0010
0010
0000
,
0001
0000
1000
0000
,
1001
0000
0100
0000
,
0101
0000
0010
0000
,
1010
0000
0001
0000
,
1001
0000
1000
0000
,
0001
0001
0001
0000
,
0010
0000
0001
0000
,
1000
1000
1000
0000
,
1000
0001
1000
0001
,
1000
0000
0010
0000
,
1000
0001
0100
0000
,
0010
0000
0100
0000
,
0010
1000
0001
0000
,
0001
0000
1000
0000
,
0010
1000
0001
0000
,
1000
0000
0001
0000
,
0010
0001
1000
0000
,
1000
0000
1000
0000
,
0010
1000
0001
0000
,
0001
0000
1000
0000
,
1000
0001
0100
0000
,
0001
0000
1000
0000
,
0001
0000
0100
0000
,
0010
0000
0100
0000
,
2002
0000
0000
0000
,
3003
0000
0000
0000
;

//---------------dance-single - ----------------
#NOTES:
     dance-single:
     :
     Easy:
     4:
     0.413,0.401,0.146,0.182,0.000:
0100
0010
1000
0000
,
0100
0010
1000
0000
,
0100
0001
0010
0000
,
0100
0001
0010
0000
,
1000
0100
0010
0001
,
1000
0100
0010
0001
,
0001
0010
0100
1000
,
0001
0010
0100
1000
,
0010
1000
0001
0100
,
0010
1000
0001
0100
,
0001
0100
0001
0100
,
0010
0100
0010
0100
,
0010
1000
0010
1000
,
0100
1000
0100
1000
,
0001
0100
0001
0100
,
0002
0000
2000
3003
,
1001
0000
1000
0100
,
0010
0100
1000
0001
,
0200
0000
0301
0100
,
0010
1000
0001
0100
,
2000
0000
3100
0010
,
0001
1000
0100
0010
,
0011
0022
0000
0033
,
1000
0000
1000
0000
,
0002
0100
1000
0103
,
2000
0100
0001
3100
,
0002
0100
1000
0103
,
2000
0100
0001
3100
,
0001
0000
1000
0001
,
0001
0000
0001
1000
,
1000
0000
1001
0000
,
2002
0000
0000
3003
,
1000
0010
0100
0000
,
0001
0010
0100
0000
,
1000
0001
1000
0000
,
0010
0100
0010
1000
,
0010
0100
0001
0010
,
0001
0100
0001
0010
,
0001
0001
0001
0001
,
1000
1000
1000
1000
,
1000
0100
0010
0001
,
1000
0100
0010
0001
,
0010
0100
1000
0001
,
0010
0100
1000
0001
,
2000
0000
3002
0000
,
2003
0000
0002
3000
,
0100
0000
1000
0003
,
1001
1000
1001
0001
,
0010
0001
0010
0001
,
0010
0100
1000
0001
,
0100
0001
0100
0001
,
0100
0010
1000
0001
,
1000
0100
1000
0100
,
1000
0010
0100
0001
,
0100
0010
0100
0010
,
1000
0001
0100
0010
,
1000
0001
1000
0001
,
0100
0010
1000
0100
,
0010
0100
0010
0100
,
0001
0010
0100
1000
,
1000
0100
1000
0100
,
1000
0010
0100
0001
,
0010
0001
0010
0001
,
0011
0001
0011
0010
,
0001
0100
0101
0000
,
0010
1000
1010
0000
,
1000
0001
1001
0000
,
0100
0010
0110
0000
,
0100
0010
1000
0001
,
2000
0001
0001
0001
,
3001
0100
0010
1000
,
0002
1000
1000
1000
,
1003
1000
0100
0001
,
0100
1000
0100
0001
,
0100
0010
0100
1000
,
0001
0100
0010
0100
,
1001
1000
0001
1000
,
0001
1000
0001
1000
,
1001
0000
0220
0000
,
0000
0000
0000
0000
,
0330
0000
0000
0000
;

//---------------dance-single - ----------------
#NOTES:
     dance-single:
     :
     Medium:
     7:
     0.554,0.584,0.082,0.274,0.000: // measure 1
1000
0100
0001
0100
,  // measure 2
1000
0100
0001
0100
,  // measure 3
1000
0001
0100
1000
,  // measure 4
0100
0000
0001
0000
0100
0000
1000
0100
,  // measure 5
0010
1000
0100
1000
,  // measure 6
0010
1000
0100
0001
,  // measure 7
2000
3100
0020
0031
,  // measure 8
0020
0000
0130
0000
0002
0000
1003
0010
,  // measure 9
0200
0310
2000
3100
,  // measure 10
0020
0000
0031
0000
0020
0000
0130
1000
,  // measure 11
2000
3100
0020
0031
,  // measure 12
0002
0000
0013
0000
0200
0000
1300
1000
,  // measure 13
0020
0000
0130
0000
0200
0000
0310
0100
,  // measure 14
0002
0013
0020
0130
,  // measure 15
0001
1000
0001
1000
0001
1000
0001
1000
,  // measure 16
0001
0001
0000
0000
1000
1000
0000
0000
,  // measure 17
1001
0000
1000
0000
0001
0000
0100
0010
,  // measure 18
0100
0000
0001
0000
0010
0000
0100
1000
,  // measure 19
0100
0000
0000
0000
0100
1000
0010
0100
,  // measure 20
0001
0001
0010
0100
,  // measure 21
1000
0000
0010
0000
1000
0100
0000
0100
,  // measure 22
0000
0100
0000
0100
0000
0100
0000
0100
,  // measure 23
0010
0022
0000
0030
,  // measure 24
0010
1000
0100
0010
,  // measure 25
1003
0001
0000
0000
1000
0001
0000
0000
,  // measure 26
0001
1000
0000
0000
0001
1000
0000
0000
,  // measure 27
1000
0100
0000
0000
1000
0100
0000
0000
,  // measure 28
0001
0100
0000
0000
0001
0100
0000
0000
,  // measure 29
0010
0100
0000
0000
0001
0100
0010
1000
,  // measure 30
0000
1000
0000
0100
0000
0000
0010
0000
,  // measure 31
0100
0000
0000
0010
0000
0000
2000
0000
,  // measure 32
0000
0000
0000
0000
0000
3010
0100
0001
,  // measure 33
0010
0100
1000
0000
2000
0000
0000
3001
,  // measure 34
0010
0000
0001
0000
0100
0000
0000
0010
,  // measure 35
0100
0000
0010
0000
1000
0000
0000
0001
,  // measure 36
1000
0100
0010
0200
,  // measure 37
0010
0000
0001
0000
0010
0000
0300
0010
,  // measure 38
1000
0100
1000
0002
,  // measure 39
0100
0100
0100
0103
,  // measure 40
0100
0001
0100
0001
0100
0001
0100
0001
,  // measure 41
0100
0000
0000
0000
0100
0010
0000
0000
,  // measure 42
0100
0010
0000
0000
0010
1000
0000
0000
,  // measure 43
0010
1000
0000
0000
1000
0001
0000
0000
,  // measure 44
1000
0001
0000
0000
0010
0100
0000
0000
,  // measure 45
1000
0100
0000
0000
0010
0001
0000
0000
,  // measure 46
0001
0100
0000
0000
0010
1000
0000
0000
,  // measure 47
1000
0100
0010
0001
0010
0100
1000
0000
,  // measure 48
0011
1100
1010
0101
,  // measure 49
1000
0100
0010
0100
,  // measure 50
1000
0001
1000
0001
1000
0001
1000
0001
,  // measure 51
1000
0100
0010
0100
,  // measure 52
0010
0100
0010
0100
0010
0100
0010
0100
,  // measure 53
0010
1000
0001
0010
,  // measure 54
0001
0010
0001
0010
0001
0010
0001
0010
,  // measure 55
0001
0010
0100
1000
,  // measure 56
0100
1000
0100
1000
0100
1000
0100
1000
,  // measure 57
2000
0001
0010
3001
,  // measure 58
0100
0001
0100
0001
0100
0001
0100
0001
,  // measure 59
0001
0100
0010
1000
,  // measure 60
0010
1000
0010
1000
0010
1000
0010
1000
,  // measure 61
0001
0010
0100
0010
,  // measure 62
0100
0010
0100
0010
0100
0010
0100
0010
,  // measure 63
0100
1000
0001
0010
,  // measure 64
1002
1003
2001
3001
,  // measure 65
1000
0100
0010
0001
,  // measure 66
0001
0010
0100
1000
0100
0010
0001
0010
,  // measure 67
0100
1000
0100
0010
,  // measure 68
0001
0010
0100
1000
0100
0010
0001
0010
,  // measure 69
0001
1000
0001
1000
,  // measure 70
1000
0100
0010
0001
0010
0100
1000
0100
,  // measure 71
0010
0001
0010
0100
,  // measure 72
1000
0100
0010
0001
0010
0100
1000
0100
,  // measure 73
0010
0001
0100
0010
,  // measure 74
1000
0010
0100
0001
0100
0010
1000
0010
,  // measure 75
0100
0010
1000
0001
,  // measure 76
0001
0100
0010
1000
0010
0100
0001
0100
,  // measure 77
0002
0100
0000
0000
0100
0100
0000
0003
,  // measure 78
2000
0100
0000
0000
0100
0100
3000
0000
,  // measure 79
0200
0010
0000
0000
0010
0010
0300
0000
,  // measure 80
2002
0000
0000
0000
,  // measure 81
3003
0000
0000
0000
;

//---------------dance-single - ----------------
#NOTES:
     dance-single:
     :
     Hard:
     8:
     0.592,0.657,0.201,0.347,0.000:
1000
0010
0100
0001
,
1000
0001
1000
0001
,
1000
0010
0100
0001
,
1000
0000
0001
0000
1000
0000
0001
0100
,
1000
1000
0100
0001
,
1000
0100
0001
0100
,
1000
0010
0100
1000
,
0100
0000
0010
0000
0001
0000
0001
0010
,
0100
1000
0100
0010
,
0001
0000
1000
0000
0100
0000
0010
0001
,
1000
0100
0010
0001
,
1000
0000
0001
0000
0010
0000
0100
1000
,
0001
0000
0010
0000
0100
0000
1000
0001
,
0200
0301
0002
0013
,
0020
0130
0200
0301
,
0101
0100
0000
0000
1100
0100
0000
0000
,
0100
0010
0001
0100
0001
0010
0001
0100
,
0010
1000
0100
0010
0001
0000
1000
0000
,
0001
0000
0000
0000
1000
0010
0100
0001
,
0010
0100
1000
0001
0100
0000
0001
0000
,
1000
0000
0000
0000
2001
0001
0000
0001
,
0000
0001
0000
0001
3000
0001
0000
0100
,
0010
0000
2000
0000
0000
0000
0000
3000
,
1001
0001
0000
0000
1001
1000
0000
0000
,
1000
0000
1000
0000
0001
0010
0100
1000
,
0001
0010
0100
1000
0001
0000
0010
0000
,
0100
0000
0000
0000
1000
0010
1000
0001
,
0000
1000
0000
0010
1000
0001
0100
0000
,
2000
0000
0000
3000
0001
0100
0010
1000
,
0000
0100
0000
0010
0000
0000
0001
0000
,
0001
0000
0000
2000
0000
0000
3002
0000
,
0000
0000
0000
0000
0000
1003
0001
1000
,
0001
0010
0100
0000
0200
0000
0300
1000
,
0001
0000
0100
0000
0200
0000
0300
0010
,
1000
0001
0010
0000
0002
0000
0003
0010
,
0001
1000
0010
0200
,
0000
0000
0000
0000
0000
0300
0000
0001
,
1000
0001
0010
0200
,
0000
0000
0000
0300
,
1000
0001
1000
0001
1000
0001
1000
0001
,
1000
1000
0000
0000
0001
0001
0000
0000
,
0001
0100
0000
0000
0001
1000
0000
0000
,
0001
0010
0000
0000
0100
1000
0000
0000
,
0010
0100
0000
0000
0001
0010
0000
0000
,
0100
1000
0001
0100
0010
1000
0001
0010
,
0001
0010
0100
0010
0001
0010
0100
0010
,
0001
0100
0010
1000
0100
0010
0001
1000
,
1001
0011
0110
1100
,
2001
3001
1002
1003
,
1000
0100
0001
0100
1000
0100
0001
0100
,
2000
3001
0020
0130
,
1000
0010
1000
0100
1000
0010
1000
0100
,
0020
0031
0200
0310
,
1000
0010
0001
0010
1000
0010
0001
0010
,
2000
3100
0020
0031
,
2000
0001
3001
0000
0002
1000
1003
0000
,
0011
1100
1010
0101
,
0010
0001
0100
0001
0010
0100
1000
0010
,
2000
3010
0200
0301
,
0001
0100
1000
0100
0001
0010
1000
0010
,
0001
0001
1000
1000
,
1000
0100
0001
0100
1000
0010
0001
0010
,
1000
0100
0001
0100
,
1100
0110
0011
0101
,
0010
1000
0001
0000
1000
0000
0001
0000
,
0001
0010
1000
0010
0001
0010
1000
0010
,
0001
0100
0010
0000
1000
0000
0010
0000
,
1000
0010
1000
0100
1000
0010
1000
0100
,
0020
0001
1000
0031
,
0001
0100
1000
0100
0001
0100
1000
0100
,
0002
0013
0020
0031
,
0001
1000
0010
0000
1000
0001
0010
0000
,
0012
0103
2010
3100
,
0001
0100
1000
0100
0001
0010
1000
0010
,
0002
0103
0200
0310
,
1000
0100
1000
0010
0100
0001
0010
0001
,
0200
0001
0010
1300
,
0002
0010
1000
0103
,
0020
1000
0100
0031
,
2002
0000
0000
0000
,
3003
0000
0000
0000
;
