#TITLE:リア充爆発しろ!;
#SUBTITLE:;
#ARTIST:KAZU-k feat. 初音ミク;
#TITLETRANSLIT:Rea-juu Bakuhatsu-shiro;
#SUBTITLETRANSLIT:;
#ARTISTTRANSLIT:KAZU-k feat. Hatsune Miku;
#GENRE:VOCALOID;
#CREDIT:Thumbsy;
#MENUCOLOR:;
#METERTYPE:DDR;
#BANNER:Rea-juu Bakuhatsu-shiro-bn.png;
#BACKGROUND:Rea-juu Bakuhatsu-shiro-bg.png;
#LYRICSPATH:;
#CDTITLE:CDTitle v1.5.png;
#MUSIC:Rea-juu Bakuhatsu-shiro-v2.mp3;
#OFFSET:1.618;
#SAMPLESTART:45.360;
#SAMPLELENGTH:14.000;
#SELECTABLE:YES;
#LISTSORT:;
#BPMS:0.000=140.000;
#STOPS:;
#BGCHANGES:4.063=Rea-juu Bakuhatsu-shiro-bg.avi=1.000=1=0=1,
99999=-nosongbg-=1.000=0=0=0 // don't automatically add -songbackground-
;
#ATTACKS:;

//---------------dance-single - ----------------
#NOTES:
     dance-single:
     :
     Beginner:
     2:
     0.108,0.174,0.011,0.021,0.000:
0000
0000
0000
0000
,
0000
0000
0000
0000
,
0000
0000
0000
0000
,
1000
0000
0000
0000
,
0001
0000
0000
0000
,
1000
0000
0000
0000
,
0010
0000
0000
0000
,
1000
0000
0000
0000
,
1001
0000
0000
0000
,
1000
0000
0000
0000
,
0001
0000
0000
0000
,
1000
0000
0000
0000
,
0100
0000
0000
0000
,
0010
0000
0000
0000
,
1000
0000
0000
0000
,
0001
0000
0000
0000
,
0100
0000
0000
0000
,
0010
0000
0000
0000
,
0100
0000
0000
0000
,
0010
0000
0010
0000
,
0001
0000
0000
0000
,
0001
0000
0000
0000
,
0010
0000
0000
0000
,
1000
0000
1000
0000
,
1000
0000
0000
0000
,
0100
0000
0000
0000
,
0010
0000
0010
0000
,
0200
0000
0300
0000
,
0100
0000
0100
0000
,
0010
0000
0010
0000
,
1000
0000
0001
0000
,
1000
0000
0001
0000
,
1000
0000
0001
0000
,
1000
0000
0010
0000
,
0100
0000
0001
0000
,
1000
0000
0000
0000
,
0100
0000
1000
0000
,
0001
0000
1000
0000
,
0010
0000
0100
0000
,
0001
0000
0010
0000
,
0100
0000
0100
0000
,
0100
0000
0010
0000
,
0010
0000
0010
0000
,
0010
0000
1000
1000
,
0001
0000
0000
0000
,
0001
0000
0000
0000
,
1000
0000
0000
0000
,
0100
0000
0000
0000
,
0010
0000
0000
0000
,
0010
0000
0000
0000
,
0100
0000
0000
0000
,
0001
0000
0000
0000
,
2000
0000
0000
0000
,
0000
0000
0000
0000
,
0000
0000
0000
0000
,
3000
0000
0000
0000
;

//---------------dance-single - ----------------
#NOTES:
     dance-single:
     :
     Easy:
     4:
     0.262,0.377,0.242,0.042,0.000:
0000
0000
0000
0000
,
0000
0000
0000
0000
,
0000
0000
0000
0000
,
1000
0100
0010
0000
,
0001
0010
0100
0000
,
1000
0001
1000
0000
,
0010
0100
0010
0000
,
1000
0100
0001
0100
,
1000
0100
0001
0100
,
1000
0100
0010
0001
,
0001
0010
0100
1000
,
1001
0000
0110
0000
,
1000
0000
0001
0000
,
0010
0100
0001
1000
,
1000
0001
0001
0001
,
1001
0000
0110
0000
,
0110
0000
1001
0000
,
1001
1000
1000
1000
,
1001
0001
0001
0001
,
0101
0000
1100
0000
,
0001
0100
0001
0100
,
0001
0000
1000
0000
,
0010
0000
1000
0000
,
1010
0000
0011
0000
,
1000
0100
1000
0100
,
0001
0000
0100
0000
,
1001
0110
1001
0110
,
2002
0000
3003
0000
,
1000
0001
0010
1001
,
0001
0010
1000
1001
,
1000
0000
0001
0100
,
1000
0000
0001
0000
,
1000
0100
0001
0010
,
1000
0000
0010
0000
,
0100
0010
0001
0100
,
1000
0000
0000
0000
,
1000
0001
0010
1001
,
0001
0010
1000
1001
,
1000
0000
0001
0100
,
1000
0000
0010
0000
,
0100
0000
0100
0000
,
0100
0000
0010
0000
,
0010
0000
0010
0000
,
0010
0001
1000
0100
,
0001
1000
0001
1000
,
0001
0100
1000
0100
,
1000
0100
0001
0100
,
0010
1000
0010
1000
,
1001
0000
0000
0000
,
0010
0000
0000
0000
,
0100
0000
1000
0000
,
0001
0010
0100
1000
,
2002
0000
0000
0000
,
0000
0000
0000
0000
,
0000
0000
0000
0000
,
3003
0000
0000
0000
;

//---------------dance-single - ----------------
#NOTES:
     dance-single:
     :
     Medium:
     6:
     0.383,0.435,0.253,0.137,0.127:
0000
0000
0000
0000
,
0000
0000
0000
0000
,
0000
0000
0000
0000
,
1000
0100
0010
0001
,
1000
0100
0010
0001
,
0010
0100
1000
1000
,
0001
0010
0100
1000
,
1000
0000
0000
1000
0000
0000
1000
0000
0000
0000
0000
0000
0000
0000
0000
0000
,
0001
0000
0000
0001
0000
0000
0001
0000
0000
0000
0000
0000
0000
0000
0000
0000
,
0100
0000
0000
0100
0000
0000
0100
0000
0000
0100
0000
0000
0001
0000
1000
0000
,
0001
0000
0000
0010
0000
0000
0010
0000
0000
0010
0000
0000
0001
0000
1000
0000
,
1001
0000
0000
0000
1000
0000
0000
0001
0000
0000
0001
0000
0000
0000
0001
0000
,
1000
0000
0000
0000
0100
0000
0000
0010
0000
0000
0001
0000
0000
0000
0100
0000
,
0010
1000
0001
0000
1000
0000
0001
1000
,
0000
1000
0001
0000
1001
0000
1001
0000
,
1000
1100
0010
0011
,
0001
0101
1000
1100
,
0001
0101
1001
0110
,
0001
0000
0100
0010
0000
0000
0000
0000
,
1100
0000
0101
0000
,
1000
0001
0000
0001
0000
0001
0000
0001
,
0000
0001
1000
0000
0010
0000
0100
0000
,
0001
0010
0001
0010
,
0011
0000
1100
0000
,
0001
1000
0000
1000
0000
1000
0000
1000
,
0000
1000
0001
0000
0010
0000
0100
0000
,
1000
0100
1000
0100
,
2002
0000
0000
3003
,
1000
0001
1000
0001
1000
0000
1001
0000
,
0010
0100
0010
0100
0010
0000
0110
0000
,
0001
0000
0100
0000
0010
0000
1000
0200
,
0000
0000
0000
0000
0000
0300
0000
1000
,
0100
0000
0100
1000
0100
0100
0000
0100
,
0000
2000
0000
0000
3000
0000
0000
1000
,
0001
0000
0001
0100
0100
0001
0000
1000
,
0000
0010
0200
0000
0000
0000
0000
0300
,
0010
1000
0010
1000
0010
0000
1010
0000
,
0001
0100
0001
0100
0001
0000
0101
0000
,
2000
0010
0001
3100
,
0002
0010
1000
0103
,
1001
0000
0010
1000
0001
0100
0000
0100
,
0010
0000
0010
0100
0000
1001
0000
0000
,
2002
0000
0000
0000
3003
0001
0100
0220
,
0000
0000
0000
0330
,
0100
0000
0000
0100
0000
0000
0100
0000
0000
0100
0000
0000
0010
0000
1000
0000
,
0001
0000
0000
0001
0000
0000
0001
0000
0000
0001
0000
0000
0010
0000
0100
0000
,
1000
0000
0000
1000
0000
0000
1000
0000
0000
1000
0000
0000
0001
0000
0100
0000
,
0010
0000
0000
0010
0000
0000
0010
0000
0000
0010
0000
0000
1000
0000
0001
0000
,
1000
0000
0000
1000
0000
0000
1000
0000
0000
1000
0000
0000
0001
0000
1000
0000
,
0001
0000
0000
0001
0000
0000
0001
0000
0000
0001
0000
0000
1000
0000
0001
0000
,
1000
0000
0000
0001
0000
0000
0100
0000
0000
0001
0000
0000
1000
0000
0100
0000
,
0010
0000
0000
0001
0000
0000
1000
0000
0000
0010
0000
0000
1000
0000
0001
0000
,
2002
0000
0000
0000
,
0000
0000
0000
0000
,
0000
0000
0000
0000
,
3003
0000
0000
0000
;

//---------------dance-single - ----------------
#NOTES:
     dance-single:
     :
     Hard:
     8:
     0.511,0.696,0.517,0.348,0.211: // measure 1
0000
0000
0000
0000
,  // measure 2
0000
0000
0000
0000
,  // measure 3
0000
0000
0000
0000
,  // measure 4
1000
0000
0000
0100
0000
0000
1000
0000
0000
0100
0000
0000
1000
0000
0010
0000
,  // measure 5
0100
0000
0000
0001
0000
0000
0100
0000
0000
0001
0000
0000
0100
0000
0010
0000
,  // measure 6
1000
0000
0000
0100
0000
0000
0010
0000
0000
0001
0000
0000
0010
0000
0100
0000
,  // measure 7
1000
0000
0000
0100
0000
0000
0001
0000
0000
0100
0000
0000
1000
0000
0010
0000
,  // measure 8
0100
0000
0000
0010
0000
0000
0100
0000
0000
0010
0000
0000
0100
0000
0001
0000
,  // measure 9
1000
0000
0000
0010
0000
0000
0001
0000
0000
0010
0000
0000
0100
0000
0001
0000
,  // measure 10
1000
0000
0000
0001
0000
0000
0001
0000
0000
1000
0000
0000
0001
0000
0001
0000
,  // measure 11
1001
0000
0000
1100
0000
0000
0101
0000
0000
0011
0000
0000
1010
0000
1000
0000
,  // measure 12
0001
0000
1000
0000
0010
0000
0100
0001
0000
0000
0002
0000
0000
0003
0001
0000
,  // measure 13
1000
0000
0001
0000
0010
0000
0100
1000
0000
0000
2000
0000
0000
3000
1000
0000
,  // measure 14
0100
0010
0001
0010
0100
1000
0001
1000
,  // measure 15
0000
1001
2002
0000
0000
0000
3003
1000
,  // measure 16
0100
0010
0100
1000
0100
0010
0100
1000
,  // measure 17
0001
0100
0001
1000
0001
0100
0001
1000
,  // measure 18
0100
0010
0001
0100
0010
1000
0100
0010
,  // measure 19
0001
1000
0010
0220
0000
0000
0330
0000
,  // measure 20
2020
0000
3030
0000
0022
0033
0000
1000
,  // measure 21
0001
0101
0000
1010
0000
0101
0000
1001
,  // measure 22
0000
2000
0002
0000
0000
3003
0000
1000
,  // measure 23
0010
0000
0200
0020
0000
0000
0330
0000
,  // measure 24
2002
0000
3003
0000
0220
0330
0000
0100
,  // measure 25
0001
1001
0000
1100
0000
0110
0000
0011
,  // measure 26
0000
0220
0000
0000
0000
0330
0000
1000
,  // measure 27
1001
0110
1001
0110
,  // measure 28
2002
0000
0000
0000
0000
0000
3003
1000
,  // measure 29
0100
0000
1000
0000
0100
0000
0010
0001
0000
0000
0000
0000
0000
0000
0010
0000
,  // measure 30
0001
0000
0010
0000
0001
0000
1000
0100
0000
0000
0000
0000
0000
0000
0100
0000
,  // measure 31
1100
0000
0101
0000
0011
0000
1010
2002
,  // measure 32
0000
0000
0000
0000
0000
3003
0000
0001
,  // measure 33
0010
0000
0010
0100
1000
1000
0000
0001
,  // measure 34
0000
0001
0002
0000
0000
0003
0000
0100
,  // measure 35
0100
0000
0010
1000
1000
0100
0000
0010
,  // measure 36
0000
0002
2000
0000
0000
3003
0000
0010
,  // measure 37
1000
0000
0010
0000
1000
0000
0001
0100
0000
0000
0000
0000
0000
0000
0001
0000
,  // measure 38
0100
0000
0001
0000
0100
0000
0010
1000
0000
0000
0000
0000
0000
0000
1000
0000
,  // measure 39
1010
0000
0011
0000
0101
0000
1100
2002
,  // measure 40
0000
0000
0000
0000
0000
3003
0000
1000
,  // measure 41
0100
0000
0010
0100
0100
1000
0000
1000
,  // measure 42
0010
0000
0010
0100
0000
0001
0000
0010
,  // measure 43
0002
0000
0000
0000
0003
0001
0010
0200
,  // measure 44
0000
0300
1001
1001
,  // measure 45
1000
0000
0000
0100
0000
0000
0010
0000
0000
0001
0000
0000
0010
0000
0100
0000
,  // measure 46
1000
0000
0000
0100
0000
0000
0001
0000
0000
0100
0000
0000
1000
0000
0010
0000
,  // measure 47
0100
0000
0000
0010
0000
0000
0100
0000
0000
0010
0000
0000
0100
0000
0001
0000
,  // measure 48
1000
0000
0000
0010
0000
0000
0001
0000
0000
0010
0000
0000
0100
0000
0001
0000
,  // measure 49
1000
0000
1000
0001
0000
0000
0001
0000
0001
1000
0000
1000
0001
0000
0001
0000
,  // measure 50
0001
0000
0001
1000
0000
0000
1000
0000
1000
0001
0000
0001
1000
0000
1000
0000
,  // measure 51
1001
0000
0000
1100
0000
0000
0101
0000
0000
0011
0000
0000
1010
0000
1000
0000
,  // measure 52
1001
0000
0000
0011
0000
0000
0101
0000
0000
1100
0000
0000
1010
0000
0001
0000
,  // measure 53
2002
0000
0000
0000
,  // measure 54
0000
0000
0000
0000
,  // measure 55
0000
0000
0000
0000
,  // measure 56
3003
0000
0000
0000
;
