#TITLE:Payphone;
#SUBTITLE:;
#ARTIST:Maroon 5;
#TITLETRANSLIT:;
#SUBTITLETRANSLIT:;
#ARTISTTRANSLIT:;
#GENRE:Pop;
#CREDIT:Thumbsy;
#MENUCOLOR:;
#METERTYPE:DDR;
#BANNER:Payphone.png;
#BACKGROUND:Payphone-bg.png;
#LYRICSPATH:;
#CDTITLE:CDTitle v1.5.png;
#MUSIC:Payphone.mp3;
#OFFSET:-1.286;
#SAMPLESTART:52.616;
#SAMPLELENGTH:17.391;
#SELECTABLE:YES;
#LISTSORT:;
#BPMS:0.000=110.000;
#STOPS:;
#BGCHANGES:;
#ATTACKS:;

//---------------dance-single - ----------------
#NOTES:
     dance-single:
     :
     Beginner:
     1:
     0.083,0.130,0.033,0.000,0.000:
0000
0000
0000
0000
,
0000
0000
0000
0000
,
0000
0000
0000
0000
,
0000
0000
0000
0000
,
0000
0000
0000
0000
,
0000
0000
0000
0000
,
0000
0000
0000
0000
,
0000
0000
0000
0000
,
0001
0000
0000
0000
,
1000
0000
0000
0000
,
0100
0000
0000
0000
,
1000
0000
0000
0000
,
1001
0000
0000
0000
,
0001
0000
0000
0000
,
0100
0000
0000
0000
,
0001
0000
0000
0000
,
1000
0000
1000
0000
,
0001
0000
0001
0000
,
1000
0000
1000
0000
,
1000
0000
0100
0000
,
0010
0000
0010
0000
,
0001
0000
0001
0000
,
1000
0000
1000
0000
,
1000
0000
0000
0000
,
1001
0000
0001
0001
,
0000
0000
1000
1000
,
0000
0000
0100
0100
,
0100
0000
0010
0000
,
0001
0000
1000
1000
,
0000
0000
0001
0001
,
0000
0000
0100
0100
,
0100
0000
0010
0000
,
1001
0000
0000
1000
,
0000
0000
0000
0001
,
0000
0000
0000
0100
,
0000
0000
0000
0010
,
0000
0000
0000
0100
,
0000
0000
0000
0001
,
0000
0000
0000
1000
,
0000
0000
0000
0001
;

//---------------dance-single - ----------------
#NOTES:
     dance-single:
     :
     Easy:
     3:
     0.183,0.223,0.109,0.066,0.000:
0000
0000
0000
0000
,
0000
0000
0000
0000
,
0000
0000
0000
0000
,
0000
0000
0000
0000
,
0000
0000
0000
0000
,
0000
0000
0000
0000
,
0000
0000
0000
0000
,
0000
0000
0000
0000
,
1000
0001
1000
1000
,
0000
0001
0001
0001
,
0000
1000
0100
0010
,
0000
1000
0001
0100
,
0000
0001
0100
0010
,
0000
1000
0100
0010
,
0000
0001
1000
1000
,
0020
0030
0200
0300
,
1001
0000
0100
0010
,
0110
0000
1000
0001
,
1001
0000
0001
0010
,
1100
1000
0100
0010
,
0020
0030
0001
0100
,
0101
0000
0010
1000
,
1010
0000
1000
0001
,
2002
0000
3003
0000
,
1000
0100
1000
1000
,
0001
0100
0001
0001
,
0010
0010
0100
0100
,
1000
0000
0001
0100
,
0010
0010
0100
0001
,
1000
1000
0100
0010
,
0001
0010
0100
1000
,
1001
0000
1000
0100
,
0001
0010
0010
0001
,
0000
0000
0001
0100
,
1000
0010
0001
0001
,
0000
0000
0010
1000
,
0100
0100
0010
1001
,
0000
0000
1000
0100
,
0010
0001
0010
1100
,
0000
0000
1000
0002
,
0000
0000
0000
0003
;

//---------------dance-single - ----------------
#NOTES:
     dance-single:
     :
     Medium:
     5:
     0.250,0.289,0.208,0.142,0.044:
0000
0000
0000
0000
,
0000
0000
0000
0000
,
0000
0000
0000
0000
,
0000
0000
0000
0000
,
0000
0000
0000
0000
,
0000
0000
0000
0000
,
0000
0000
0000
0000
,
0000
0000
0000
0000
,
1000
0000
0100
0000
0010
0000
0001
0100
,
0001
0010
1000
0101
,
0001
0000
1000
0000
0001
0000
1000
0100
,
1000
0010
0001
1100
,
1001
0001
0010
1000
,
0100
1000
0010
0002
,
0003
0000
1000
0000
0010
0000
1000
0001
,
1000
0100
0010
0001
,
1001
1000
0100
0010
,
0110
0010
0001
0100
,
0101
0100
0010
1000
,
1010
1000
0100
0010
,
0110
0001
0100
1000
,
1100
1000
0100
0001
,
0101
0001
0010
0100
,
2002
0000
3003
0000
,
2000
3002
0103
1100
,
0001
0100
0010
1001
,
1000
0100
1000
1000
,
0001
0001
0001
0001
,
2000
3020
0130
0101
,
1000
0100
0010
1001
,
0001
0100
0010
0200
,
0301
0000
0001
0000
1000
0100
1000
0000
,
0001
0000
0000
0001
0000
0000
0001
0000
0000
0001
0000
0000
1002
0000
0000
0000
,
0003
0000
0000
0000
0001
0100
0001
0000
,
1000
0000
0000
1000
0000
0000
1000
0000
0000
1000
0000
0000
2001
0000
0000
0000
,
3000
0000
0000
0000
1000
0001
0100
0000
,
0010
0000
0000
0010
0000
0000
0010
0000
0000
0010
0000
0000
0120
0000
0000
0000
,
0030
0000
0000
0000
0001
1000
0010
0000
,
0100
0000
0000
0100
0000
0000
0100
0000
0000
0100
0000
0000
0210
0000
0000
0000
,
0300
0000
0000
0000
0001
0010
0000
2000
,
0000
0000
0000
3000
;

//---------------dance-single - ----------------
#NOTES:
     dance-single:
     :
     Hard:
     7:
     0.353,0.423,0.437,0.120,0.153:
0000
0000
0000
0000
,
0000
0000
0000
0000
,
0000
0000
0000
0000
,
0000
0000
0000
0000
,
0000
0000
0000
0000
,
0000
0000
0000
0000
,
0000
0000
0000
0000
,
0000
0000
0000
0000
,
0001
0000
0000
0000
0100
0000
0000
0001
0000
0001
0000
0000
1000
0000
0100
0000
,
1100
0000
0000
0000
1000
0000
0000
0001
0000
0001
0000
0000
0010
0000
0000
0000
,
1001
0000
0000
0000
1000
0000
0000
0010
0000
0010
0000
0000
1000
0000
0100
0000
,
1100
0000
0000
0000
0010
0000
0000
0001
0000
0001
0000
0000
0001
0000
0000
0000
,
1001
0000
0000
0000
1000
0000
0000
0010
0000
0010
0000
0000
0100
0000
0001
0000
,
0101
0000
0000
0000
1000
0000
0000
0100
0000
0100
0000
0000
0010
0000
0000
0000
,
1001
0000
0000
0000
0100
0000
0000
0001
0000
0001
0000
0000
1000
0000
0100
0000
,
2100
3020
0230
0301
,
1100
0000
0000
0000
1100
0000
0000
0000
1000
0000
0000
0100
0000
0000
0010
0000
,
0011
0000
0000
0000
0011
0000
0000
0000
0001
0000
0000
0100
0000
0000
0010
0000
,
0110
0000
0000
0000
0110
0000
0000
0000
1000
0000
0000
1000
0000
0000
0100
0000
,
0110
0110
0010
0001
,
0101
0000
0000
0000
0101
0000
0000
0000
0100
0000
0000
0010
1000
0000
1000
0000
,
1010
0000
0000
0000
1010
0000
0000
0000
0100
0000
0000
0001
0010
0000
0010
0000
,
0011
0000
0000
0000
0011
0000
0000
0000
1000
0000
0000
0100
0010
0000
0010
0000
,
0002
0000
0003
0000
,
1200
0000
1300
0000
1000
0100
0010
0001
,
0011
0000
1100
0000
0001
0100
0010
1000
,
1010
0000
0101
0000
1000
0001
1000
2000
,
0001
0000
3001
0000
0001
0010
0100
1000
,
1100
0000
0011
0000
0001
0100
0010
1000
,
1010
0000
0101
0000
0001
0100
1000
0100
,
0000
0100
0001
0100
0000
0100
1000
0100
,
0000
0100
0000
0100
0001
0010
0100
1000
,
1100
0000
0000
1001
0000
0000
0101
0000
0000
1001
0000
0000
1200
0000
0000
0000
,
1300
0000
0001
0000
1000
0100
0010
0001
,
0011
0000
0000
1001
0000
0000
1010
0000
0000
1001
0000
0000
0021
0000
0000
0000
,
0031
0000
0100
0000
0100
0001
0010
0100
,
1000
0000
0000
0010
0000
0000
0001
0000
0000
1000
0000
0000
0200
0000
0000
0000
,
0301
0000
0010
0000
0100
1000
0001
0010
,
0001
0000
0000
0010
0000
0000
1000
0000
0000
0001
0000
0000
0200
0000
0000
0000
,
1300
0000
0001
0100
0001
1000
0100
0010
,
0000
0020
0000
0000
0000
0000
0030
0000
;

//---------------dance-single - ----------------
#NOTES:
     dance-single:
     :
     Challenge:
     8:
     0.417,0.468,0.579,0.153,0.219: // measure 1
0000
0000
0000
0000
,  // measure 2
0000
0000
0000
0000
,  // measure 3
0000
0000
0000
0000
,  // measure 4
0000
0000
0000
0000
,  // measure 5
0000
0000
0000
0000
,  // measure 6
0000
0000
0000
0000
,  // measure 7
0000
0000
0000
0000
,  // measure 8
0000
0000
0000
0000
,  // measure 9
1000
0000
0000
0000
0001
0000
0000
0100
0001
0000
0000
0000
1000
0000
0100
0000
,  // measure 10
1100
0000
0000
0000
0001
0000
0000
0100
0001
0100
0000
0000
0010
0000
1000
0001
,  // measure 11
1000
0000
0000
0000
0010
0000
0000
1000
0100
0000
0000
0000
0100
0000
0010
0000
,  // measure 12
0110
0000
0000
0000
0010
0000
0000
0001
0100
0001
0000
0000
1000
0000
0100
1000
,  // measure 13
0100
0000
0000
0000
0100
0000
0000
0010
0001
0010
0000
0000
0001
0000
0100
0000
,  // measure 14
0101
0000
0000
0000
1000
0000
0000
0001
0100
0001
0000
0000
0010
0000
0100
0010
,  // measure 15
0100
0000
0000
0000
1000
0000
0000
0001
0100
0001
0000
0000
1000
0000
0100
0000
,  // measure 16
1100
0000
0000
0010
0000
0000
0001
0000
0100
0000
0000
0010
0000
0000
1000
0000
,  // measure 17
1100
0000
0000
0000
0010
0000
0000
0000
0011
0000
0000
0110
0000
0000
1100
0000
,  // measure 18
1001
0000
0000
0000
0001
0000
0000
0000
0101
0000
0000
1001
0000
0000
1010
0000
,  // measure 19
0110
0000
0000
0000
0010
0000
0000
0000
1010
0000
0000
1001
0000
0000
0011
0000
,  // measure 20
0110
0000
0000
0000
0100
0000
0000
0000
1000
0000
0000
0001
0000
0000
0100
0000
,  // measure 21
1010
0000
0000
0000
0101
0000
0000
0000
0001
0000
0000
0010
0000
0000
0100
0000
,  // measure 22
1001
0000
0000
0000
1000
0000
0000
0000
0010
0000
0000
0100
0000
0000
0001
0000
,  // measure 23
1100
0000
0000
0000
0011
0000
0000
0000
0001
0000
0000
0010
0000
0000
0100
0000
,  // measure 24
2000
0000
3001
0000
0001
0010
0100
1000
,  // measure 25
1100
0000
0000
0000
0011
0000
0000
0000
0001
0100
0001
0000
1000
0000
0010
1000
,  // measure 26
0010
0000
0000
0000
1001
0000
0000
0000
0001
0010
0001
0000
1000
0000
0100
1000
,  // measure 27
0100
0120
0032
2003
,  // measure 28
3020
0000
0130
0001
0101
0001
1000
0100
,  // measure 29
1100
0000
0000
0000
0011
0000
0000
0000
0001
0100
0010
0000
0010
0000
0010
0100
,  // measure 30
0001
0000
0000
0000
1001
0000
0000
0000
1000
0100
0010
0000
0010
0000
0010
0100
,  // measure 31
1000
0001
0100
0020
1030
0000
1100
0101
,  // measure 32
2001
0000
0100
0001
3001
0001
1000
0010
,  // measure 33
0110
0000
0000
0101
0000
0000
1100
0000
0000
0011
0000
0000
1002
0000
0000
0000
,  // measure 34
1003
0000
0010
0000
0100
0001
0010
0100
,  // measure 35
1100
0000
0000
0011
0000
0000
1001
0000
0000
0110
0000
0000
2100
0000
0000
0000
,  // measure 36
3001
0000
0100
0000
1000
0100
0001
0010
,  // measure 37
1100
0000
0000
1010
0000
0000
0101
0000
0000
0110
0000
0000
1002
0000
0000
0000
,  // measure 38
1003
0000
0001
0000
0100
1000
0100
0001
,  // measure 39
0011
0000
0000
1100
0000
0000
1001
0000
0000
0110
0000
0000
1002
0000
0000
0000
,  // measure 40
0013
0000
0200
0010
0310
0001
0100
0002
,  // measure 41
0000
2000
0000
0000
0000
0000
3003
0000
;
