#TITLE:くるくるまーくのすごいやつ;
#SUBTITLE:;
#ARTIST:supercell;
#TITLETRANSLIT:Kuru Kuru Maku no Sugoi Yatsu;
#SUBTITLETRANSLIT:Kuru Kuru Maku no Sugoi Yatsu;
#ARTISTTRANSLIT:;
#GENRE:VOCALOID;
#CREDIT:Thumbsy;
#MENUCOLOR:;
#METERTYPE:DDR;
#BANNER:Kuru Kuru Maku no Sugoi Yatsu-bn.png;
#BACKGROUND:Kuru Kuru Maku no Sugoi Yatsu-bg.png;
#LYRICSPATH:;
#CDTITLE:CDTitle.png;
#MUSIC:Kuru Kuru Maku no Sugoi Yatsu.mp3;
#OFFSET:-0.201;
#SAMPLESTART:100.600;
#SAMPLELENGTH:12.000;
#SELECTABLE:YES;
#LISTSORT:;
#BPMS:0.000=160.010;
#STOPS:;
#BGCHANGES:;
#ATTACKS:;

//---------------dance-single - ----------------
#NOTES:
     dance-single:
     :
     Beginner:
     1:
     0.179,0.262,0.109,0.022,0.000:
0000
0000
0000
0000
,
0000
0000
0000
0000
,
0000
0000
0000
0000
,
0001
0000
0000
0000
,
0001
0000
0000
0000
,
1000
0000
0000
0000
,
1000
0000
0000
0000
,
0001
0000
0001
0000
,
0010
0000
0000
0000
,
1000
0000
1000
0000
,
0010
0000
0000
0000
,
1001
0000
0000
0000
,
1000
0000
0100
0000
,
0010
0000
0000
0000
,
0001
0000
0010
0000
,
0100
0000
0000
0000
,
1000
0000
0010
0000
,
1000
0000
0001
0000
,
1000
0000
0010
0000
,
1001
0000
0000
0001
,
0000
1000
0000
0010
,
0000
1000
0000
0001
,
0000
0010
0000
0100
,
0000
0001
0000
0100
,
0000
0001
0000
0010
,
0000
1000
0000
0001
,
0000
0100
0000
0010
,
0010
0000
0000
0000
,
0010
0000
0000
0000
,
1000
0000
0000
0000
,
1000
0000
0000
0000
,
1001
0000
0000
0000
,
1000
0000
0001
0000
,
1000
0000
0110
0000
,
1000
0000
0001
0000
,
1001
0000
0001
0000
,
0010
0000
0100
0000
,
1000
0000
0100
0000
,
0010
0000
0001
0000
,
1000
0000
0010
0000
,
1000
0000
0010
0000
,
0001
0000
0010
0000
,
0001
0000
0010
0000
,
0000
0000
1000
0000
,
0001
0000
0100
0000
,
0001
0000
0010
0000
,
0001
0000
0100
0000
,
0001
0000
0100
0000
,
0010
0000
1000
0000
,
0010
0000
0100
0000
,
0001
0000
1000
0000
,
1001
0000
0000
0000
,
1001
0000
0000
0000
,
0110
0000
0000
0000
,
0110
0000
0000
0000
,
1001
0000
0000
0000
,
1000
0000
0001
0000
,
1000
0000
0000
0000
,
1001
0000
0000
0000
,
0100
0000
0010
0000
,
0001
0000
0001
0000
,
0010
0000
0100
0000
,
2000
0000
0000
3000
,
0001
0000
0010
0000
,
0100
0000
1000
0000
,
0010
0000
0100
0000
,
2002
0000
0000
3003
,
0001
0001
0001
0000
,
0010
0000
0100
0000
,
1000
0000
0000
0000
,
0001
0000
0000
0000
,
1000
1000
1000
0000
,
0001
0000
0010
0000
,
0001
0000
0000
0000
,
1000
0000
0000
0000
,
0001
1000
0001
0000
,
0010
0000
1000
0000
,
1000
0001
1000
0000
,
0010
0000
0001
0000
,
1000
1000
1000
1000
,
0001
0001
0001
0001
,
0010
0000
0001
0000
,
1000
0000
0010
0000
,
1001
0000
0000
0000
,
1000
0000
0010
0000
,
0110
0000
0010
0000
,
0001
0000
1000
0000
,
1001
0000
0001
0000
,
1000
0000
0100
0000
,
0010
0000
0100
0000
,
1000
0000
0001
0000
;

//---------------dance-single - ----------------
#NOTES:
     dance-single:
     :
     Easy:
     3:
     0.310,0.328,0.072,0.058,0.000: // measure 1
0000
0000
0000
0000
,  // measure 2
0000
0000
0000
0000
,  // measure 3
0000
0000
0000
0000
,  // measure 4
1000
1000
0000
1000
,  // measure 5
0000
0001
0000
0001
,  // measure 6
0001
0001
0000
0010
,  // measure 7
0000
0010
0000
0100
,  // measure 8
0100
0001
1000
0100
,  // measure 9
1000
0000
0001
0000
,  // measure 10
0100
0010
1000
0001
,  // measure 11
0100
0010
1000
0001
,  // measure 12
2000
0000
3001
0000
,  // measure 13
0010
0100
0010
0000
,  // measure 14
0002
0000
1003
0000
,  // measure 15
0100
0010
0100
0000
,  // measure 16
0000
0001
0100
1000
,  // measure 17
0000
1000
0100
0001
,  // measure 18
0000
0001
0010
0100
,  // measure 19
1000
1000
0100
0010
,  // measure 20
1001
1000
0010
0100
,  // measure 21
0001
0010
0001
0010
,  // measure 22
0001
0100
0010
1000
,  // measure 23
0100
1000
0100
0000
,  // measure 24
1000
0010
1000
0100
,  // measure 25
0010
0001
0010
0000
,  // measure 26
0010
0001
0100
0010
,  // measure 27
1000
0000
1000
0000
,  // measure 28
1001
0000
0100
0000
,  // measure 29
0010
0000
1000
0000
,  // measure 30
1010
0000
0001
0000
,  // measure 31
0010
0000
0100
0000
,  // measure 32
0110
0000
0000
0000
,  // measure 33
1000
0001
1000
0001
,  // measure 34
1000
0000
0010
0000
,  // measure 35
0001
0010
0001
1001
,  // measure 36
1000
0010
1000
0001
,  // measure 37
0010
0001
0010
0001
,  // measure 38
0100
0010
0100
0010
,  // measure 39
1000
0010
1000
0001
,  // measure 40
0000
1000
0100
0001
,  // measure 41
0010
0100
0010
0001
,  // measure 42
0100
0010
0001
1000
,  // measure 43
1000
0000
0100
0000
,  // measure 44
1001
0000
0001
0100
,  // measure 45
0001
1000
0001
0010
,  // measure 46
1000
0100
0001
0010
,  // measure 47
0001
0010
0001
1000
,  // measure 48
0000
0100
0001
0010
,  // measure 49
0001
1000
0010
0100
,  // measure 50
0000
0001
1000
0100
,  // measure 51
0001
0010
0100
0000
,  // measure 52
2000
0000
3001
0000
,  // measure 53
0002
0000
0100
0003
,  // measure 54
0020
0000
0100
0030
,  // measure 55
0200
0000
0001
0300
,  // measure 56
2000
0000
0010
3000
,  // measure 57
1000
0000
1000
0100
,  // measure 58
0010
0000
0001
0001
,  // measure 59
0010
0100
1000
0000
,  // measure 60
0010
0001
0010
0001
,  // measure 61
1000
0100
1000
0100
,  // measure 62
1000
0010
0100
0001
,  // measure 63
0200
0000
0300
0001
,  // measure 64
1000
0100
0010
0100
,  // measure 65
0010
1000
0001
0100
,  // measure 66
0001
0010
1000
0001
,  // measure 67
0100
0010
1001
0000
,  // measure 68
1000
0001
1000
0001
,  // measure 69
0010
0001
1000
0010
,  // measure 70
0100
0000
0100
0000
,  // measure 71
0100
0001
1000
0000
,  // measure 72
1000
0010
0001
1000
,  // measure 73
0001
0100
0010
1000
,  // measure 74
0001
0000
0010
0000
,  // measure 75
0001
0010
1000
0100
,  // measure 76
0001
0010
1000
0010
,  // measure 77
0001
0010
1000
0010
,  // measure 78
0001
0100
1000
0100
,  // measure 79
0001
0100
1000
0100
,  // measure 80
0001
0100
0010
1000
,  // measure 81
0001
0010
0100
1000
,  // measure 82
0001
0000
1000
0000
,  // measure 83
1001
1001
1001
0000
,  // measure 84
1000
0100
0010
0000
,  // measure 85
0100
0010
0001
0000
,  // measure 86
0010
0001
1000
0000
,  // measure 87
1000
0100
0010
0000
,  // measure 88
0001
0010
0001
0100
,  // measure 89
1000
0100
0001
0000
,  // measure 90
1000
0010
1000
0100
,  // measure 91
1000
0010
0001
0010
;

//---------------dance-single - ----------------
#NOTES:
     dance-single:
     :
     Medium:
     6:
     0.419,0.526,0.253,0.138,0.000:
0000
0000
0000
0000
,
0000
0000
0000
0000
,
0000
0000
0000
0000
,
0001
1000
0000
0100
0000
1000
0000
0010
,
0000
1000
0000
0100
0000
1000
0001
0000
,
1000
0001
0000
0100
0000
0001
0000
1000
,
0000
0100
0000
1000
0000
0001
1000
0000
,
2000
0100
0000
0010
0000
0100
0000
0001
,
0000
0100
0000
3010
0000
1000
0001
0000
,
0002
0010
0000
1000
0000
0010
0000
0100
,
0000
1000
0000
0013
0000
0001
1000
0000
,
1001
1000
1000
0000
,
0001
0000
0010
0100
0000
0000
0100
0000
,
0000
0100
0010
1000
,
0001
0000
0100
1000
0000
1000
0100
0000
,
0001
0001
0010
0001
,
1000
0000
0001
1000
0000
1000
0000
1000
,
0000
0001
0001
0100
,
1000
0000
0001
0100
0000
0010
1000
0000
,
1000
1010
1000
1100
,
0001
0010
0100
1000
,
1000
1100
1000
1010
,
0001
0000
1000
0100
0000
0010
0001
0000
,
0010
0001
0100
0010
,
0001
0100
1000
0001
,
0100
0010
0001
1000
,
0100
0000
1000
0001
0000
1000
0001
0000
,
1000
0001
0000
0001
0000
0001
0000
0001
,
0000
0001
0000
0010
0000
1000
0001
0000
,
0001
1000
0000
1000
0000
1000
0000
1000
,
0000
1000
0000
0010
0000
1000
0001
0000
,
2000
0000
3000
0101
0000
0000
0000
0000
,
1000
0100
0001
0000
0100
1000
0010
0000
,
2000
0000
0000
3000
,
1100
0101
0000
1001
,
0010
1000
0100
0010
,
0001
0000
0010
0200
0000
0310
0000
0000
,
0001
1000
0001
1000
,
0010
0000
0100
0010
0000
0010
0100
0000
,
0000
0100
0001
0100
,
0001
0000
1000
0200
0000
1300
0000
0100
,
0000
0010
0100
0010
,
1000
0000
0100
0020
0000
0031
0000
0000
,
0000
0000
1000
0000
0001
0100
0000
0100
,
0000
0100
0000
0001
0000
0001
0000
0000
,
0010
1000
0001
0100
,
0001
0000
1000
0100
0000
0010
0001
0000
,
1000
0001
0010
0100
,
0001
0010
0100
2000
,
3000
1000
0010
0100
,
0001
0000
1000
0001
1000
0001
1000
0000
,
2001
0000
3010
0000
,
1002
0000
0103
0000
,
2010
0000
3001
0000
,
0012
0000
1003
0000
,
0102
0000
1003
0000
,
0010
0000
0000
0100
0000
0000
0001
0000
,
1000
0000
1000
0100
,
0001
0010
1000
0000
,
1001
1000
0100
0010
,
0110
0010
0001
0100
,
0101
0100
0010
1000
,
2002
0000
3003
1000
,
0001
0100
0010
1000
,
0001
0000
0000
0001
0000
0000
1000
0000
,
0001
0010
0100
1000
,
1100
0101
1001
0000
,
1010
1010
0101
0101
,
1001
0000
0000
0100
0000
0000
0001
0000
,
1000
0000
0000
0001
0010
0000
0000
0000
,
2000
3100
0200
1300
,
0101
0101
1010
1010
,
1001
0000
0000
0010
0000
0000
0100
0000
,
1000
0000
0000
0001
1000
0000
0000
1000
,
0100
0000
0100
0010
0000
0010
0001
0000
,
0001
0000
0100
0000
0001
1000
0001
0000
,
1000
0000
0100
0000
1000
0001
1000
0000
,
0001
0000
0100
0000
0010
1000
0010
0000
,
1000
0000
0100
0000
0010
0001
0010
0000
,
1001
0110
0001
1000
,
0110
1001
0010
0100
,
0001
0000
0000
1000
0010
0000
0100
0001
,
0100
0000
1000
0001
0000
0001
1000
0000
,
2000
0100
0000
0010
0000
0100
0000
0001
,
0000
0100
0000
3010
0000
1000
0001
0000
,
0002
0010
0000
1000
0000
0010
0000
0100
,
0000
1000
0000
0013
0000
0001
1000
0000
,
0001
1000
0000
0100
0000
1000
0000
0010
,
0000
1000
0000
0100
0000
1000
0001
0000
,
1000
0001
0000
0100
0000
0001
0000
1000
,
0001
0010
0001
0000
1000
0010
1000
0001
;

//---------------dance-single - ----------------
#NOTES:
     dance-single:
     :
     Hard:
     7:
     0.477,0.593,0.376,0.253,0.025:
0000
0000
0000
0000
,
0000
0000
0000
0000
,
0000
0000
0000
0000
,
1000
0100
0000
0100
0000
0100
0000
0010
,
0000
0010
0000
0001
0000
0001
0010
0000
,
0001
0100
0000
0100
0000
0100
0000
0010
,
0000
0010
0000
1000
0000
1000
0001
0000
,
1000
0010
0100
0001
0000
0010
0001
0010
,
0000
0010
0100
0010
0000
0001
0100
0000
,
0001
0100
0001
1000
0000
1000
0100
1000
,
0001
0000
0010
0000
0100
0000
0000
0001
0100
0000
0010
0000
1000
0000
0000
0000
,
2000
0001
0001
0100
,
0001
0000
0010
0001
0000
0000
3100
0000
,
0002
1000
0100
1000
,
0100
0000
1000
0100
0000
1000
1003
0000
,
0200
0001
0010
1300
,
0001
0000
0010
0001
0000
1000
0000
1000
,
0000
0010
0100
0001
,
0010
0000
0100
1000
0000
1000
0100
0000
,
0011
1000
0010
0100
,
0010
1000
0001
0010
,
0001
0100
0010
1000
,
0100
0000
0000
1000
0000
0000
0100
0000
,
1000
0001
0100
0010
,
1000
0001
0100
0010
,
1000
0001
0010
0100
,
1000
0000
0001
1000
0000
1000
0001
0000
,
0001
0100
0000
0100
0000
0100
0000
0100
,
0000
0100
0000
0100
0000
0010
1000
0000
,
0001
0010
0000
0010
0000
0010
0000
0010
,
0000
0010
0000
0010
0000
0100
1000
0000
,
2002
3003
0000
0110
0000
0000
0000
0000
,
1000
0001
1000
0000
0100
0000
0010
0001
0010
0000
0100
0010
0100
0000
1000
0000
,
0002
0000
0000
0003
,
1100
0101
1100
MMMM
,
1000
0001
1000
0010
,
0100
0010
0100
1000
,
1000
0001
0010
0001
,
0010
0100
1000
0011
,
0100
0010
1000
0010
,
0001
0010
0100
0001
,
0000
0010
0001
0100
,
0001
0000
1000
0100
0000
0101
0000
0000
,
0011
0010
0001
0010
,
1000
0001
0100
1000
,
0001
0001
0100
1000
,
0001
0010
1000
1001
,
1100
0100
0001
0100
,
0010
0001
1000
0010
,
1000
1000
0001
0010
,
1000
0000
0001
0010
0100
1000
0001
0000
,
0022
0033
0220
0330
,
2200
3300
0220
0330
,
0022
0033
0220
0330
,
0022
0033
2200
3300
,
2000
0000
0002
3003
,
1001
0000
0000
1000
0000
0000
0001
0000
,
1001
0000
0100
0010
,
0100
0010
0100
0000
,
1000
0100
0001
1000
,
0010
0001
1000
0100
,
0001
1000
0010
0001
,
0200
0000
0300
1000
,
0010
0100
0001
0010
,
0100
0000
0000
1000
0000
0001
0000
1000
,
0001
0000
0010
0001
0000
0001
0100
0010
,
1100
0101
2200
3300
,
0011
0101
1100
1010
,
0011
0000
0000
1100
0000
0000
1000
0100
,
0001
0000
0000
0100
1000
0000
0000
0000
,
1100
0101
1100
0101
,
1010
1100
0101
0011
,
1010
0000
0000
0101
0000
0000
2000
0000
,
0002
3003
0000
0100
0010
0000
1000
0001
,
0010
0000
0010
0100
0000
0100
1000
0000
,
1000
0010
1000
0001
1000
0100
1000
0001
,
0011
1100
1100
0101
,
0001
0010
0001
1000
0001
0100
0001
0010
,
1010
0101
0101
1100
,
0002
0013
2000
3010
,
0002
0103
2000
3100
,
0001
0000
0000
0100
0010
0000
1000
0100
,
1100
0101
1100
0101
,
0100
0010
0000
0010
0000
0010
0000
0010
,
0000
0010
0000
0010
0000
1000
0001
0000
,
0010
0100
0000
0100
0000
0100
0000
0100
,
0000
0100
0000
0100
0000
0010
0001
0000
,
2000
0100
0000
0100
0000
0100
0000
0001
,
0000
0001
0000
0001
3000
0001
0100
0000
,
1000
0000
0001
0000
0100
0000
0010
1000
0000
0000
0001
0000
0000
0000
1000
0000
,
0000
0001
0100
0000
0010
0000
0000
0001
0100
0000
0001
0000
2000
0000
0000
0000
,
3000
0000
0000
0000
;
