#TITLE:Sanctuary In The Sky;
#SUBTITLE:;
#ARTIST:bandai;
#TITLETRANSLIT:;
#SUBTITLETRANSLIT:;
#ARTISTTRANSLIT:;
#GENRE:;
#CREDIT:;
#BANNER:;
#BACKGROUND:;
#LYRICSPATH:;
#CDTITLE:;
#MUSIC:Sanctuary In The Sky R21.mp3;
#OFFSET:-0.080;
#SAMPLESTART:55.920;
#SAMPLELENGTH:12.000;
#SELECTABLE:YES;
#BPMS:0.000=101.000;
#STOPS:;
#TIMESIGNATURES:0.000=4=4
;
#BGCHANGES:;
#KEYSOUNDS:;

//---------------dance-single - ----------------
#NOTES:
     dance-single:
     :
     Beginner:
     1:
     0.088,0.126,0.034,0.060,0.000,61.000,4.000,7.000,0.000,0.000,0.000,0.088,0.126,0.034,0.060,0.000,61.000,4.000,7.000,0.000,0.000,0.000: // measure 1
0000
0000
0000
0000
,  // measure 2
0000
0000
0000
0000
,  // measure 3
0000
0000
0000
0000
,  // measure 4
0000
0000
0000
0000
,  // measure 5
0110
0000
0000
0000
,  // measure 6
0010
0000
0000
0000
,  // measure 7
0100
0000
0000
0000
,  // measure 8
0001
0000
0000
0000
,  // measure 9
1000
0000
0001
0000
,  // measure 10
0000
0000
0000
0000
,  // measure 11
0100
0000
0010
0000
,  // measure 12
0000
0000
0000
0000
,  // measure 13
1000
0000
0100
0000
,  // measure 14
0000
0000
0000
0000
,  // measure 15
0010
0000
0001
0000
,  // measure 16
0000
0000
0000
0000
,  // measure 17
1000
0000
0000
0000
,  // measure 18
0001
0000
0000
0000
,  // measure 19
0100
0000
0000
0000
,  // measure 20
0010
0000
0000
0000
,  // measure 21
0000
0000
2002
0000
,  // measure 22
3003
0000
0000
0000
,  // measure 23
0000
0000
0220
0000
,  // measure 24
0330
0000
2000
3000
,  // measure 25
1000
0000
1000
0000
,  // measure 26
0001
0000
0001
0000
,  // measure 27
0100
0000
0100
0000
,  // measure 28
0010
0000
0010
0000
,  // measure 29
1000
1000
1000
0000
,  // measure 30
0001
0000
0001
0000
,  // measure 31
1000
0000
0001
0000
,  // measure 32
0100
0000
0010
0000
,  // measure 33
1000
0000
0001
0000
,  // measure 34
1000
0000
0100
0000
,  // measure 35
0010
0000
0001
0000
,  // measure 36
1000
0000
0001
0000
,  // measure 37
0100
0000
0000
0000
,  // measure 38
0010
0000
1000
0000
,  // measure 39
0001
0000
0100
0000
,  // measure 40
0001
0000
0000
0000
,  // measure 41
0010
0000
0100
0000
,  // measure 42
0000
0000
0000
0000
,  // measure 43
1000
0000
0010
0000
,  // measure 44
0000
0000
0000
0000
,  // measure 45
0100
0000
0001
0000
,  // measure 46
0000
0000
0000
0000
,  // measure 47
1000
0000
0100
0000
,  // measure 48
0010
0000
0001
0000
,  // measure 49
2002
0000
0000
0000
,  // measure 50
3003
0000
0000
0000
;

//---------------dance-single - ----------------
#NOTES:
     dance-single:
     :
     Easy:
     2:
     0.155,0.167,0.051,0.094,0.000,110.000,6.000,11.000,6.000,0.000,0.000,0.155,0.167,0.051,0.094,0.000,110.000,6.000,11.000,6.000,0.000,0.000:
0000
0000
0000
0000
,
0000
0000
0000
0000
,
0000
0000
0000
0000
,
0000
0000
0000
0000
,
0010
0000
1000
0010
,
0000
0100
0001
0000
,
1000
0000
0001
0001
,
0000
1000
1000
0000
,
0100
0010
0100
0000
,
1000
0000
0001
0000
,
0100
0001
0100
0000
,
0010
0000
1000
0000
,
0001
0001
0010
0000
,
0100
0000
1000
0000
,
0001
0001
1000
0000
,
0010
0000
0100
0000
,
0002
0000
0003
0000
,
2000
0000
3000
0000
,
0200
0000
0300
0000
,
0020
0000
0030
0000
,
0002
0000
1003
0000
,
2000
0000
3010
0000
,
0020
0000
0130
0000
,
0200
0000
0000
0000
M02M
M00M
M33M
0000
,
1000
1000
0001
0001
,
1000
0100
0010
0001
,
1000
0000
0001
0000
,
0100
0000
0010
0000
,
1000
0010
0100
0001
,
1000
1000
0001
0001
,
1000
0000
1001
0000
,
1000
0000
0100
0000
,
0010
0000
0011
0000
,
0001
0000
1000
0000
,
0001
0100
0110
0000
,
0010
0000
1000
0000
,
0001
1000
1001
0000
,
0001
0000
1000
0000
,
0100
0010
0110
0000
,
0100
0000
1000
0000
,
0001
0000
1000
0000
,
0010
0000
0100
0000
,
0001
0000
1000
0000
,
0100
0000
0010
0000
,
0001
0001
1000
1000
,
0010
0010
0100
0100
,
0001
1000
0001
0010
,
0100
1000
0001
0100
,
0220
0000
0000
0000
,
0330
0000
0000
0000
;

//---------------dance-single - ----------------
#NOTES:
     dance-single:
     :
     Medium:
     6:
     0.317,0.335,0.026,0.034,0.051,253.000,3.000,4.000,6.000,0.000,0.000,0.317,0.335,0.026,0.034,0.051,253.000,3.000,4.000,6.000,0.000,0.000:
0000
0000
0000
0000
,
0000
0000
0000
0000
,
0000
0000
0000
0000
,
0000
0000
0000
0000
,
0001
0000
1000
0000
0010
0100
0000
0001
,
0100
0001
1000
0100
,
0010
0001
1000
0001
,
0100
0000
0010
0000
1000
0000
0001
0100
,
0001
0000
0000
0000
1000
0000
0001
0100
0001
0000
0000
0000
1000
0000
0000
0000
,
0010
0000
0100
0000
0001
1000
0001
1000
,
0001
0000
0000
0000
0100
0000
0010
1000
0010
0000
0000
0000
1000
0000
0000
0000
,
0100
0000
0010
0000
0001
1000
0001
1000
,
0001
0000
0000
0000
0100
0000
0010
0100
0010
0000
0000
0000
1000
0000
0000
0000
,
0100
1000
0100
1000
0001
0000
1000
0000
,
0001
0000
0000
0000
0010
0000
0100
1000
0100
0000
0000
0000
1000
0000
0000
0000
,
0001
1000
0001
1000
0010
0100
0010
0000
,
1000
1000
0000
0001
0000
0100
0000
0001
,
0010
0010
0000
0100
0000
1000
0000
0001
,
0100
0100
0000
0010
0000
1000
0000
0000
,
0001
0001
0000
0100
0000
0001
0000
1000
,
0100
0010
0110
0100
,
1000
0001
0000
1000
0001
0000
0100
0000
,
0010
0100
0000
0010
0100
0000
0001
0000
,
1000
0100
0010
0001
2MM2
0MM0
3MM3
0000
,
1000
0000
0001
0100
0010
1000
0010
0100
,
0001
0001
1000
0100
1000
0001
0010
0001
,
0001
1000
0001
0100
0100
0010
1000
0001
,
0001
0000
0100
0000
0001
1000
0001
0000
,
1000
0100
0100
1000
0001
0010
0001
1000
,
0001
0100
0010
0010
1000
0001
0001
0100
,
0001
0000
1000
0001
1000
0000
0001
0000
,
0010
0100
1000
0001
0100
0000
0001
0000
,
1000
0000
0000
0000
0010
0000
0100
1000
0100
0000
0000
0000
0001
0000
0000
0000
,
1000
0001
0000
1000
0001
0000
0100
0000
,
0001
0000
0000
0000
1000
0000
0100
1000
0100
0000
0000
0000
1000
0000
0000
0000
,
0001
0100
0000
0001
0100
0000
0001
0000
,
0010
0000
0000
0000
0100
0000
1000
0010
1000
0000
0000
0000
0001
0000
0000
0000
,
1000
0000
0010
0000
0100
0001
0100
0000
,
0001
0000
0000
0000
1000
0000
0010
0100
0010
0000
0000
0000
1000
0000
0000
0000
,
0001
0100
0000
0001
0100
0000
0001
0000
,
1000
0000
0000
0000
0001
0000
0010
0001
0010
0000
0000
0000
0100
0000
0000
0000
,
1000
0000
0001
0000
0100
0001
0100
0000
,
0010
0000
0000
0000
1000
0000
0001
0100
0001
0000
0000
0000
1000
0000
0000
0000
,
0001
0000
0010
0000
0100
1000
0100
0000
,
1000
0000
0000
0000
0001
0000
0100
1000
0100
0000
0000
0000
0010
0000
0000
0000
,
1000
0000
0001
0000
0100
0001
0100
0000
,
0001
0000
0000
0000
1000
0000
0001
0010
0001
0000
0000
0000
1000
0000
0100
0000
,
0010
0001
0010
0100
1000
0001
0100
0001
,
2002
0000
0000
0000
,
3003
0000
0000
0000
;

//---------------dance-single - ----------------
#NOTES:
     dance-single:
     :
     Hard:
     9:
     0.574,0.607,0.085,0.120,0.491,446.000,10.000,14.000,26.000,3.000,2.000,0.574,0.607,0.085,0.120,0.491,446.000,10.000,14.000,26.000,3.000,2.000:
0000
0000
0000
0000
,
0000
0000
0000
0000
,
0010
0000
0000
1000
0000
0000
0001
0000
0000
0100
0001
0100
0001
0000
0000
1000
0000
0000
0100
0000
0000
0010
0000
0000
,
0001
1000
0010
1000
0100
0010
0001
1000
,
0001
0000
0000
0100
0000
0000
0010
0000
0000
1000
0010
0100
0010
0000
0000
0100
0000
0000
0001
0000
0000
1000
0000
0000
,
0001
0010
0100
1000
0100
0010
0001
1000
,
0001
0000
0000
0100
0000
0000
0010
0000
0000
0100
0001
0100
0001
0000
0000
1000
0000
0000
0100
0000
0000
0010
0000
0000
,
0100
1000
0010
0100
0001
1000
0001
0010
,
0100
0000
0000
0000
0000
0000
1000
0000
0000
0001
0000
0000
0100
0000
0000
0000
0000
0000
0001
0000
1000
0000
0010
0000
1000
0000
0000
0000
0000
0000
0001
0000
0000
0000
0000
0000
1000
0000
0000
0000
0000
0000
0100
0000
0000
0000
0000
0000
,
0010
0001
1000
0000
0001
1000
0010
0100
0010
0000
1000
0000
0001
0000
0100
0000
,
0001
0000
0000
0000
0000
0000
0010
0000
0000
0000
0000
0000
0100
0000
0000
0000
0000
0000
1000
0000
0001
0000
0010
0000
0001
0000
0000
0000
0000
0000
0010
0000
0000
0100
0000
0000
1000
0000
0000
0100
0000
0000
0010
0000
0000
0001
0000
0000
,
1000
0000
0001
1000
0010
0000
0100
0000
0001
0000
1000
0000
0001
0000
0010
0000
,
0100
0000
0000
0000
0000
0000
1000
0000
0000
0000
0000
0000
0001
0000
0000
0000
0000
0000
0010
0000
0100
0000
1000
0000
0100
0000
0000
0000
0000
0000
1000
0000
0000
0001
0000
0000
0100
0000
0000
0001
0000
0000
1000
0000
0000
0001
0000
0000
,
0010
0000
0100
1000
0001
0000
1000
0000
0010
0000
0100
0000
0010
0000
1000
0000
,
0001
0000
0000
0000
0000
0000
0100
0000
0000
0000
0000
0000
0001
0000
0000
0000
0000
0000
0010
0000
0001
0000
0100
0000
0001
0000
0000
0000
0000
0000
1000
0000
0000
0010
0000
0000
0100
0000
0000
0010
0000
0000
1000
0000
0000
0001
0000
0000
,
0100
0001
1000
0100
1000
0001
0010
0001
1000
0010
0100
0010
1000
0001
1000
0010
,
0100
0001
0100
0000
0000
0000
0101
0000
0M0M
0000
1010
0000
M0M0
0000
0000
0000
,
0001
1000
0001
0000
0000
0000
1100
0000
MM00
0000
0011
0000
00MM
0000
0000
0000
,
1000
0001
1000
0000
0000
0000
1010
0000
M0M0
0000
0101
0000
0M0M
0000
0000
0000
,
0001
0010
0001
0000
0000
0000
1100
0000
MM00
0000
1001
0000
M00M
0000
0000
0000
,
0001
0200
0002
0000
0000
0000
0000
0000
1000
0000
0000
0000
0303
0000
0000
0000
,
1000
0002
2000
0000
0000
0000
0000
0000
0010
0000
0000
0000
3003
0000
0000
0000
,
1000
0200
2000
0000
0000
0000
0000
0000
0001
0000
0000
0000
3300
0000
0000
0000
,
1000
0010
0100
0000
0001
0000
1000
0000
M44M
0000
M00M
0000
M33M
0000
MMMM
0000
,
0200
0000
0000
0302
0000
0000
2003
0000
3100
0000
0010
0001
1000
0001
0010
0000
,
0100
1000
0001
1000
0100
0000
1000
0010
0100
0010
1000
0010
0100
0001
1000
0100
,
0010
0000
0000
0001
0000
0000
1000
0000
0000
0010
0100
0010
1000
0000
0000
0001
0000
0000
0100
0000
0000
0001
0000
0000
,
0010
0100
1000
0000
0001
1000
0010
0100
0001
0000
1000
0001
0010
0000
0100
0000
,
2000
0000
0000
3020
0000
0000
0230
0000
0301
0010
0100
0000
1000
0000
0001
0010
,
0100
0000
1000
0000
0010
0000
0100
0001
1000
0001
0100
0001
1000
0100
1000
0001
,
0100
0000
0000
0000
0000
0000
0010
0000
0000
0000
0000
0000
1000
0000
0000
0000
0000
0000
0001
0000
0100
0000
0010
0000
0100
0000
0000
0000
0000
0000
0001
0000
0000
0000
0000
0000
1000
0000
0000
0000
0000
0000
0010
0000
0000
0100
0000
0000
,
0001
1000
0001
0100
0001
0000
1000
0000
0100
0000
0010
0000
0001
0000
1000
0000
,
0010
0000
0000
0000
0000
0000
0100
0000
0000
0000
0000
0000
0001
0000
0000
0000
0000
0000
1000
0000
0100
0000
1000
0000
0100
0000
0000
0000
0000
0000
1000
0000
0000
0000
0000
0000
0010
0000
0000
0000
0000
0000
0100
0000
0000
0001
0000
0000
,
1000
0001
0100
0001
1000
0000
0100
1000
0001
0000
0010
0000
0100
0000
1000
0000
,
0001
0000
0000
0000
0000
0000
1000
0000
0000
0000
0000
0000
0010
0000
0000
0000
0000
0000
0100
0000
0010
0000
0100
0000
0001
0000
0000
0000
0000
0000
1000
0000
0000
0000
0000
0000
0100
0000
0000
0000
0000
0000
0010
0000
0000
0001
0000
0000
,
1000
0001
0010
0100
1000
0000
0001
1000
0010
0000
0100
0000
0010
0000
1000
0000
,
0001
0000
0000
0000
0000
0000
0100
0000
0000
0000
0000
0000
0001
0000
0000
0000
0000
0000
0010
0000
0100
0000
1000
0000
0100
0000
0000
0000
0000
0000
1000
0000
0000
0000
0000
0000
0010
0000
0000
0000
0000
0000
0100
0000
0000
0010
0000
0000
,
1000
0010
0100
0001
1000
0000
0001
0010
0100
0000
1000
0000
0001
0000
1000
0000
,
0010
0000
0000
0000
0000
0000
0100
0000
0000
0000
0000
0000
0001
0000
0000
0000
0000
0000
1000
0000
0001
0000
0010
0000
0001
0000
0000
0000
0000
0000
1000
0000
0000
0000
0000
0000
0001
0000
0000
0000
0000
0000
0010
0000
0000
0100
0000
0000
,
1000
0100
0010
0001
0010
0000
0100
1000
0001
0000
1000
0000
0010
0000
0100
0000
,
0001
0000
0000
1000
0000
0000
0010
0000
0000
0100
0010
1000
0010
0000
0000
0100
0000
0000
0001
0000
0000
1000
0000
0000
,
0010
0100
0010
1000
0001
0010
0100
1000
,
0100
0000
0000
0010
0000
0000
0001
0000
0000
1000
0010
0100
0010
0000
0000
1000
0000
0000
0001
0000
0000
0100
0000
0000
,
0010
1000
0001
0100
0001
0010
0100
1000
,
0001
0000
0000
1000
0000
0000
0010
0000
0000
0100
0001
1000
0001
0000
0000
1000
0000
0000
0100
0000
0000
0010
0000
0000
,
0001
0010
0100
1000
0001
1000
0100
1000
,
0010
0000
0000
0000
0000
0000
0100
0000
0000
0000
0000
0000
0001
0000
0000
0000
0000
0000
1000
0000
0010
0000
0100
0000
0001
0000
0000
0000
0000
0000
1000
0000
0000
0000
0000
0000
0001
0000
0000
0000
0000
0000
1000
0000
0000
0100
0000
0000
,
1000
0001
0010
0001
1000
0010
1000
0001
0100
0001
1000
0100
1000
0010
0100
0001
,
0202
0000
0000
0000
,
0303
0000
0000
0000
;

//---------------dance-single - ----------------
#NOTES:
     dance-single:
     :
     Challenge:
     12:
     0.881,0.858,0.171,0.017,1.000,697.000,20.000,2.000,12.000,3.000,0.000,0.881,0.858,0.171,0.017,1.000,697.000,20.000,2.000,12.000,3.000,0.000:
0000
0000
0000
0000
,
0000
0000
0000
0000
,
0001
0000
0000
0000
0000
0000
0100
0000
0000
0000
0000
0000
0010
0000
0000
0000
0000
0000
1000
0010
0100
0010
1000
0001
0100
0000
0000
0000
0000
0000
0001
0000
0000
1000
0000
0000
0100
0000
0000
0000
0000
0000
1000
0000
0000
0001
0000
0000
,
0010
0100
1000
0001
0010
0000
0001
1000
0010
0000
0100
0001
1000
0000
0010
0000
,
0100
0000
0000
0000
0000
0000
0001
0000
0000
0000
0000
0000
0010
0000
0000
0000
0000
0000
0100
1000
0001
1000
0100
1000
0001
0000
0000
0000
0000
0000
1000
0000
0000
0010
0000
0000
0100
0000
0000
0000
0000
0000
0001
0000
0000
1000
0000
0000
,
0010
0100
0010
1000
0001
0000
0100
0001
0010
0000
0100
1000
0001
1000
0010
0100
,
0010
0000
0000
0000
0000
0000
1000
0000
0000
0000
0000
0000
0001
0000
0000
0000
0000
0000
0100
0001
1000
0001
0100
0001
1000
0000
0000
0000
0000
0000
0100
0000
0000
0010
0000
0000
0001
0000
0000
0000
0000
0000
1000
0000
0000
0001
0000
0000
,
0010
0100
1000
0100
0010
0000
0001
1000
0010
0000
0100
0000
0001
1000
0010
0100
,
0001
0000
0000
0000
0000
0000
1000
0000
0000
0000
0000
0000
1100
0000
0000
0000
0000
0000
0100
1000
0001
0010
0001
1000
0100
0000
0000
0000
0000
0000
1000
0000
0000
0001
0000
0000
0010
0000
0000
0000
0000
0000
0001
0000
0000
1000
0000
0000
,
1100
0100
0010
0001
0011
0000
0001
1000
1010
0000
0010
0000
0110
0100
0001
1000
,
1100
0000
0000
0000
0000
0000
0100
0000
0000
0010
0000
0000
0001
0000
0000
0000
0000
0000
0010
0001
1000
0001
0010
0100
1000
0000
0000
0000
0000
0000
0001
0000
0000
1000
0000
0000
0010
0000
0000
0000
0000
0000
0100
0000
0000
0001
0000
0000
,
1001
1000
0001
0010
0110
0000
0100
1000
1001
0000
0001
0000
0101
0100
0010
1000
,
1010
0000
0000
0000
0000
0000
1000
0000
0000
0001
0000
0000
0100
0000
0000
0000
0000
0000
0100
0001
1000
0001
1000
0010
1000
0000
0000
0000
0000
0000
0010
0000
0000
1000
0000
0000
0100
0000
0000
0000
0000
0000
1000
0000
0000
0001
0000
0000
,
0101
0100
0001
0010
0110
0000
0100
1000
1001
0000
1000
0000
1010
0010
0100
0001
,
0101
0000
0000
0000
0000
0000
0100
0000
0000
0000
0000
0000
0010
0000
0000
0000
0000
0000
1000
0010
0100
0010
1000
0001
0100
0000
0000
0000
0000
0000
0001
0000
0000
1000
0000
0000
0100
0000
0000
0000
0000
0000
1000
0000
0000
0001
0000
0000
,
0010
0100
1000
0100
0010
0001
1000
0010
0100
0010
1000
0001
0100
0001
0010
0100
,
1000
0100
1000
0000
0001
0010
0001
0000
0000
0000
0000
0000
1000
0100
0010
0001
1000
0000
0000
0000
0001
0010
0100
1000
0001
0000
0000
0000
0000
0000
0000
0000
,
1000
0010
1000
0000
0001
0100
0001
0000
0000
0000
0000
0000
0000
0000
0000
0000
1000
0010
0100
0010
1000
0001
0100
0001
1000
0000
0000
0000
0000
0000
0000
0000
,
0001
0010
0001
0000
1000
0100
1000
0000
0000
0000
0000
0000
0001
0010
0100
1000
0001
0000
0000
0000
1000
0100
0010
0001
1000
0000
0000
0000
0000
0000
0000
0000
,
0001
0100
0001
0000
1000
0010
1000
0000
0000
0000
0000
0000
0000
0000
0000
0000
0001
1000
0100
0010
0001
0010
0100
1000
0001
0000
0000
0000
0000
0000
0000
0000
,
1000
0010
0100
0000
0001
1000
0100
0000
0000
0000
0000
0000
0000
0000
0000
0000
1101
0000
0000
0000
0000
0000
0000
0000
MMMM
0000
0000
0000
0000
0000
0000
0000
,
0100
1000
0001
0000
0010
0001
1000
0000
0000
0000
0000
0000
0000
0000
0000
0000
1011
0000
0000
0000
0000
0000
0000
0000
MMMM
0000
0000
0000
0000
0000
0000
0000
,
0001
1000
0010
0000
0100
0001
1000
0000
0000
0000
0000
0000
0000
0000
0000
0000
1101
0000
0000
0000
0000
0000
0000
0000
MMMM
0000
0000
0000
0000
0000
0000
0000
,
0001
1000
0010
0000
0100
0001
1000
0000
0001
0000
1000
0000
0010
0000
0100
0000
0010
0100
0010
1000
0010
0100
0001
1000
0010
0100
0010
1000
0001
0100
0001
1000
,
0100
0000
0000
0000
0000
0000
0010
0000
0000
0000
0000
0000
0100
0000
0000
0000
0000
0000
0000
0000
0000
0000
0000
0000
1000
0000
0000
0000
0000
0000
0000
0000
0000
0000
0000
0000
0001
0000
0000
0000
0000
0000
0100
0000
0000
0000
0000
0000
0001
0000
0000
0000
0000
0000
0000
0000
0000
0000
0000
0000
1000
0000
0000
0000
0000
0000
0000
0000
0000
0000
0000
0000
0100
0000
0000
0000
1000
0000
0000
0000
0100
0000
0000
0000
1000
0000
0000
0000
0100
0000
0000
0000
1000
0000
0000
0000
0100
0000
0000
0000
0000
0000
0000
0000
0000
0000
0000
0000
0000
0000
0000
0000
0000
0000
0000
0000
0000
0000
0000
0000
1000
0000
0000
0000
0000
0000
0000
0000
0000
0000
0000
0000
0001
0000
0000
0000
0000
0000
0000
0000
0000
0000
0000
0000
0010
0000
0000
0000
0000
0000
0000
0000
0000
0000
0000
0000
0000
0000
0000
0000
0000
0000
0000
0000
0000
0000
0000
0000
0100
0000
0000
0000
0000
0000
0000
0000
0000
0000
0000
0000
1000
0000
0000
0000
0000
0000
0000
0000
0000
0000
0000
0000
,
0001
0100
0010
0100
0001
0000
1000
0001
0010
0100
1000
0100
0010
0001
1000
0010
,
0100
0000
0000
0000
0000
0000
0001
0000
0000
0010
0000
0000
0100
0000
0000
0000
0000
0000
0010
0001
0010
0001
0010
0001
0010
0000
0000
0000
0000
0000
0001
0000
0000
1000
0000
0000
0010
0000
0000
0000
0000
0000
0100
0000
0000
0001
0000
0000
,
1000
0100
0010
0100
1000
0000
0001
1000
0010
0100
0010
1000
0001
0100
0001
0010
,
0100
0000
0000
0000
0000
0000
1000
0000
0000
0000
0000
0000
0100
0000
0000
0000
0000
0000
0000
0000
0000
0000
0000
0000
1000
0000
0000
0000
0000
0000
0000
0000
0000
0000
0000
0000
0010
0000
0000
0000
0000
0000
0100
0000
0000
0000
0000
0000
0010
0000
0000
0000
0000
0000
0000
0000
0000
0000
0000
0000
0100
0000
0000
0000
0000
0000
0000
0000
0000
0000
0000
0000
0001
0000
0000
0000
0100
0000
0000
0000
0001
0000
0000
0000
0100
0000
0000
0000
0001
0000
0000
0000
0100
0000
0000
0000
0001
0000
0000
0000
0000
0000
0000
0000
0000
0000
0000
0000
0000
0000
0000
0000
0000
0000
0000
0000
0000
0000
0000
0000
1000
0000
0000
0000
0000
0000
0000
0000
0000
0000
0000
0000
0001
0000
0000
0000
0000
0000
0000
0000
0000
0000
0000
0000
0010
0000
0000
0000
0000
0000
0000
0000
0000
0000
0000
0000
0000
0000
0000
0000
0000
0000
0000
0000
0000
0000
0000
0000
0100
0000
0000
0000
0000
0000
0000
0000
0000
0000
0000
0000
1000
0000
0000
0000
0000
0000
0000
0000
0000
0000
0000
0000
,
0001
0000
0000
0100
0000
0000
0010
0000
0000
1000
0000
0000
0010
0000
0000
0100
0000
0000
0001
0000
1000
0000
0010
0000
0100
0000
0010
0000
1000
0000
0001
0000
0100
0000
0001
0000
1000
0000
0100
0000
0010
0000
0001
0000
0010
0000
0100
0000
,
1000
0000
0000
0000
0000
0000
0001
0000
0000
1000
0000
0000
0010
0000
0000
0000
0000
0000
0100
0001
0100
0001
0100
0001
0100
0000
0000
0000
0000
0000
0001
0000
0000
1000
0000
0000
0010
0000
0000
0000
0000
0000
0100
0000
0000
0001
0000
0000
,
1000
0100
0010
0001
0100
0000
0001
0010
0100
1000
0001
1000
0010
0100
0010
1000
,
0001
0000
0000
0000
0000
0000
1000
0000
0000
0100
0000
0000
0010
0000
0000
0000
0000
0000
0001
0010
0001
1000
0001
0010
0001
0000
0000
0000
0000
0000
1000
0000
0000
0000
0000
0000
0010
0000
0000
0000
0000
0000
0100
0000
0000
0001
0000
0000
,
1000
0100
1000
0001
0010
0000
0001
1000
0010
0100
0010
1000
0001
0100
0001
1000
,
0100
0000
0000
0000
0000
0000
0010
0000
0000
0100
0000
0000
1000
0000
0000
0000
0000
0000
0001
0100
0001
0100
0001
0100
0001
0000
0000
0000
0000
0000
1000
0000
0000
0100
0000
0000
0010
0000
0000
0000
0000
0000
0100
0000
0000
1000
0000
0000
,
0010
0100
0010
1000
0001
0000
0100
0001
0010
0100
0010
0001
0100
0010
0100
0001
,
1000
0000
0000
0000
0000
0000
0100
0000
0000
1000
0000
0000
0001
0000
0000
0000
0000
0000
0100
0010
1000
0001
1000
0010
0100
0000
0000
0000
0000
0000
0001
0000
0000
1000
0000
0000
0100
0000
0000
0000
0000
0000
1000
0000
0000
0010
0000
0000
,
0100
0010
1000
0100
0010
0000
0100
1000
0010
0100
0010
1000
0100
0010
0001
0100
,
0001
0000
0000
0000
0000
0000
0100
0000
0000
0001
0000
0000
0010
0000
0000
0000
0000
0000
0100
1000
0001
1000
0001
0010
0001
0000
0000
0000
0000
0000
1000
0000
0000
0010
0000
0000
0100
0000
0000
0000
0000
0000
0001
0000
0000
0100
0000
0000
,
0010
1000
0010
0100
0001
0000
0100
0001
0010
0100
1000
0010
0100
0010
1000
0100
,
0010
0000
0000
0000
0000
0000
0100
0000
0000
1000
0000
0000
0001
0000
0000
0000
0000
0000
0010
0001
0010
0001
0010
0001
0010
0000
0000
0000
0000
0000
0001
0000
0000
0100
0000
0000
0010
0000
0000
0000
0000
0000
0100
0000
0000
0001
0000
0000
,
0010
0001
0100
0010
1000
0000
0100
1000
0010
0100
0010
1000
0100
1000
0001
0010
,
0001
0000
0000
0000
0000
0000
1000
0000
0000
0010
0000
0000
0100
0000
0000
0000
0000
0000
0010
1000
0010
1000
0001
0100
0001
0000
0000
0000
0000
0000
1000
0000
0000
0001
0000
0000
0010
0000
0000
0000
0000
0000
0001
0000
0000
0010
0000
0000
,
0100
0010
0001
1000
0010
0000
0100
0010
1000
0001
0100
0001
1000
0100
0010
0001
,
1000
0000
0000
0000
0000
0000
0001
0000
0000
1000
0000
0000
0010
0000
0000
0000
0000
0000
1000
0001
0100
0001
1000
0010
1000
0000
0000
0000
0000
0000
0001
0000
0000
1000
0000
0000
0100
0000
0000
0000
0000
0000
1000
0000
0000
0001
0000
0000
,
0010
0001
1000
0100
1000
0000
0001
1000
0010
0100
0010
1000
0100
0010
0001
0010
,
0100
0000
0000
0000
0000
0000
1000
0000
0000
0001
0000
0000
0100
0000
0000
0000
0000
0000
0010
0100
0001
0100
0001
1000
0100
0000
0000
0000
0000
0000
1000
0000
0000
0001
0000
0000
0010
0000
0000
0000
0000
0000
0100
0000
0000
1000
0000
0000
,
0010
0100
0010
1000
0001
0100
0010
1000
0001
0100
0001
0010
0100
1000
0001
0010
,
0220
0000
0000
0000
,
0330
0000
0000
0000
;
