#TITLE:Roll Dat Dough;
#SUBTITLE:;
#ARTIST:Enna Alouette × PrettyPatterns;
#TITLETRANSLIT:;
#SUBTITLETRANSLIT:;
#ARTISTTRANSLIT:;
#GENRE:にじさんじ;
#CREDIT:;
#BANNER:Roll Dat Dough.png;
#BACKGROUND:../bg.png;
#LYRICSPATH:;
#CDTITLE:../cdtitle.png;
#MUSIC:Roll Dat Dough.ogg;
#OFFSET:1.566000;
#SAMPLESTART:12.227000;
#SAMPLELENGTH:15.000000;
#LASTBEATHINT:1.415000;
#SELECTABLE:YES;
#BPMS:0.000000=150.000000
;
#STOPS:
;
#BGCHANGES:3.875=Roll Dat Dough.avi=1.000=0=0=0=StretchNoLoop====,
99999=-nosongbg-=1.000=0=0=0 // don't automatically add -songbackground-
;
#KEYSOUNDS:;
#ATTACKS:;

//---------------dance-single - ----------------
#NOTES:
     dance-single:
     :
     Beginner:
     1:
     0.047517,0.092982,0.000000,0.030238,0.000000,22.000000,22.000000,0.000000,2.000000,0.000000,0.000000,0.047517,0.092982,0.000000,0.030238,0.000000,22.000000,22.000000,0.000000,2.000000,0.000000,0.000000:
0000
0000
0000
0000
,
0000
0000
0000
0000
,
0000
0000
0000
0000
,
0000
0000
0000
0000
,
0000
0000
0000
0000
,
0000
0000
0000
0000
,
0000
0000
0000
0000
,
0000
0000
0000
0000
,
0000
0000
0000
0000
,
0100
0000
0000
0000
,
0100
0000
0000
0000
,
0001
0000
0000
0000
,
0001
0000
0000
0000
,
0010
0000
0000
0000
,
0010
0000
0000
0000
,
0020
0000
0000
0000
,
0030
0000
0000
0000
,
0100
0000
0000
0000
,
0000
0000
0000
0000
,
0100
0000
0000
0000
,
0000
0000
0000
0000
,
1000
0000
0000
0000
,
0000
0000
0000
0000
,
1000
0000
0000
0000
,
0000
0000
0000
0000
,
0001
0000
0000
0000
,
0001
0000
0000
0000
,
1000
0000
0000
0000
,
1000
0000
0000
0000
,
0010
0000
0000
0000
,
0000
0000
0000
0000
,
0010
0000
0000
0000
,
0000
0000
0000
0000
,
0100
0000
0000
0000
,
0000
0000
0000
0000
,
0100
0000
0000
0000
,
0000
0000
0000
0000
,
0001
0000
0000
0000
,
0000
0000
0000
0000
,
0001
0000
0000
0000
,
0002
0000
0000
0000
,
0003
0000
0000
0000
;

//---------------dance-single - ----------------
#NOTES:
     dance-single:
     :
     Easy:
     4:
     0.164149,0.309939,0.015119,0.332618,0.000000,76.000000,75.000000,1.000000,22.000000,0.000000,0.000000,0.164149,0.309939,0.015119,0.332618,0.000000,76.000000,75.000000,1.000000,22.000000,0.000000,0.000000:
0000
0000
0000
0000
,
0000
0000
0000
0000
,
0000
0000
0000
0000
,
0000
0000
0000
0000
,
0000
0000
0000
0000
,
0000
0000
0000
0000
,
0000
0000
0000
0000
,
0000
0000
0000
0000
,
0000
0000
0000
0000
,
0100
0000
0100
0000
,
0100
0000
0000
0000
,
0001
0000
1000
0000
,
0001
0000
0000
0000
,
0020
0000
0030
0000
,
0020
0000
0030
0000
,
0200
0000
0000
0000
,
0300
0000
0100
0010
,
0200
0000
1300
0000
,
0002
0000
0103
0000
,
0020
0000
0130
0000
,
0001
0010
0001
0100
,
0020
0000
1030
0000
,
0002
0000
0013
0000
,
0200
0000
0310
0000
,
0002
0000
2000
3003
,
0010
0010
0000
0000
,
0010
0010
0000
0000
,
0100
0100
0010
0010
,
0100
0010
0100
0100
,
0001
2002
3003
1000
,
0001
0010
0100
0000
,
2000
0000
3001
0000
,
1000
0100
0010
0001
,
0020
0000
0031
1000
,
0020
0000
0130
0001
,
2000
0000
3100
0000
,
1000
0001
1000
0001
,
0200
0000
0301
1000
,
0200
0000
0310
0001
,
2000
0000
3010
0000
,
2000
0000
0002
0000
,
3003
0000
0000
0000
;

//---------------dance-single - ----------------
#NOTES:
     dance-single:
     :
     Medium:
     7:
     0.239744,0.433915,0.105833,0.257023,0.000000,111.000000,104.000000,7.000000,17.000000,0.000000,0.000000,0.239744,0.433915,0.105833,0.257023,0.000000,111.000000,104.000000,7.000000,17.000000,0.000000,0.000000:
0000
0000
0000
0000
,
0000
0000
0000
0000
,
0000
0000
0000
0000
,
0000
0000
0000
0000
,
0000
0000
0000
0000
,
0000
0000
0000
0000
,
0000
0000
0000
0000
,
0000
0000
0000
0000
,
0000
0000
0000
0000
,
0100
0100
0100
0000
,
0001
1000
0001
0000
,
0010
0100
0010
0100
,
1000
0100
1000
0000
,
0001
0010
0001
0000
0020
0000
0030
0000
,
0000
1000
0010
0000
2000
0000
3000
0000
,
0000
0010
0001
0000
2000
0000
0000
0000
,
3010
0000
0010
0000
1000
0001
1000
0000
,
0200
0000
0000
0000
0300
0010
0000
0020
,
0000
0030
0001
1000
,
0001
0001
0100
0100
,
1000
0100
0001
1000
,
0020
0000
0000
0000
0030
0100
0000
0200
,
0000
0300
0001
1000
,
0001
0001
0010
0000
,
0200
0000
0010
0310
,
0001
0101
0000
0100
,
1000
1100
0000
0100
,
0001
0101
0001
0011
,
1000
1100
1000
1010
,
0100
0220
0330
0001
,
1000
0100
0001
0100
,
1000
0002
0003
0100
,
0010
0000
0100
0000
0001
1000
0001
0000
,
0020
0000
0000
0000
0030
0100
0000
0200
,
0000
0300
1000
0001
,
1000
1000
0010
0010
,
0001
0010
1000
0001
,
0200
0000
0000
0000
0300
0010
0000
0020
,
0000
0030
1000
0001
,
1000
1000
0100
0000
,
0020
0000
0200
0000
,
0330
0000
0000
0000
;

//---------------dance-single - ----------------
#NOTES:
     dance-single:
     :
     Hard:
     11:
     0.460049,0.619878,0.241904,0.287261,0.113392,213.000000,197.000000,16.000000,19.000000,0.000000,0.000000,0.460049,0.619878,0.241904,0.287261,0.113392,213.000000,197.000000,16.000000,19.000000,0.000000,0.000000:
// measure 0
0000
0000
0000
0000
,  // measure 1
0000
0000
0000
0000
,  // measure 2
0000
0000
0000
0000
,  // measure 3
0000
0000
0000
0000
,  // measure 4
0000
0000
0000
0000
,  // measure 5
0000
0000
0000
0000
,  // measure 6
0000
0000
0000
0000
,  // measure 7
0000
0000
0000
0000
,  // measure 8
0000
0000
0000
0000
0000
0001
0010
0100
,  // measure 9
1000
0001
1000
0001
0100
0001
0100
0001
,  // measure 10
1000
0000
0000
0000
0010
0000
0000
0000
0000
0110
0000
0000
0000
0000
0000
0001
0000
0000
1000
0000
0000
0100
0000
0000
,  // measure 11
0010
0001
0010
0001
1000
0100
1000
0100
,  // measure 12
1000
0001
0100
0001
0000
1000
0010
0100
,  // measure 13
0001
0010
0010
0020
0000
0000
0030
0000
,  // measure 14
0000
1000
0010
0020
0000
0000
0030
0000
,  // measure 15
0000
0001
1000
0020
0000
0000
0030
0000
,  // measure 16
0000
0100
0010
0100
0010
1000
0100
0010
,  // measure 17
0002
0000
0003
0000
1000
1000
0001
0200
,  // measure 18
0000
0310
0100
0000
0011
0000
1010
0000
,  // measure 19
1000
0100
1000
0001
0100
0001
1000
0010
,  // measure 20
0100
0001
0100
0001
0010
0100
1000
0001
,  // measure 21
2000
0000
3000
0000
0001
0001
1000
0020
,  // measure 22
0000
0130
0010
0000
1100
0000
0101
0000
,  // measure 23
0001
0010
0001
1000
0010
1000
0001
0200
,  // measure 24
0000
0310
0100
0001
0010
0000
0110
0000
,  // measure 25
1000
0100
1000
0100
0000
0000
0101
0000
0000
0110
0000
0000
,  // measure 26
1000
0010
1000
0010
0000
0000
0011
0000
0000
0110
0000
0000
,  // measure 27
1000
0001
1000
0001
0000
0100
0010
0100
0010
0100
0000
0000
,  // measure 28
0001
0010
0100
1000
0000
0001
1000
0100
0010
0001
0000
0000
,  // measure 29
0011
0000
0022
0000
0033
0000
1000
0001
,  // measure 30
0100
0010
0100
0010
1000
0100
0001
0100
,  // measure 31
2000
0000
0002
0000
3003
0000
0100
0001
,  // measure 32
0010
0100
0010
0100
1000
0100
0010
0001
,  // measure 33
2000
0000
3000
0000
0001
0001
1000
0020
,  // measure 34
0000
0130
0010
0000
1100
0000
0101
0000
,  // measure 35
0001
0010
0001
1000
0010
1000
0001
0100
,  // measure 36
0010
1000
0010
1000
0100
0010
0001
1000
,  // measure 37
0002
0000
0003
0000
1000
1000
0001
0200
,  // measure 38
0000
0310
0100
0000
0011
0000
1010
0000
,  // measure 39
1000
0100
1000
0001
0100
0001
1000
0020
,  // measure 40
0000
0130
0010
1000
0200
0000
0020
0000
,  // measure 41
0330
0000
0000
0000
;

//---------------dance-double - ----------------
#NOTES:
     dance-double:
     :
     Easy:
     4:
     0.161989,0.309939,0.045357,0.332618,0.000000,75.000000,72.000000,3.000000,22.000000,0.000000,0.000000,0.161989,0.309939,0.045357,0.332618,0.000000,75.000000,72.000000,3.000000,22.000000,0.000000,0.000000:
00000000
00000000
00000000
00000000
,
00000000
00000000
00000000
00000000
,
00000000
00000000
00000000
00000000
,
00000000
00000000
00000000
00000000
,
00000000
00000000
00000000
00000000
,
00000000
00000000
00000000
00000000
,
00000000
00000000
00000000
00000000
,
00000000
00000000
00000000
00000000
,
00000000
00000000
00000000
00000000
,
00010000
00000000
00001000
00000000
,
00010000
00000000
00000000
00000000
,
00000100
00000000
00000010
00000000
,
00000100
00000000
00000000
00000000
,
00000020
00000000
00000030
00000000
,
00000020
00000000
00000030
00000000
,
00000200
00000000
00000000
00000000
,
00000300
00000000
00001000
00000001
,
00002000
00000000
00003100
00000000
,
00002000
00000000
00003010
00000000
,
00020000
00000000
00031000
00000000
,
00100000
00010000
10000000
00000000
,
00020000
00000000
01030000
00000000
,
00020000
00000000
00130000
00000000
,
00002000
00000000
00013000
00000000
,
00022000
00000000
00000000
00033000
,
00001000
00001000
00000000
00000000
,
00010000
00010000
00000000
00000000
,
00000100
00010000
00000100
00010000
,
00001000
01000000
00001000
01000000
,
00100000
02200000
03300000
10000000
,
01000000
00100000
00010000
00000000
,
00200000
00000000
01300000
00000000
,
00010000
00001000
00010000
00001000
,
00020000
00000000
00030100
00010000
,
00002000
00000000
01003000
00001000
,
00020000
00000000
00030100
00000000
,
00000010
00000100
00000010
00000100
,
00020000
00000000
00030010
00010000
,
00002000
00000000
00103000
00001000
,
00020000
00000000
00031000
00000000
,
00022000
00000000
00000000
00000000
,
00033000
00000000
00000000
00000000
;

//---------------dance-double - ----------------
#NOTES:
     dance-double:
     :
     Medium:
     7:
     0.237584,0.433915,0.105833,0.272142,0.000000,110.000000,103.000000,7.000000,18.000000,0.000000,0.000000,0.237584,0.433915,0.105833,0.272142,0.000000,110.000000,103.000000,7.000000,18.000000,0.000000,0.000000:
00000000
00000000
00000000
00000000
,
00000000
00000000
00000000
00000000
,
00000000
00000000
00000000
00000000
,
00000000
00000000
00000000
00000000
,
00000000
00000000
00000000
00000000
,
00000000
00000000
00000000
00000000
,
00000000
00000000
00000000
00000000
,
00000000
00000000
00000000
00000000
,
00000000
00000000
00000000
00000000
,
00010000
00010000
00010000
00000000
,
00001000
00010000
00001000
00000000
,
01000000
00010000
01000000
00010000
,
10000000
00100000
10000000
00000000
,
01000000
00100000
01000000
00000000
00200000
00000000
00300000
00000000
,
00000000
00001000
00010000
00000000
00002000
00000000
00003000
00000000
,
00000000
00010000
00000010
00000000
00000200
00000000
00000000
00000000
,
00000300
00000000
00000001
00000000
00001000
00000001
00001000
00000000
,
00000200
00000000
00000000
00000000
00000300
00000010
00000000
00000200
,
00000000
00000300
00000010
00001000
,
00010000
00010000
00001000
00001000
,
00010000
00100000
10000000
01000000
,
00200000
00000000
00000000
00000000
00300000
01000000
00000000
00200000
,
00000000
00300000
01000000
00010000
,
00001000
00000010
00000001
00000000
,
00000200
00000000
00000020
00000330
,
00001000
00001100
00000000
00010000
,
00001000
00011000
00000000
00100000
,
00010000
01010000
00010000
00011000
,
00001000
00001010
00001000
00011000
,
00000100
00000220
00000330
00001000
,
00000001
00000100
00001000
00010000
,
01000000
00020000
00030000
01000000
,
00100000
00000000
01000000
00000000
10000000
00010000
10000000
00010000
,
02000000
00000000
00000000
00000000
03000000
00100000
00000000
02000000
,
00000000
03000000
00100000
00010000
,
00001000
00001000
00010000
00010000
,
00001000
00000010
00000001
00000100
,
00000020
00000000
00000000
00000000
00000030
00000100
00000000
00000020
,
00000000
00000030
00000100
00001000
,
00010000
00100000
10000000
00000000
,
02000000
00000000
00200000
00000000
,
03300000
00000000
00000000
00000000
;

//---------------dance-double - ----------------
#NOTES:
     dance-double:
     :
     Hard:
     11:
     0.412532,0.526897,0.136071,0.529165,0.098273,191.000000,182.000000,9.000000,35.000000,0.000000,0.000000,0.412532,0.526897,0.136071,0.529165,0.098273,191.000000,182.000000,9.000000,35.000000,0.000000,0.000000:
00000000
00000000
00000000
00000000
,
00000000
00000000
00000000
00000000
,
00000000
00000000
00000000
00000000
,
00000000
00000000
00000000
00000000
,
00000000
00000000
00000000
00000000
,
00000000
00000000
00000000
00000000
,
00000000
00000000
00000000
00000000
,
00000000
00000000
00000000
00000000
,
00000000
00000000
00000000
00000000
00000000
00001000
00000001
00000100
,
00000010
00001000
00000010
00010000
00001000
00010000
00001000
01000000
,
00010000
00000000
00000000
00000000
00100000
00000000
00000000
00000000
00000000
01100000
00000000
00000000
00000000
00000000
00000000
00010000
00000000
00000000
10000000
00000000
00000000
01000000
00000000
00000000
,
10000000
00100000
10000000
00100000
01000000
00010000
01000000
00010000
,
10000000
01000000
00100000
00010000
00000000
00100000
01000000
00010000
,
00001000
00000010
00001000
00000020
00000000
00000000
00000030
00000000
,
00000000
00001000
00010000
00200000
00000000
00000000
00300000
00000000
,
00000000
00010000
00001000
00020000
00000000
00000000
00030000
00000000
,
00000000
00000100
00010000
00001000
01000000
00001000
00010000
00000100
,
00000020
00000000
00000030
00000000
00000100
00001000
00000001
00002000
,
00000000
00003100
00000010
00000000
00000012
00000000
00001003
00000000
,
00000020
00000000
00000130
00000001
00001000
00000100
00010000
00002000
,
00000000
00003020
00000000
00000230
00000000
00010300
00001000
01000000
,
00200000
00000000
00300000
00000000
01000000
00010000
10000000
00020000
,
00000000
01030000
00100000
00000000
20100000
00000000
30010000
00000000
,
00200000
00000000
01300000
00100000
00010000
01000000
00001000
00020000
,
00000000
00130000
01000000
00010000
00200000
00000000
01300000
00000000
,
10000000
00010000
10000000
00010000
00000000
00000000
00110000
00000000
00000000
00001000
00000000
00000000
,
00010000
00000010
00010000
00000010
00000000
00000000
00001010
00000000
00000000
00000001
00000000
00000000
,
00000100
00000010
00000100
00000010
00000000
00000000
00001000
00000100
00001000
00000100
00000000
00000000
,
00010000
00001000
00010000
00001000
00000000
00000000
01000000
00100000
01000000
00100000
00000000
00000000
,
01000000
00000000
20020000
00000000
30030000
00000000
00010000
10000000
,
01000000
00100000
01000000
00200000
00000000
01300000
10000000
00100000
,
00020000
00000000
00002000
00000000
00033000
00000000
00010000
00001000
,
00000100
00000001
00000100
00000001
00000010
00000100
00001000
00000100
,
00000020
00000000
00000030
00000000
00000100
00001000
00000001
00002000
,
00000000
00003100
00000010
00000000
00000012
00000000
00001003
00000000
,
00000020
00000000
00000130
00000001
00001000
00000100
00010000
00002000
,
00000000
00003020
00000000
00000230
00000000
00010300
00001000
01000000
,
00200000
00000000
00300000
00000000
01000000
00010000
10000000
00020000
,
00000000
01030000
00100000
00000000
20100000
00000000
30010000
00000000
,
00200000
00000000
01300000
00100000
00010000
01000000
00001000
00020000
,
00000000
00031000
00000010
00000000
00002002
00000000
00000000
00000000
,
00003003
00000000
00000000
00000000
;
