#TITLE:Midnight;
#SUBTITLE:(Pop Song Made in a Day);
#ARTIST:Boyinaband ft. Veela;
#TITLETRANSLIT:;
#SUBTITLETRANSLIT:;
#ARTISTTRANSLIT:;
#GENRE:Variety;
#CREDIT:;
#BANNER:Midnight (Pop Song Made in a Day).png;
#BACKGROUND:Midnight (Pop Song Made in a Day)-bg.png;
#LYRICSPATH:;
#CDTITLE:../cdtitle.png;
#MUSIC:Midnight (Pop Song Made in a Day).ogg;
#OFFSET:1.844000;
#SAMPLESTART:88.615997;
#SAMPLELENGTH:15.000000;
#LASTBEATHINT:1.828667;
#SELECTABLE:YES;
#BPMS:0.000000=130.000000
;
#STOPS:
;
#BGCHANGES:3.500=Midnight (Pop Song Made in a Day).avi=1.000=0=0=0=StretchNoLoop==CrossFade_Fastest==,
99999=-nosongbg-=1.000=0=0=0 // don't automatically add -songbackground-
;
#KEYSOUNDS:;
#ATTACKS:;

//---------------dance-single - ----------------
#NOTES:
     dance-single:
     :
     Beginner:
     1:
     0.058169,0.103792,0.007984,0.000000,0.000000,51.000000,50.000000,1.000000,0.000000,0.000000,0.000000,0.058169,0.103792,0.007984,0.000000,0.000000,51.000000,50.000000,1.000000,0.000000,0.000000,0.000000:
0000
0000
0000
0000
,
0000
0000
0000
0000
,
0000
0000
0000
0000
,
0000
0000
0000
0000
,
0000
0000
0000
0000
,
1000
0000
0000
0000
,
0000
0000
0000
0000
,
1000
0000
0000
0000
,
0000
0000
0000
0000
,
0100
0000
0000
0000
,
0000
0000
0000
0000
,
0100
0000
0000
0000
,
0000
0000
0000
0000
,
0010
0000
0000
0000
,
0000
0000
0000
0000
,
0010
0000
0000
0000
,
0000
0000
0000
0000
,
0001
0000
0000
0000
,
0001
0000
0000
0000
,
1000
0000
0000
0000
,
1000
0000
0000
0000
,
0001
0000
0000
0000
,
0001
0000
0000
0000
,
1000
0000
0000
0000
,
1000
0000
0000
0000
,
0010
0000
0000
0000
,
0010
0000
0000
0000
,
0100
0000
0000
0000
,
0100
0000
0000
0000
,
0001
0000
0000
0000
,
1000
0000
0000
0000
,
0001
0000
0000
0000
,
1000
0000
0000
0000
,
0100
0000
0000
0000
,
0100
0000
0000
0000
,
0100
0000
0000
0000
,
0100
0000
0000
0000
,
0010
0000
0000
0000
,
0100
0000
0000
0000
,
1000
0000
0000
0000
,
0001
0000
0000
0000
,
1000
0000
0000
0000
,
0000
0000
0000
0000
,
1000
0000
0000
0000
,
0000
0000
0000
0000
,
0001
0000
0000
0000
,
0000
0000
0000
0000
,
0001
0000
0000
0000
,
0000
0000
0000
0000
,
0010
0000
0000
0000
,
0100
0000
0000
0000
,
0010
0000
0000
0000
,
0100
0000
0000
0000
,
1000
0000
0000
0000
,
0001
0000
0000
0000
,
1000
0000
0000
0000
,
0000
0000
0000
0000
,
0100
0000
0000
0000
,
0100
0000
0000
0000
,
0100
0000
0000
0000
,
0100
0000
0000
0000
,
0010
0000
0000
0000
,
0010
0000
0000
0000
,
0010
0000
0000
0000
,
0010
0000
0000
0000
,
1001
0000
0000
0000
;

//---------------dance-single - ----------------
#NOTES:
     dance-single:
     :
     Easy:
     4:
     0.142572,0.233533,0.015968,0.143713,0.000000,125.000000,123.000000,2.000000,18.000000,0.000000,0.000000,0.142572,0.233533,0.015968,0.143713,0.000000,125.000000,123.000000,2.000000,18.000000,0.000000,0.000000:
0000
0000
0000
0000
,
0000
0000
0000
0000
,
0000
0000
0000
0000
,
0000
0000
0000
0000
,
0000
0000
0000
0000
,
0100
0100
0001
0000
,
0100
0100
1000
0000
,
1000
0100
0001
0100
,
1000
0100
0001
0100
,
0020
0000
0000
0000
,
0000
0000
0030
0000
,
0002
0000
0000
0000
,
0000
0000
0003
0000
,
0200
0000
0000
0000
,
0000
0000
0300
0000
,
2000
0000
0000
0000
,
0000
0000
3000
0000
,
0001
0000
0010
0000
,
0100
0000
1000
0000
,
1000
0000
0010
0000
,
0100
0000
0001
0000
,
0001
0000
0100
0000
,
0010
0000
1000
0000
,
1000
0000
0100
0000
,
0020
0000
0030
0010
,
0110
0010
0100
0000
,
1000
0100
1000
0000
,
0010
1000
0010
0000
,
0001
0010
0001
0000
,
0100
0001
0100
0000
,
1000
0100
1000
0000
,
0010
1000
0010
0000
,
0001
0010
0001
0000
,
1000
1000
1000
0000
,
0001
0001
0001
0000
,
0010
0100
0010
0000
,
0100
0010
0100
0000
,
1000
0001
0100
0000
,
0001
1000
0100
0000
,
1000
0001
0010
0000
,
0001
1000
0010
0000
,
0200
0000
0000
0000
,
0000
0000
0300
0000
,
2000
0000
0000
0000
,
0000
0000
3000
0000
,
0020
0000
0000
0000
,
0000
0000
0030
0000
,
0002
0000
0000
0000
,
0000
0000
0003
0000
,
0200
0000
0320
0000
,
1030
0010
0001
0010
,
2000
0000
3002
0000
,
0103
1000
0100
0001
,
0020
0000
0230
0000
,
0301
0100
1000
0100
,
0002
0000
0000
0003
,
2000
0000
0000
3000
,
0001
0000
0100
0000
,
0010
0000
1000
0000
,
1000
0000
0100
0000
,
0010
0000
0001
0000
,
1000
0000
0010
0000
,
0100
0000
0001
0000
,
0001
0000
0010
0000
,
0200
0000
0300
0100
,
1001
0000
0000
0000
;

//---------------dance-single - ----------------
#NOTES:
     dance-single:
     :
     Hard:
     11:
     0.402623,0.467066,0.015968,0.143713,0.095808,353.000000,351.000000,2.000000,18.000000,0.000000,0.000000,0.402623,0.467066,0.015968,0.143713,0.095808,353.000000,351.000000,2.000000,18.000000,0.000000,0.000000:
// measure 0
0000
0000
0000
0000
,  // measure 1
0000
0000
0000
0000
,  // measure 2
0000
0000
0000
0000
,  // measure 3
0000
0000
0000
0000
,  // measure 4
0000
0000
0000
0000
,  // measure 5
0000
0001
0100
0001
1000
0000
0001
0000
,  // measure 6
0010
0000
0100
0010
0001
0000
1000
0001
,  // measure 7
0100
0010
1000
0100
0001
0000
1000
0100
,  // measure 8
0001
0000
1000
0100
0001
0100
1000
0001
,  // measure 9
0200
0000
0020
0300
,  // measure 10
0002
0000
0000
0030
,  // measure 11
0200
0003
2000
0300
,  // measure 12
0002
0000
0000
3000
,  // measure 13
0200
0003
0020
0300
,  // measure 14
2000
0000
0000
0030
,  // measure 15
0002
0000
0000
0000
,  // measure 16
3000
0000
1000
1000
,  // measure 17
1003
0000
0001
0000
1000
0100
0010
0100
,  // measure 18
0000
1000
0000
0001
0100
1000
0100
0000
,  // measure 19
0001
0000
1000
0000
0001
0100
0010
0100
,  // measure 20
0000
0001
0000
1000
0100
0001
0100
0000
,  // measure 21
0010
0000
0100
0000
1000
0001
0100
0010
,  // measure 22
0000
0100
0000
0001
0010
1000
0010
0000
,  // measure 23
0100
0010
0100
0010
0001
1000
0010
0100
,  // measure 24
0100
0100
0100
0100
0100
0000
0100
0000
,  // measure 25
0110
0000
0001
0000
1000
0001
0000
0000
0100
0000
0000
0001
1000
0000
0100
0000
,  // measure 26
0010
0000
1000
0000
0010
0001
0000
0000
1000
0000
0000
0010
1000
0000
0010
0000
,  // measure 27
0100
0000
1000
0000
0100
0001
0000
0000
1000
0000
0000
0100
1000
0000
0001
0000
,  // measure 28
0010
0000
0100
0000
0010
0001
0000
0000
1000
0000
0000
1000
0100
0000
0010
0000
,  // measure 29
0100
0000
1000
0000
0001
1000
0000
0000
0010
0000
0000
1000
0001
0000
0010
0000
,  // measure 30
0100
0000
0001
0000
0100
1000
0000
0000
0001
0000
0000
0100
0001
0000
0100
0000
,  // measure 31
0010
0000
0001
0000
0010
1000
0000
0000
0001
0000
0000
0010
0001
0000
1000
0000
,  // measure 32
0100
0000
0010
0000
0100
1000
0000
0000
0001
0000
0000
0001
0010
0000
0100
0000
,  // measure 33
1000
0001
0100
0010
1000
0000
0001
0000
,  // measure 34
0010
0100
1000
0001
0010
0000
0100
0000
,  // measure 35
0010
0000
0000
0001
0100
0000
0001
0000
0010
0000
0000
0000
0001
0000
0000
0000
,  // measure 36
1000
0010
0001
0010
1000
0100
0001
0010
,  // measure 37
1000
0001
1000
0001
0100
0000
0010
1000
,  // measure 38
0001
1000
0001
1000
0100
0000
0010
0001
,  // measure 39
1000
0001
1000
0001
0100
0000
0010
0100
,  // measure 40
0001
1000
0001
0100
0001
0010
0100
1000
,  // measure 41
0001
0100
0001
0100
0001
0000
1000
0000
,  // measure 42
0010
0001
0100
1000
,  // measure 43
0001
0010
0001
0010
0001
0000
1000
0100
,  // measure 44
0001
0000
0010
0000
1000
0000
0100
0001
,  // measure 45
0010
0000
1000
0000
0100
0000
0001
0010
,  // measure 46
1000
0000
0100
0000
0001
0000
0010
1000
,  // measure 47
0100
0000
0001
0010
1000
0000
0100
0001
,  // measure 48
0010
0100
0010
0100
1000
0010
0001
0100
,  // measure 49
2000
0000
0000
0001
3100
0000
1000
0000
0200
0000
0000
0000
0301
0000
0000
0000
,  // measure 50
0010
0100
1000
0100
0010
0001
1000
1000
,  // measure 51
0002
0000
0000
1000
0013
0000
0001
0000
0020
0000
0000
0000
1030
0000
0000
0000
,  // measure 52
0100
0010
0001
0010
0100
1000
0001
0001
,  // measure 53
0200
0000
0000
0010
1300
0000
0100
0000
0020
0000
0000
0000
0130
0000
0000
0000
,  // measure 54
1000
0010
0100
0001
0100
1000
0100
0020
,  // measure 55
0001
0000
0030
0010
0100
0000
0010
0000
1000
0010
0000
0000
0100
0000
0001
0000
,  // measure 56
0010
0000
0000
0010
0100
0000
0010
0000
1000
0010
0000
0000
0100
0000
0010
0000
,  // measure 57
0001
0000
1000
0000
0001
0100
0010
0100
,  // measure 58
0000
0001
0000
1000
0100
0001
0100
0000
,  // measure 59
1000
0000
0001
0000
1000
0100
0010
0100
,  // measure 60
0000
1000
0000
0001
0100
1000
0100
0000
,  // measure 61
0010
0000
0100
0000
0001
1000
0100
0010
,  // measure 62
0000
0100
0000
1000
0010
0001
0010
0000
,  // measure 63
0100
0000
0010
0000
1000
0001
0010
0100
,  // measure 64
0020
0100
0130
0010
,  // measure 65
1001
0000
0000
0000
;

//---------------dance-single - ----------------
#NOTES:
     dance-single:
     :
     Medium:
     7:
     0.247505,0.311377,0.015968,0.111776,0.000000,217.000000,215.000000,2.000000,14.000000,0.000000,0.000000,0.247505,0.311377,0.015968,0.111776,0.000000,217.000000,215.000000,2.000000,14.000000,0.000000,0.000000:
0000
0000
0000
0000
,
0000
0000
0000
0000
,
0000
0000
0000
0000
,
0000
0000
0000
0000
,
0000
0000
0000
0000
,
1000
0000
0010
0100
0010
0000
0000
0000
,
0001
0000
0010
0100
0010
0000
0000
0000
,
0010
0000
0100
0001
0010
0000
0100
1000
,
0010
0000
0100
0001
0010
0000
0100
0000
,
2000
0000
0000
0000
,
3002
0000
0000
0000
,
0203
0000
0000
0000
,
2300
0000
0000
0000
,
3002
0000
0000
0000
,
0023
0000
0000
0000
,
2030
0000
0000
0000
,
3002
0000
0000
0000
,
1003
0100
1000
0100
,
0010
0100
0010
0100
,
0010
0001
0010
0001
,
1000
0001
1000
0001
,
1000
0100
0001
0100
,
1000
0010
0001
0010
,
1000
0100
0001
0100
,
1000
1000
1000
0001
,
0110
1000
0001
0001
,
0100
0001
1000
1000
,
0001
0010
0100
0100
,
1000
0100
0010
0010
,
0001
0100
1000
0010
,
0001
0100
1000
0010
,
0001
0100
1000
0010
,
0001
0100
1000
0010
,
0001
1000
0001
0001
,
1000
0001
1000
1000
,
0010
1000
0100
0100
,
0010
0001
0100
0100
,
1000
0100
0001
0000
,
1000
0010
0001
0000
,
1000
0100
0001
0000
,
1000
0010
0001
0000
,
1000
0100
0010
0001
,
0100
1000
0010
0000
,
0001
0100
0010
1000
,
0100
0001
0010
1000
,
0100
0001
0010
1000
,
0100
0001
0010
1000
,
0100
0001
0010
1000
,
0100
0100
0100
0100
,
2000
3010
0002
0013
,
1000
0100
0001
0010
,
2000
3100
0002
0103
,
1000
0010
0001
0100
,
0020
0031
0020
1030
,
0100
0010
0001
1000
,
0100
0001
0100
1000
,
0010
0100
0001
1000
,
0100
0010
0100
0010
,
0001
0010
0001
0010
,
0100
1000
0100
1000
,
0001
0100
0001
0001
,
0010
1000
0010
0001
,
0100
1000
0100
0001
,
0010
1000
0010
0001
,
0010
0010
0010
0100
,
1001
0000
0000
0000
;

//---------------dance-double - ----------------
#NOTES:
     dance-double:
     :
     Easy:
     4:
     0.141431,0.207585,0.007984,0.135729,0.000000,124.000000,123.000000,1.000000,17.000000,0.000000,0.000000,0.141431,0.207585,0.007984,0.135729,0.000000,124.000000,123.000000,1.000000,17.000000,0.000000,0.000000:
00000000
00000000
00000000
00000000
,
00000000
00000000
00000000
00000000
,
00000000
00000000
00000000
00000000
,
00000000
00000000
00000000
00000000
,
00000000
00000000
00000000
00000000
,
00010000
00001000
00000010
00000000
,
00001000
00010000
00100000
00000000
,
01000000
00001000
00010000
00000000
,
00000100
00010000
00001000
00000000
,
00020000
00000000
00000000
00000000
,
00000000
00000000
00030000
00000000
,
00200000
00000000
00000000
00000000
,
00000000
00000000
00300000
00000000
,
20000000
00000000
00000000
00000000
,
00000000
00000000
30000000
00000000
,
02000000
00000000
00000000
00000000
,
00000000
00000000
03000000
00000000
,
00100000
00000000
00001000
00000000
,
00010000
00000000
00000000
00000000
,
00000010
00000000
00010000
00000000
,
00001000
00000000
00000000
00000000
,
00000100
00000000
00000001
00000000
,
00000010
00000000
00000000
00000000
,
00000100
00000000
00001000
00000000
,
00000001
00000000
00000000
00000000
,
00000100
00000100
00000100
00000000
,
00000010
00000010
00000010
00000000
,
00001000
00001000
00001000
00000000
,
00010000
00010000
00010000
00000000
,
01000000
10000000
01000000
00000000
,
10000000
00100000
10000000
00000000
,
00100000
00010000
00100000
00000000
,
00010000
00001000
00010000
00000000
,
00000010
00000100
00000010
00000000
,
00000100
00000010
00000100
00000000
,
00000010
00001000
00000100
00000000
,
00000010
00000001
00000100
00001000
,
00010000
00001000
00000010
00000000
,
00010000
00001000
00000100
00000000
,
00001000
00010000
00100000
00000000
,
00001000
00010000
01000000
00000000
,
00002000
00000000
00000000
00000000
,
00000000
00000000
00003000
00000000
,
00000200
00000000
00000000
00000000
,
00000000
00000000
00000300
00000000
,
00000002
00000000
00000000
00000000
,
00000000
00000000
00000003
00000000
,
00000020
00000000
00000000
00000000
,
00000000
00000000
00000030
00000000
,
00000200
00000000
00000320
00000000
,
00000031
00000100
00001000
00000000
,
00020000
00000000
00032000
00000000
,
01003000
00010000
00010000
00000000
,
00200000
00000000
02300000
00000000
,
13000000
00100000
00010000
00001000
,
00000020
00000000
00000000
00000030
,
00000200
00000000
00000000
00000300
,
00001000
00001000
00000001
00000001
,
00001000
00000000
00000001
00000000
,
00000010
00000010
00000100
00000100
,
00010000
00000000
00001000
00000000
,
01000000
01000000
00010000
00010000
,
10000000
00000000
01000000
00000000
,
00100000
00100000
00001000
00001000
,
00020000
00000000
00000000
00030000
,
00011000
00000000
00000000
00000000
;

//---------------dance-double - ----------------
#NOTES:
     dance-double:
     :
     Medium:
     7:
     0.242943,0.311377,0.015968,0.127745,0.000000,213.000000,211.000000,2.000000,16.000000,0.000000,0.000000,0.242943,0.311377,0.015968,0.127745,0.000000,213.000000,211.000000,2.000000,16.000000,0.000000,0.000000:
00000000
00000000
00000000
00000000
,
00000000
00000000
00000000
00000000
,
00000000
00000000
00000000
00000000
,
00000000
00000000
00000000
00000000
,
00000000
00000000
00000000
00000000
,
00001000
00000000
00010000
00000010
00001000
00000000
00000000
00000000
,
00010000
00000000
00100000
00001000
00010000
00000000
00000000
00000000
,
01000000
00000000
10000000
01000000
00010000
00000000
01000000
00010000
,
00001000
00000000
00010000
00001000
00000010
00000000
00000001
00000000
,
00000200
00000000
00000000
00000000
,
00000320
00000000
00000000
00000000
,
00020030
00000000
00000000
00000000
,
00032000
00000000
00000000
00000000
,
00203000
00000000
00000000
00000000
,
02300000
00000000
00000000
00000000
,
23000000
00000000
00000000
00000000
,
30020000
00000000
00000000
00000000
,
01030000
00001000
00100000
00001000
,
00010000
00010000
00001000
00010000
,
00000100
00010000
00000010
00010000
,
00001000
00001000
00010000
00001000
,
00000010
00000001
00000100
00001000
,
00010000
00010000
00100000
10000000
,
01000000
10000000
00100000
00010000
,
00002000
00000000
00003000
00001000
,
00011000
00000010
00001000
00001000
,
00000100
00000010
00000001
00000001
,
00000100
00001000
00010000
00001000
,
00100000
00010000
01000000
01000000
,
00001000
00100000
00010000
00010000
,
01000000
00100000
10000000
10000000
,
01000000
00010000
00001000
00010000
,
00000010
00001000
00000100
00000100
,
00000010
00000100
00000010
00000001
,
00000100
00000010
00001000
00000010
,
00010000
00001000
01000000
00010000
,
00100000
10000000
01000000
00010000
,
10000000
00010000
01000000
00000000
,
00001000
00010000
00000100
00000000
,
00001000
00000001
00000100
00000000
,
00000010
00010000
00001000
00000000
,
00010000
00001000
00010000
01000000
,
10000000
00100000
00010000
00000000
,
00001000
00010000
00001000
00000010
,
00000001
00000100
00001000
00010000
,
01000000
10000000
00100000
00010000
,
00001000
00000010
00000001
00000100
,
00001000
00010000
01000000
10000000
,
00100000
00100000
00100000
00100000
,
00020000
01030000
20000000
31000000
,
00100000
00001000
01000000
00010000
,
00002000
00003010
00020000
00031000
,
00000100
00000010
00001000
00000001
,
00002000
00003100
00000002
00000103
,
00000010
00010000
00000100
00001000
,
00010000
00010000
00100000
00100000
,
01000000
10000000
00010000
10000000
,
00100000
01000000
00100000
00100000
,
10000000
01000000
00100000
00010000
,
00100000
00001000
00010000
00010000
,
00000100
00001000
00000001
00000010
,
00000010
00000100
00000010
00000010
,
00000001
00000100
00000010
00001000
,
00000010
00010000
00001000
00001000
,
00020000
00000000
00030000
00010000
,
00011000
00000000
00000000
00000000
;

//---------------dance-double - ----------------
#NOTES:
     dance-double:
     :
     Hard:
     11:
     0.398061,0.467066,0.031936,0.151697,0.091816,349.000000,345.000000,4.000000,19.000000,0.000000,0.000000,0.398061,0.467066,0.031936,0.151697,0.091816,349.000000,345.000000,4.000000,19.000000,0.000000,0.000000:
00000000
00000000
00000000
00000000
,
00000000
00000000
00000000
00000000
,
00000000
00000000
00000000
00000000
,
00000000
00000000
00000000
00000000
,
00000000
00000000
00000000
00000000
,
00000000
00000010
00001000
00000010
00010000
00000000
00001000
00000000
,
00000010
00000000
00000100
00001000
00000001
00000000
00001000
00000001
,
00000100
00001000
00010000
00100000
10000000
00000000
01000000
00010000
,
00001000
00000000
00000010
00000001
00000100
00001000
00010000
00100000
,
02000000
00000000
20000000
03000000
,
00020000
00000000
00000000
30000000
,
00002000
00030000
00000020
00003000
,
00000002
00000000
00000000
00000030
,
00002000
00000003
00000020
00003000
,
00000200
00000000
00000000
00000030
,
00000002
00000000
00000000
00000300
,
00002000
00000000
00000000
00003003
,
00000100
00000000
00001000
00000000
00000001
00000100
00000001
00001000
,
00000000
00000010
00000000
00010000
00001000
00010000
00001000
00000000
,
01000000
00000000
00010000
00000000
10000000
01000000
10000000
00010000
,
00000000
00100000
00000000
00001000
00010000
00001000
00010000
00000000
,
00000010
00000000
00001000
00000000
00000001
00000010
00000100
00001000
,
00000000
00000100
00000000
00010000
00001000
00100000
00010000
00000000
,
01000000
00010000
01000000
00010000
10000000
00100000
01000000
00010000
,
00100000
00100000
00100000
00100000
00100000
00000000
00100000
00000000
,
10010000
00000000
01000000
00000000
00100000
01000000
00000000
00000000
10000000
00000000
00000000
00010000
01000000
00000000
00010000
00000000
,
00100000
00000000
00001000
00000000
00010000
00001000
00000000
00000000
00100000
00000000
00000000
00001000
00010000
00000000
00001000
00000000
,
00000010
00000000
00000001
00000000
00001000
00000100
00000000
00000000
00000010
00000000
00000000
00000001
00001000
00000000
00000100
00000000
,
00010000
00000000
00000010
00000000
00001000
00000001
00000000
00000000
00000100
00000000
00000000
00000010
00000000
00000000
00001000
00000000
,
00000001
00000000
00000100
00000000
00000010
00000100
00000000
00000000
00000001
00000000
00000000
00001000
00000100
00000000
00001000
00000000
,
00000010
00000000
00010000
00000000
00001000
00010000
00000000
00000000
00000010
00000000
00000000
00010000
00001000
00000000
00010000
00000000
,
00100000
00000000
10000000
00000000
00010000
01000000
00000000
00000000
00100000
00000000
00000000
10000000
00010000
00000000
01000000
00000000
,
00001000
00000000
00100000
00000000
00010000
10000000
00000000
00000000
01000000
00000000
00000000
00100000
00000000
00000000
00010000
00000000
,
10000000
01000000
00010000
00100000
10000000
00000000
00010000
00000000
,
10000000
00100000
01000000
00001000
00010000
00000000
00000010
00000000
,
00001000
00000100
00000001
00000010
00001000
00000000
00000001
00000000
,
00001000
00000010
00000001
00000010
00001000
00000100
00000010
00000001
,
00001000
00000001
00001000
00000001
00000100
00000000
00000010
00010000
,
00001000
00010000
00001000
00010000
00000100
00000000
00100000
00001000
,
00010000
00001000
00010000
00001000
01000000
00000000
00100000
10000000
,
00010000
10000000
00010000
10000000
01000000
00010000
01000000
10000000
,
00010000
01000000
00100000
01000000
00010000
00000000
10000000
00100000
,
00010000
00001000
00000100
00000001
,
00001000
00000100
00000010
00000100
00001000
00000000
00000001
00000010
,
00001000
00000000
00010000
00000000
01000000
00000000
10000000
00100000
,
00010000
00000000
00001000
00000000
00000100
00000000
00000001
00000010
,
00001000
00010000
01000000
10000000
,
00100000
00000000
00010000
00000000
00001000
00000000
00000100
00000001
,
00001000
00000001
00001000
00000001
00000010
00001000
00010000
00001000
,
00000210
00000000
00000000
00000010
00001300
00000000
00000001
00000000
00000020
00000000
00000000
00000000
00000031
00000000
00000000
00000000
,
00000100
00000010
00010000
00001000
00100000
01000000
00100000
00000000
,
00020000
00000000
00000000
10000000
00130000
00000000
10000000
00000000
02000000
00000000
00000000
00000000
03100000
00000000
00000000
00000000
,
01000000
10000000
00010000
00100000
00001000
00010000
01000000
00000000
,
02100000
00000000
00000000
00100000
03010000
00000000
10000000
00000000
00200000
00000000
00000000
00000000
10300000
00000000
00000000
00000000
,
01000000
00100000
00001000
00010000
00000010
00000100
00000010
00002000
,
00000001
00000000
00003000
00000001
00001000
00000000
00000010
00000000
00000100
00000001
00000000
00000000
00001000
00000000
00000100
00000000
,
00010000
00000000
00000000
00000010
00010000
00000000
00001000
00000000
00100000
00001000
00000000
00000000
00010000
00000000
00001000
00000000
,
01000000
00000000
00010000
00000000
10000000
01000000
10000000
00010000
,
00000000
00100000
00000000
00001000
00010000
00001000
00010000
00000000
,
00000100
00000000
00001000
00000000
00000001
00000100
00000001
00001000
,
00000000
00000010
00000000
00010000
00001000
00010000
00001000
00000000
,
00100000
00000000
00010000
00000000
10000000
00100000
01000000
00010000
,
00000000
01000000
00000000
00001000
00010000
00000010
00001000
00000000
,
00000100
00000000
00001000
00000000
00000001
00000010
00000100
00010000
,
00002000
00010000
00013000
00001000
,
00011000
00000000
00000000
00000000
;
