#TITLE:Leia (八王子P Remix);
#SUBTITLE:(Double Edit);
#ARTIST:ゆよゆっぺ feat. 巡音ルカ;
#TITLETRANSLIT:Leia (8#Prince Remix);
#SUBTITLETRANSLIT:;
#ARTISTTRANSLIT:Yuyoyuppe feat. Megurine Luka;
#GENRE:J-Music;
#CREDIT:;
#BANNER:Leia (8#Prince Remix) (Double Edit).png;
#BACKGROUND:Leia (8#Prince Remix) (Double Edit)-bg.png;
#LYRICSPATH:;
#CDTITLE:../cdtitle.png;
#MUSIC:Leia (8#Prince Remix) (Double Edit).ogg;
#OFFSET:1.326000;
#SAMPLESTART:43.417000;
#SAMPLELENGTH:15.000000;
#LASTBEATHINT:0.961700;
#SELECTABLE:YES;
#BPMS:0.000000=177.000000
;
#STOPS:
;
#BGCHANGES:-99.000=../bg.avi=1.000=0=0=1=====,
99999=-nosongbg-=1.000=0=0=0 // don't automatically add -songbackground-
;
#KEYSOUNDS:;
#ATTACKS:;

//---------------dance-double - ----------------
#NOTES:
     dance-double:
     :
     Easy:
     7:
     0.300272,0.439422,0.124503,0.161121,0.000000,287.000000,270.000000,17.000000,22.000000,0.000000,0.000000,0.300272,0.439422,0.124503,0.161121,0.000000,287.000000,270.000000,17.000000,22.000000,0.000000,0.000000:
// measure 0
00000000
00000000
00000000
00000000
,  // measure 1
00000000
00000000
00000000
00000000
,  // measure 2
00000000
00000000
00000000
00000000
,  // measure 3
00000000
00000000
00000000
00000000
,  // measure 4
00000000
00000000
00000000
00000000
,  // measure 5
00000000
00000000
00000000
00000000
,  // measure 6
00000000
00000000
00000000
00000000
,  // measure 7
00000000
00000000
00000000
00000000
,  // measure 8
00000000
00000000
00000000
00000000
,  // measure 9
10000000
00000000
00000000
00000000
,  // measure 10
10000000
00000000
00000000
00000000
,  // measure 11
00010000
00000000
00000000
00000000
,  // measure 12
00010000
00000000
00000000
00000000
,  // measure 13
00001000
00000000
00000000
00000000
,  // measure 14
00001000
00000000
00000000
00000000
,  // measure 15
00000001
00000000
00000000
00000000
,  // measure 16
00000001
00000000
00000000
00000000
,  // measure 17
00000020
00000000
00000130
00000000
,  // measure 18
00000200
00000000
00000310
00000000
,  // measure 19
00002000
00000000
00013000
00000000
,  // measure 20
00020000
00000000
00031000
00000000
,  // measure 21
00011000
00000000
00010000
00000000
,  // measure 22
00010000
00000000
00010000
00000000
,  // measure 23
10010000
00000000
10000000
00000000
,  // measure 24
10000000
00000000
10000000
00000000
,  // measure 25
01100000
00000000
01000000
00000000
,  // measure 26
01000000
00000000
01000000
00000000
,  // measure 27
01100000
00000000
00100000
00000000
,  // measure 28
00100000
00000000
00100000
00000000
,  // measure 29
10000000
10000000
00010000
00010000
,  // measure 30
00001000
00001000
00000100
00000100
,  // measure 31
00000001
00000000
00000000
00000000
,  // measure 32
00000000
00000000
00000020
00000030
,  // measure 33
00001001
00000001
00001000
00000001
,  // measure 34
00000200
00000010
00000010
00000310
,  // measure 35
00000001
00000100
00001000
00000010
,  // measure 36
00000001
00001000
00010000
00011000
,  // measure 37
00110000
00000000
00010000
00010000
00010000
00000000
10000000
00000000
,  // measure 38
02000000
00100000
00100000
03100000
,  // measure 39
00010000
00010000
10000000
10000000
,  // measure 40
00010000
01000000
00001000
00011000
,  // measure 41
00001100
00000001
00000101
00001000
,  // measure 42
00000020
00001000
00001000
00001030
,  // measure 43
00000001
00000001
00000001
00000100
,  // measure 44
00000010
00000100
00000001
00001001
,  // measure 45
00001010
00010000
00101000
00010000
,  // measure 46
20000000
01000000
01000000
31000000
,  // measure 47
00010000
01000000
10000000
01000000
,  // measure 48
00100000
00001000
00010000
00001000
,  // measure 49
00000100
00000000
00000000
00000100
00000000
00000000
00000000
00000000
,  // measure 50
00000001
00000000
00000000
00000001
00000000
00000000
00000000
00000000
,  // measure 51
00001000
00000000
00000000
00001000
00000000
00000000
00000000
00000000
,  // measure 52
00000010
00000000
00000000
00000010
00000000
00000000
00000000
00000000
,  // measure 53
00010000
00000000
00000000
00010000
00000000
00000000
00000000
00000000
,  // measure 54
01000000
00000000
00000000
01000000
00000000
00000000
00000000
00000000
,  // measure 55
10000000
00000000
00000000
10000000
00000000
00000000
00000000
00000000
,  // measure 56
00100000
00100000
00100000
00100000
,  // measure 57
01000000
10000000
01000000
00010000
,  // measure 58
00100000
00001000
00010000
00000100
,  // measure 59
00000001
00000010
00001000
00000010
,  // measure 60
00000001
00000001
00001000
00001000
,  // measure 61
00000001
00000100
00000010
00001000
,  // measure 62
00010000
01000000
00100000
10000000
,  // measure 63
01000000
00010000
00100000
10000000
,  // measure 64
01100000
00000000
00000000
00000000
,  // measure 65
10010000
10000000
00100000
00010000
,  // measure 66
00002000
01000000
00000000
01003000
,  // measure 67
00010000
00001000
00000010
00000001
,  // measure 68
00002000
00000100
00000000
00003100
,  // measure 69
00000001
00000010
00001000
00000010
,  // measure 70
00000100
00001000
00010000
00001000
,  // measure 71
00100000
01000000
10000000
01000000
,  // measure 72
00100000
00001000
00020000
00030000
,  // measure 73
00100000
00001000
00100000
00010000
,  // measure 74
00000010
00010000
00000010
00001000
,  // measure 75
00000001
00000010
00000001
00000010
,  // measure 76
00000100
00000001
00002000
00003000
,  // measure 77
00000001
00000100
00010000
00001000
,  // measure 78
00010000
01000000
10000000
01000000
,  // measure 79
00010000
00000000
00000000
10000000
00000000
00000000
01000000
00200000
,  // measure 80
00000000
00000000
00300000
00000000
,  // measure 81
10010000
01000000
10000000
01000000
,  // measure 82
00010000
01000000
00010000
00100000
,  // measure 83
00001000
00010000
00000100
00010000
,  // measure 84
00002000
00000000
00010000
00013000
,  // measure 85
00000100
00000010
00000100
00001000
,  // measure 86
00000001
00000010
00000100
00000010
,  // measure 87
00001000
00000001
00000100
00000010
,  // measure 88
00000001
00001000
00000001
00001000
,  // measure 89
00000200
00000001
00000010
00001300
,  // measure 90
00002000
00010000
00000010
00013000
,  // measure 91
00020000
00001000
00100000
00031000
,  // measure 92
02000000
10000000
00100000
03010000
,  // measure 93
00010000
01000000
10000000
00100000
,  // measure 94
00001000
00010000
01000000
00010000
,  // measure 95
00100000
00000000
00000000
00001000
00000000
00000000
00000010
00000200
,  // measure 96
00000000
00000000
00000000
00000300
,  // measure 97
00002002
00000000
00000000
00000000
,  // measure 98
00000000
00000000
00000000
00000000
,  // measure 99
00000000
00000000
00000000
00000000
,  // measure 100
00003003
00000000
00000000
00000000
;

//---------------dance-double - ----------------
#NOTES:
     dance-double:
     :
     Hard:
     13:
     0.537769,0.805607,0.285624,0.161121,0.073237,514.000000,475.000000,39.000000,22.000000,0.000000,0.000000,0.537769,0.805607,0.285624,0.161121,0.073237,514.000000,475.000000,39.000000,22.000000,0.000000,0.000000:
// measure 0
00000000
00000000
00000000
00000000
,  // measure 1
00000000
00000000
00000000
00000000
,  // measure 2
00000000
00000000
00000000
00000000
,  // measure 3
00000000
00000000
00000000
00000000
,  // measure 4
00000000
00000000
00000000
00000000
,  // measure 5
00000000
00000000
00000000
00000000
,  // measure 6
00000000
00000000
00000000
00000000
,  // measure 7
00000000
00000000
00000000
00000000
,  // measure 8
00000000
00000000
00000000
00000000
,  // measure 9
00100000
00000000
00100000
00000000
,  // measure 10
00100000
00000000
00100000
00000000
,  // measure 11
01000000
00000000
01000000
00000000
,  // measure 12
01000000
00000000
01000000
00000000
,  // measure 13
00000100
00000000
00000100
00000000
,  // measure 14
00000100
00000000
00000100
00000000
,  // measure 15
00000010
00000000
00000010
00000000
,  // measure 16
00000010
00000000
00000010
00000000
,  // measure 17
00000010
00000000
00001000
00000001
00000000
00000000
00000000
00000000
,  // measure 18
00000100
00000000
00000001
00001000
00000000
00000000
00000000
00000000
,  // measure 19
00000010
00000000
00010000
00001000
00000000
00000000
00000000
00000000
,  // measure 20
00100000
00000000
00001000
00010000
00000000
00000000
00000000
00000000
,  // measure 21
01000000
00000000
10000000
00010000
10000000
00000000
00100000
00000000
,  // measure 22
01000000
00000000
00001000
00010000
00001000
00000000
00001000
00000000
,  // measure 23
00000100
00000000
00000001
00001000
00000001
00000000
00000010
00000000
,  // measure 24
00000100
00000000
00010000
00001000
00010000
00000000
00001000
00000000
,  // measure 25
00001001
00000000
00001001
00000000
,  // measure 26
00000110
00000000
00000110
00000000
,  // measure 27
00011000
00000000
00011000
00000000
,  // measure 28
01100000
00000000
01100000
00000000
,  // measure 29
10010000
00100000
01000000
10000000
00100000
00010000
00001000
00000100
,  // measure 30
00000001
00000000
00000010
00000000
00001000
00000000
00010000
00000000
01000000
00100000
01000000
00100000
00010000
10000000
00010000
10000000
,  // measure 31
00020000
00000000
00000000
00000000
,  // measure 32
00030000
00000000
01000000
00100000
,  // measure 33
10010000
00000000
00100000
01000000
10000000
00010000
00110000
00000000
,  // measure 34
20100000
00100000
00010000
31000000
,  // measure 35
00100000
00000000
00010000
10000000
01000000
00000000
10000000
00000000
00100000
00000000
10000000
00000000
01000000
00000000
00000000
00000000
,  // measure 36
00100000
00010000
00001000
00010000
00100000
00001000
00010000
00000000
,  // measure 37
00001001
00000000
00000010
00000100
00000001
00001000
00001010
00000000
,  // measure 38
00000012
00000010
00001000
00000103
,  // measure 39
00000010
00000000
00001000
00000001
00000100
00000000
00000001
00000000
00000010
00000000
00000001
00000000
00000100
00000000
00000000
00000000
,  // measure 40
00000010
00001000
00010000
00001000
00000010
00010000
00001000
00000000
,  // measure 41
00011000
00000000
00000100
00001000
00000100
00000000
00000100
00000001
,  // measure 42
00000200
00000001
00000010
00001300
,  // measure 43
00000100
00000000
00000001
00000010
00000001
00000000
00001000
00000100
00001000
00000000
00000100
00000000
00000001
00000000
00000000
00000000
,  // measure 44
00000100
00001000
00000010
00001000
00000100
00010000
00000010
00000000
,  // measure 45
00011000
00001000
01000000
10000000
01000000
00010000
00100000
00000000
,  // measure 46
02000000
10000000
00100000
03010000
,  // measure 47
10000000
00100000
10000000
00100000
01000000
00010000
01000000
00010000
,  // measure 48
00100000
00001000
01000000
00010000
00100000
00001000
00010000
00000000
,  // measure 49
00011000
00000000
00000100
00010100
00000000
00000000
00000000
00000000
,  // measure 50
00000110
00000000
00000001
00001001
00000000
00000000
00000000
00000000
,  // measure 51
00000011
00000000
00000100
00001100
00000000
00000000
00000000
00000000
,  // measure 52
00000110
00000000
00010000
00011000
00000000
00000000
00000000
00000000
,  // measure 53
00011000
00000000
01000000
01001000
00000000
00000000
00000000
00000000
,  // measure 54
01100000
00000000
10000000
10010000
00000000
00000000
00000000
00000000
,  // measure 55
10100000
00000000
01000000
01010000
00000000
00000000
00000000
00000000
,  // measure 56
00100000
01000000
00100000
01000000
00001000
00010000
00001000
00010000
,  // measure 57
00002000
01000000
00010000
01000000
,  // measure 58
00023000
00000100
00001000
00000100
,  // measure 59
00030020
00000100
00001000
00010030
,  // measure 60
00200000
01000000
00010000
00301000
,  // measure 61
00010000
00100000
00001000
01000000
00010000
10000000
01000000
00100000
,  // measure 62
00001000
00010000
00000010
00010000
00000100
00001000
00000001
00000010
,  // measure 63
00000100
00001000
00000100
00000000
00001000
00000000
00000100
00000000
00010000
00001000
00010000
00000000
00001000
00000000
00010000
00000000
,  // measure 64
00022000
00000000
00033000
00000000
,  // measure 65
00010000
00000000
00100000
00010000
00100000
00001000
00100000
00000000
,  // measure 66
00010000
00000000
01000000
00010000
10000000
00010000
10000000
00000000
,  // measure 67
00010000
01000000
00010000
10000000
00010000
00100000
00010000
00000000
,  // measure 68
10000000
01000000
00010000
00001000
00000010
00000001
00001000
00000000
,  // measure 69
00000100
00000000
00000010
00001000
00000010
00010000
00000010
00000000
,  // measure 70
00001000
00000000
00000100
00001000
00000001
00001000
00000001
00000000
,  // measure 71
00001000
00000100
00001000
00000001
00001000
00000010
00001000
00000000
,  // measure 72
00000001
00000100
00001000
00010000
00100000
10000000
00010000
01000000
,  // measure 73
10010000
00000000
00100000
00010000
10000000
00100000
00010000
00000000
,  // measure 74
00011000
00000000
00010000
00001000
00000100
00001000
00010000
00000000
,  // measure 75
00001010
00000000
00000100
00000001
00001000
00000100
00000001
00000000
,  // measure 76
00000011
00000000
00001000
00000010
00000001
00000100
00001000
00000000
,  // measure 77
00011000
00000000
00100000
00010000
00001000
00010000
00100000
01000000
,  // measure 78
10000000
00000000
00010000
00000000
01000000
00100000
10000000
00100000
,  // measure 79
01000000
00000000
00010000
01000000
00000000
00001000
00010000
00022000
,  // measure 80
00000000
00000000
00033000
00000000
,  // measure 81
00100000
00001000
01000000
00010000
10000000
00100000
01000000
00010000
,  // measure 82
10000000
01000000
00010000
01000000
00100000
00010000
00001000
00010000
,  // measure 83
00100000
01000000
00010000
00001000
00000100
00000001
00000010
00000100
,  // measure 84
00002000
00000000
00000000
00003010
00000000
00000000
00000002
00000000
00000000
00000103
00000000
00000000
00001000
00000000
00000100
00000000
00000001
00000000
00000010
00000000
00000001
00000000
00000100
00000000
,  // measure 85
00001000
00000100
00010000
00001000
00100000
01000000
00010000
10000000
,  // measure 86
01000000
00001000
00010000
00000010
00001000
00000001
00000100
00001000
,  // measure 87
00000001
00000010
00000001
00000100
00000010
00001000
00000010
00000100
,  // measure 88
00001000
00010000
00001000
00000100
00000002
00000000
00000203
00000000
,  // measure 89
00000301
00000100
00000010
00000100
00001000
00000100
00000010
00000100
,  // measure 90
00001000
01000000
00010000
01000000
00100000
01000000
10000000
01000000
,  // measure 91
00010000
10000000
00100000
10000000
00010000
10000000
01000000
10000000
,  // measure 92
00020000
00000000
00000000
01030000
00000000
00000000
20000000
00000000
00000000
30100000
00000000
00000000
10000000
00000000
01000000
00000000
00100000
00000000
00010000
00000000
00100000
00000000
01000000
00000000
,  // measure 93
10000000
01000000
00010000
01000000
10000000
00100000
00010000
00100000
,  // measure 94
10000000
00100000
00010000
00001000
00010000
00000010
00001000
00000010
,  // measure 95
00000001
00000000
00000001
00001000
00000000
00000001
00000100
00000020
,  // measure 96
00000000
00000000
00000000
00000000
00000000
00000000
00000000
00000000
00000130
00000010
00000100
00000010
00000100
00000000
00000000
00000000
,  // measure 97
00002002
00000000
00000000
00000000
,  // measure 98
00000000
00000000
00000000
00000000
,  // measure 99
00000000
00000000
00000000
00000000
,  // measure 100
00003003
00000000
00000000
00000000
;

//---------------dance-double - ----------------
#NOTES:
     dance-double:
     :
     Medium:
     10:
     0.387110,0.549277,0.270977,0.073237,0.000000,370.000000,333.000000,37.000000,10.000000,0.000000,0.000000,0.387110,0.549277,0.270977,0.073237,0.000000,370.000000,333.000000,37.000000,10.000000,0.000000,0.000000:
// measure 0
00000000
00000000
00000000
00000000
,  // measure 1
00000000
00000000
00000000
00000000
,  // measure 2
00000000
00000000
00000000
00000000
,  // measure 3
00000000
00000000
00000000
00000000
,  // measure 4
00000000
00000000
00000000
00000000
,  // measure 5
00000000
00000000
00000000
00000000
,  // measure 6
00000000
00000000
00000000
00000000
,  // measure 7
00000000
00000000
00000000
00000000
,  // measure 8
00000000
00000000
00000000
00000000
,  // measure 9
10000000
00000000
10000000
00000000
,  // measure 10
10000000
00000000
10000000
00000000
,  // measure 11
00010000
00000000
00010000
00000000
,  // measure 12
00010000
00000000
00010000
00000000
,  // measure 13
00001000
00000000
00001000
00000000
,  // measure 14
00001000
00000000
00001000
00000000
,  // measure 15
00000001
00000000
00000001
00000000
,  // measure 16
00000001
00000000
00000001
00000000
,  // measure 17
00000010
00000000
00000000
00000010
00000000
00000000
00000000
00000000
,  // measure 18
00000010
00000000
00000000
00000010
00000000
00000000
00000000
00000000
,  // measure 19
00000100
00000000
00000000
00000100
00000000
00000000
00000000
00000000
,  // measure 20
00000100
00000000
00000000
00000100
00000000
00000000
00000000
00000000
,  // measure 21
00001001
00000000
00000001
00000000
,  // measure 22
00001000
00000000
00010000
00000000
,  // measure 23
00011000
00000000
00001000
00000000
,  // measure 24
00010000
00000000
10000000
00000000
,  // measure 25
10010000
00000000
01100000
00000000
,  // measure 26
10010000
00000000
01100000
00000000
,  // measure 27
10010000
00000000
01010000
00000000
,  // measure 28
00011000
00000000
00001100
00000000
,  // measure 29
00000001
00000100
00000001
00000000
00000100
00001000
00000100
00000000
,  // measure 30
00001000
00000010
00001000
00000000
00000010
00000001
00000010
00000000
,  // measure 31
00000100
00000000
00000000
00000000
,  // measure 32
00000000
00000000
00000010
00000010
,  // measure 33
00001001
00000000
00000010
00000100
00000010
00000000
00000001
00000000
,  // measure 34
00000020
00001000
00000100
00001030
,  // measure 35
00000100
00000001
00000010
00000001
00000100
00000000
00001000
00000000
,  // measure 36
00010000
00001000
01000000
00100000
01000000
00000000
01100000
00000000
,  // measure 37
10010000
00000000
00100000
01000000
00100000
00000000
10000000
00000000
,  // measure 38
00200000
00010000
01000000
00310000
,  // measure 39
01000000
10000000
00100000
10000000
01000000
00000000
00010000
00000000
,  // measure 40
00010000
00001000
00000100
00000010
00000100
00000000
00000110
00000000
,  // measure 41
00000001
00000000
00001000
00001000
00001000
00000000
00000001
00000001
,  // measure 42
00000002
00000010
00001000
00000013
,  // measure 43
00000100
00000010
00000100
00000010
00000100
00000000
00001000
00000000
,  // measure 44
00010000
00100000
10000000
00100000
00010000
00000000
01100000
00000000
,  // measure 45
10000000
00000000
00010000
00010000
00010000
00000000
10000000
10000000
,  // measure 46
20000000
00100000
00010000
30100000
,  // measure 47
00010000
01000000
00010000
00000000
00100000
00001000
00100000
00000000
,  // measure 48
00010000
00001000
00010000
00001000
00010000
00000000
00001000
00000000
,  // measure 49
00011000
00000000
00000000
00011000
00000000
00000000
00000000
00000000
,  // measure 50
00001010
00000000
00000000
00001010
00000000
00000000
00000000
00000000
,  // measure 51
00000101
00000000
00000000
00000101
00000000
00000000
00000000
00000000
,  // measure 52
00001001
00000000
00000000
00001001
00000000
00000000
00000000
00000000
,  // measure 53
00011000
00000000
00000000
00011000
00000000
00000000
00000000
00000000
,  // measure 54
00110000
00000000
00000000
00110000
00000000
00000000
00000000
00000000
,  // measure 55
11000000
00000000
00000000
11000000
00000000
00000000
00000000
00000000
,  // measure 56
00100000
01000000
00100000
01000000
00100000
00000000
00010000
00000000
,  // measure 57
10010000
01000000
00100000
01000000
,  // measure 58
10000000
00010000
00100000
00001000
,  // measure 59
00010000
00000100
00001000
00000100
,  // measure 60
00000010
00000001
00000010
00000100
,  // measure 61
00001000
00000001
00000100
00000000
00000001
00001000
00000100
00000000
,  // measure 62
00000010
00000001
00001000
00000000
00000010
00001000
00000001
00000000
,  // measure 63
00000010
00000100
00001000
00000000
00000100
00001000
00010000
00000000
,  // measure 64
00011000
00000000
00000000
00000000
,  // measure 65
00110000
00010000
00100000
01000000
,  // measure 66
10000000
01000000
00100000
00010000
,  // measure 67
00001000
00010000
00100000
00001000
,  // measure 68
00010000
00001000
00000010
00000001
,  // measure 69
00000010
00000100
00001000
00000100
,  // measure 70
00000010
00000001
00000100
00000001
,  // measure 71
00000010
00000010
00001000
00001000
,  // measure 72
00010000
00010000
02000000
03000000
,  // measure 73
10000000
00100000
00010000
01000000
,  // measure 74
10000000
01000000
00010000
00001000
,  // measure 75
00000010
00000001
00000100
00001000
,  // measure 76
00000010
00000001
00000100
00001000
,  // measure 77
00000100
00000001
00000010
00000001
,  // measure 78
00000100
00001000
00000010
00001000
,  // measure 79
00001010
00000000
00000000
00000011
00000000
00000000
00001001
00002002
,  // measure 80
00000000
00000000
00003003
00000000
,  // measure 81
00001000
00000000
00000001
00000000
00001000
00000001
00000100
00000000
,  // measure 82
00000001
00000000
00001000
00000000
00000001
00001000
00000100
00000000
,  // measure 83
00010000
00000000
00000100
00000000
00010000
00001000
00000100
00000000
,  // measure 84
00001000
00000000
00100000
00000000
00010000
01000000
00010000
01000000
,  // measure 85
00010000
00000000
10000000
00000000
00010000
10000000
00100000
00000000
,  // measure 86
10000000
00000000
00010000
00000000
10000000
00010000
00100000
00000000
,  // measure 87
00100000
00000000
00001000
00000000
00100000
00010000
00001000
00000000
,  // measure 88
00010000
00000000
00000010
00000000
00010000
00001000
00010000
00001000
,  // measure 89
00010000
00000000
00000100
00000000
00010000
00001000
00010000
00000000
,  // measure 90
00000010
00000000
00001000
00000000
00000001
00000100
00000001
00000000
,  // measure 91
00001000
00000100
00010000
00000010
,  // measure 92
00001000
00000000
00000100
00000000
00000010
00000001
00000010
00000001
,  // measure 93
00000010
00001000
00010000
01000000
,  // measure 94
10000000
00000000
01000000
00000000
00100000
00000000
01000000
10000000
,  // measure 95
00010000
00000000
00000000
00100000
00000000
00000000
00010000
00020000
,  // measure 96
00000000
00000000
00031000
00001000
,  // measure 97
00020200
00000000
00000000
00000000
,  // measure 98
00000000
00000000
00000000
00000000
,  // measure 99
00000000
00000000
00000000
00000000
,  // measure 100
00030300
00000000
00000000
00000000
;
