#TITLE:エスケープ;
#SUBTITLE:;
#ARTIST:八王子P feat. 巡音ルカ;
#TITLETRANSLIT:Escape;
#SUBTITLETRANSLIT:;
#ARTISTTRANSLIT:8#Prince feat. Megurine Luka;
#GENRE:J-Music;
#CREDIT:;
#BANNER:Escape.png;
#BACKGROUND:Escape-bg.png;
#LYRICSPATH:;
#CDTITLE:../cdtitle.png;
#MUSIC:Escape.ogg;
#OFFSET:1.316000;
#SAMPLESTART:73.669998;
#SAMPLELENGTH:15.000000;
#LASTBEATHINT:0.958533;
#SELECTABLE:YES;
#BPMS:0.000000=182.000000
;
#STOPS:
;
#BGCHANGES:-99.000=../bg.avi=1.000=0=0=1=====,
99999=-nosongbg-=1.000=0=0=0 // don't automatically add -songbackground-
;
#KEYSOUNDS:;
#ATTACKS:;

//---------------dance-single - ----------------
#NOTES:
     dance-single:
     :
     Beginner:
     4:
     0.165642,0.287846,0.072975,0.000000,0.000000,143.000000,134.000000,9.000000,0.000000,0.000000,0.000000,0.165642,0.287846,0.072975,0.000000,0.000000,143.000000,134.000000,9.000000,0.000000,0.000000,0.000000:
0000
0000
0000
0000
,
0000
0000
0000
0000
,
0000
0000
0000
0000
,
0000
0000
0000
0000
,
0000
0000
0000
0000
,
0000
0000
0000
0000
,
0000
0000
0000
0000
,
0000
0000
0000
0000
,
0000
0000
0000
0000
,
1000
0000
0000
0000
,
0000
0000
0000
0000
,
0000
0000
0000
0000
,
0000
0000
0000
0000
,
0001
0000
0000
0000
,
0000
0000
0000
0000
,
0000
0000
0000
0000
,
0000
0000
0000
0000
,
0010
0000
0000
0000
,
0000
0000
0000
0000
,
0000
0000
0000
0000
,
0000
0000
0000
0000
,
0100
0000
0000
0000
,
0000
0000
0000
0000
,
0100
0000
0000
0000
,
0000
0000
0000
0000
,
1000
0000
0001
0000
,
1000
0000
1000
0000
,
0001
0000
1000
0000
,
0001
0000
0001
0000
,
0010
0000
0010
0000
,
0100
0000
0100
0000
,
0001
0000
0001
0000
,
1000
0000
1000
0000
,
0100
0000
0000
0010
,
0010
0000
0010
0000
,
0001
0000
0100
0000
,
1000
0000
0010
0000
,
1000
0000
1000
0000
,
0001
0000
0001
0000
,
0100
0000
0000
0000
,
0010
0000
0000
0000
,
1001
0000
0001
0000
,
1000
0000
0001
0000
,
0100
0000
0010
0000
,
0100
0000
0010
0000
,
1000
1000
1000
0000
,
0001
0001
0001
0000
,
1000
1000
1000
0000
,
1000
1000
1000
0000
,
0001
0000
0001
0000
,
1000
0000
1000
0000
,
0001
0000
0001
0000
,
1000
0000
1000
0000
,
0010
0010
0010
0000
,
0010
0010
0010
0000
,
0100
0100
0100
0100
,
0100
0000
0000
0000
,
1001
0000
0000
0000
,
0110
0000
0000
0000
,
1001
0000
0000
0000
,
0010
0000
0000
0000
,
1001
0000
0000
0000
,
0110
0000
0000
0000
,
1001
0000
0000
0000
,
0100
0000
0000
0000
,
0110
0000
0000
0000
,
0100
0000
0100
0000
,
1000
0000
1000
0000
,
0001
0000
0001
0000
,
0010
0010
0010
0000
,
0100
0100
0100
0000
,
1000
0000
0000
0000
,
1001
0000
0000
0000
,
0001
0000
0001
0000
,
0010
0000
0010
0000
,
1000
0000
1000
0000
,
0100
0000
0100
0000
,
0001
0001
0001
0000
,
0001
0001
0001
0000
,
1000
1000
1000
0000
,
1000
1000
1000
0000
,
0100
0000
0000
0100
,
0100
0000
0100
0000
,
0001
0000
1000
0000
,
0001
0000
1000
0000
,
0010
0000
1000
0000
,
0100
0000
0100
0000
,
0001
0000
0001
0000
,
0100
0000
1000
1000
;

//---------------dance-single - ----------------
#NOTES:
     dance-single:
     :
     Easy:
     8:
     0.289583,0.467749,0.154058,0.089192,0.000000,250.000000,231.000000,19.000000,11.000000,0.000000,0.000000,0.289583,0.467749,0.154058,0.089192,0.000000,250.000000,231.000000,19.000000,11.000000,0.000000,0.000000:
0000
0000
0000
0000
,
0000
0000
0000
0000
,
0000
0000
0000
0000
,
0000
0000
0000
0000
,
0000
0000
0000
0000
,
0000
0000
0000
0000
,
0000
0000
0000
0000
,
0000
0000
0000
0000
,
0000
0000
0000
0000
,
0002
0000
0000
0000
,
0000
0000
0003
0000
,
2000
0000
0000
0000
,
0000
0000
3000
0000
,
0020
0000
0000
0000
,
0000
0000
0030
0000
,
0200
0000
0000
0000
,
0000
0000
0300
0000
,
1000
0000
1000
0000
,
1000
0000
1000
0000
,
0001
0000
0001
0000
,
0001
0000
0001
0000
,
0100
0000
0100
0000
,
0100
0000
0100
0000
,
0200
0000
0300
0000
,
0020
0000
0030
0000
,
1001
0000
1000
0000
,
0001
0000
0001
0000
,
0100
1000
0100
0000
,
0010
0001
0010
0000
,
1000
0100
0001
0010
,
1000
0010
0001
1000
,
0001
0100
1000
0100
,
0001
0100
1000
0100
,
0020
0000
0000
0130
,
1001
0000
0001
0001
,
1000
0010
0001
0010
,
0001
0001
1000
1000
,
0100
0000
0010
0000
,
1000
1000
0001
0001
,
0010
0010
0010
0010
,
0020
0000
0100
0130
,
1001
0100
1000
0100
,
0001
0100
0001
1000
,
0010
0010
0100
0100
,
0001
0001
1000
1000
,
1000
0010
0001
0010
,
1000
0010
1000
0001
,
0100
0100
0010
0010
,
1000
1000
0001
0001
,
0010
0100
0010
0000
,
1000
0100
0001
0100
,
0001
0010
0001
0010
,
0100
1000
0100
1000
,
1001
0000
0000
0000
,
0110
0000
0000
0000
,
1001
0110
1001
0110
,
1001
0000
0000
0000
,
1001
0000
0010
0000
0010
0010
0010
0000
,
1001
0000
0100
0000
0100
0100
0100
0000
,
0001
1000
0001
0001
,
0100
1000
0010
0001
,
0110
0000
1000
0000
0001
0001
0001
0000
,
0110
0000
0001
0000
1000
1000
1000
0000
,
0010
0001
0100
1000
,
0001
0000
0001
0000
,
2000
0000
0000
3100
,
1001
0000
0100
0000
0000
0010
0010
0000
,
0001
0100
1000
0100
,
0100
0000
0010
0000
,
0110
0000
0100
0000
,
1001
0000
0100
0000
,
0010
0010
0010
0010
,
0100
0000
0000
0000
,
1001
0000
0001
0000
,
1000
0000
1000
0000
,
0010
0001
0010
0000
,
0100
1000
0100
0000
,
0001
0010
1000
0100
,
0001
0100
1000
0001
,
1000
0010
0001
0010
,
1000
0010
0001
0010
,
0200
0000
0000
0310
,
1001
0000
1000
1000
,
0001
0100
1000
0100
,
1000
1000
0001
0001
,
0010
0000
0100
0000
,
0001
0001
1000
1000
,
0100
0100
0100
0100
,
0200
0000
0010
0310
;

//---------------dance-single - ----------------
#NOTES:
     dance-single:
     :
     Challenge:
     17:
     0.809674,1.008878,0.567583,0.186492,0.474337,699.000000,629.000000,70.000000,23.000000,36.000000,0.000000,0.809674,1.008878,0.567583,0.186492,0.474337,699.000000,629.000000,70.000000,23.000000,36.000000,0.000000:
// measure 0
0000
0000
0000
0000
,  // measure 1
0000
0000
0000
0000
,  // measure 2
0000
0000
0000
0000
,  // measure 3
0000
0000
0000
0000
,  // measure 4
0000
0000
0000
0000
,  // measure 5
0000
0000
0000
0000
,  // measure 6
0000
0000
0000
0000
,  // measure 7
0000
0000
0000
0000
,  // measure 8
0000
0000
0000
0000
,  // measure 9
2002
0000
0000
0000
,  // measure 10
0000
0003
0200
3000
,  // measure 11
0002
0000
0000
0300
,  // measure 12
2000
0003
0020
3000
,  // measure 13
0002
0000
0000
0000
,  // measure 14
0000
0030
0200
0003
,  // measure 15
0020
0000
0000
0300
,  // measure 16
2000
0030
3001
MMMM
,  // measure 17
1000
0100
1000
0000
0001
0100
0001
0000
,  // measure 18
1000
0010
1000
0000
0001
0010
0001
0000
,  // measure 19
1000
0100
1100
0000
0001
0010
0011
0000
,  // measure 20
1000
0010
1010
0000
0001
0100
0101
0000
,  // measure 21
1000
0010
0100
0001
1000
0010
0100
0001
,  // measure 22
0001
0010
0100
1000
0001
0010
0100
1000
,  // measure 23
0020
0000
0000
0000
,  // measure 24
0230
0000
0000
0000
0000
0000
0000
0000
0310
0000
0100
0010
0100
0010
0100
0000
,  // measure 25
1001
0000
0100
0000
0001
0000
1000
0100
1000
0100
1000
0000
0001
0000
0010
0000
,  // measure 26
0001
0100
0001
0000
1000
0000
0010
1000
0001
0010
0001
0000
0100
0000
0010
0000
,  // measure 27
1000
0000
0100
0000
0010
0000
0001
0010
0100
1000
0001
0000
0010
0000
0100
0000
,  // measure 28
1000
0010
0100
0000
0010
0000
0100
0001
0100
0001
0100
0000
0001
0000
0010
0000
,  // measure 29
0011
0000
0001
0000
1000
0000
0100
1000
0100
0010
0001
0000
0100
0000
0010
0000
,  // measure 30
0100
1000
0100
0000
0100
0000
0001
0100
0010
0100
0001
0000
0010
0000
0010
0000
,  // measure 31
0100
0001
0100
0000
1000
0000
0001
0100
0001
1000
0001
0000
1000
0000
0001
0000
,  // measure 32
0010
0000
0100
0000
1000
0000
0010
0100
0001
0100
0001
0000
0010
0000
0100
0000
,  // measure 33
1000
0100
1000
0100
0010
0001
0010
0001
1000
0010
0100
0001
0010
0000
MMMM
0000
,  // measure 34
1001
0000
0010
0000
1000
0000
0001
0010
0001
0000
1000
0000
0100
0010
0001
0000
,  // measure 35
0100
0001
0100
0000
0100
0000
1000
0010
1000
0000
0010
0000
0010
0001
0100
0000
,  // measure 36
0100
0001
0010
0000
0010
0000
1000
0010
1000
0010
1000
0000
0100
0000
0100
0000
,  // measure 37
0100
0000
0010
0000
0001
0000
1000
0100
0001
0100
1000
0000
0010
0000
0010
0000
,  // measure 38
0010
0000
0100
0000
1000
0000
0001
0010
1000
0010
0001
0000
0100
0000
0100
0000
,  // measure 39
1010
1010
0011
0011
0110
1001
1100
0101
,  // measure 40
0220
0000
0330
MMMM
,  // measure 41
1001
0000
0110
0000
0001
1000
0110
0000
,  // measure 42
1000
0000
0000
0000
1100
0000
0000
1000
0001
0000
0100
0000
0101
0000
0000
0000
,  // measure 43
0001
0100
0110
1000
0100
0010
0110
0000
,  // measure 44
0101
0000
0100
0000
1000
0000
0001
0000
0010
0100
1000
0000
0001
0000
0000
0000
,  // measure 45
1000
0000
0110
0000
1000
0001
0110
0000
,  // measure 46
0001
0000
0000
0000
0011
0000
0000
0001
1000
0000
0010
0000
1010
0000
0000
0000
,  // measure 47
1000
0010
0110
0001
0010
0100
0110
0000
,  // measure 48
1010
0000
0010
0000
0001
0000
1000
0000
0100
0010
0001
0000
1000
0000
1000
0000
,  // measure 49
0101
0000
0000
0000
0110
0000
0000
0000
0010
1000
0010
0000
0100
0000
0000
0000
,  // measure 50
1010
0000
1000
0000
0100
0000
0000
0000
0010
0001
0010
0000
0100
0000
0000
0000
,  // measure 51
0001
0010
0100
0010
1000
0010
0100
0010
,  // measure 52
0001
0100
0010
0100
1000
0100
0010
0100
,  // measure 53
1010
0000
1000
0000
0100
0000
0001
0000
1000
0000
0010
0001
0010
0000
0001
0000
,  // measure 54
0011
0000
0001
0000
0100
0000
1000
0000
0001
0000
0010
1000
0010
0000
1000
0000
,  // measure 55
0010
0010
0001
0001
0100
0100
1000
1000
,  // measure 56
0220
0000
0330
MMMM
,  // measure 57
1001
0000
0100
0000
0001
0000
1000
0010
1000
0010
2000
0000
3001
0000
0000
0000
,  // measure 58
0110
0000
0100
0000
1000
0000
0001
0010
0001
0010
0002
0000
1003
0000
0000
0000
,  // measure 59
1010
1000
1100
0000
0011
0001
0101
0000
,  // measure 60
1100
0000
0010
0000
0001
0000
0010
0100
1000
0100
1000
0000
0010
0000
MMMM
0000
,  // measure 61
0110
0000
1000
0000
0100
0000
0010
0001
0010
0001
0020
0000
0130
0000
0000
0000
,  // measure 62
1001
0000
1000
0000
0010
0000
0100
0001
0100
0001
0200
0000
0310
0000
0000
0000
,  // measure 63
0011
0010
1010
0000
0101
0100
1100
0000
,  // measure 64
0011
0000
0100
0000
1000
0000
0100
0010
0001
0010
0001
0000
0100
0000
0001
0000
,  // measure 65
0010
0100
1000
0010
0100
0001
0010
0100
1000
0010
0100
0001
0010
0000
MMMM
0000
,  // measure 66
1001
0000
0001
0000
0010
0000
0100
1000
0001
1000
0100
0000
0010
0000
0000
0000
,  // measure 67
0001
0010
0001
0000
1000
0000
0010
1000
0001
0010
0001
0000
1000
0010
1000
0000
,  // measure 68
0001
0100
0001
0000
1000
0000
0010
0000
1000
0000
0100
0000
1000
0000
0001
0000
,  // measure 69
0110
0000
0001
0000
0010
0000
0100
0000
1000
0100
0010
0001
0010
0100
1000
0000
,  // measure 70
0110
0000
1000
0000
0010
0000
0100
0000
0001
0100
0010
1000
0010
0100
0001
0000
,  // measure 71
1001
0100
0100
0100
1001
0100
0100
0100
,  // measure 72
0220
0000
0330
MMMM
,  // measure 73
1001
0000
0010
0000
1000
0000
0001
0010
0001
0010
0001
0000
1000
0000
0100
0000
,  // measure 74
1000
0010
1000
0000
0001
0000
0100
0001
1000
0100
1000
0000
0010
0000
0100
0000
,  // measure 75
0001
0000
0010
0000
0100
0000
1000
0100
0010
0001
1000
0000
0100
0000
0010
0000
,  // measure 76
0001
0100
0010
0000
0100
0000
0010
1000
0010
1000
0010
0000
1000
0000
0100
0000
,  // measure 77
1100
0000
1000
0000
0001
0000
0010
0001
0010
0100
1000
0000
0010
0000
0100
0000
,  // measure 78
0010
0001
0010
0000
0010
0000
1000
0010
0100
0010
1000
0000
0100
0000
0100
0000
,  // measure 79
0010
1000
0010
0000
0001
0000
1000
0010
1000
0001
1000
0000
0001
0000
1000
0000
,  // measure 80
0100
0000
0010
0000
0001
0000
0100
0010
1000
0010
1000
0000
0100
0000
0010
0000
,  // measure 81
0001
0010
0001
0010
0100
1000
0100
1000
0001
0100
0010
1000
0100
0000
MMMM
0000
,  // measure 82
1001
0000
0100
0000
0001
0000
1000
0100
1000
0000
0001
0000
0010
0100
1000
0000
,  // measure 83
0010
1000
0010
0000
0010
0000
0001
0100
0001
0000
0100
0000
0100
1000
0010
0000
,  // measure 84
0010
1000
0100
0000
0100
0000
0001
0100
0001
0100
0001
0000
0010
0000
0010
0000
,  // measure 85
0010
0000
0100
0000
1000
0000
0001
0010
1000
0010
0001
0000
0100
0000
0100
0000
,  // measure 86
0100
0000
0010
0000
0001
0000
1000
0100
0001
0100
1000
0000
0010
0000
0010
0000
,  // measure 87
0101
0101
1100
1100
0110
1001
0011
1010
,  // measure 88
0120
0000
0130
MMMM
0001
0010
0100
1000
;

//---------------dance-single - ----------------
#NOTES:
     dance-single:
     :
     Medium:
     11:
     0.427425,0.611672,0.178383,0.113517,0.000000,369.000000,347.000000,22.000000,14.000000,0.000000,0.000000,0.427425,0.611672,0.178383,0.113517,0.000000,369.000000,347.000000,22.000000,14.000000,0.000000,0.000000:
0000
0000
0000
0000
,
0000
0000
0000
0000
,
0000
0000
0000
0000
,
0000
0000
0000
0000
,
0000
0000
0000
0000
,
0000
0000
0000
0000
,
0000
0000
0000
0000
,
0000
0000
0000
0000
,
0000
0000
0000
0000
,
0200
0000
0000
0000
,
0320
0000
0000
0000
,
2030
0000
0000
0000
,
3002
0000
0000
0000
,
0203
0000
0000
0000
,
2300
0000
0000
0000
,
3020
0000
0000
0000
,
0032
0000
0000
0000
,
1003
0100
1000
0100
,
0001
0100
0001
0100
,
1000
0010
1000
0010
,
0001
0010
0001
0010
,
1000
0100
0001
0100
,
1000
0010
0001
0010
,
0100
0000
0000
0000
,
0200
0000
0000
0000
0310
0100
0010
0000
,
1001
0000
0100
0000
0001
0100
0001
0000
,
1000
0000
0100
0000
1000
0100
1000
0000
,
0010
0100
0001
0010
,
1000
0001
1000
0000
0001
1000
0001
0000
,
1000
0000
0010
0000
1000
0010
1000
0000
,
0001
0000
0010
0000
0001
0010
0001
0000
,
0100
0010
1000
0100
,
0001
1000
0001
0000
1000
0001
1000
0000
,
0002
0000
0000
0103
,
1001
0000
0010
0100
0010
0000
0001
0000
,
0100
1000
0010
1000
,
0100
0001
0100
0001
,
0001
0000
0100
0000
1000
0001
0100
0000
,
1000
0000
0100
0001
0000
0001
0100
0000
,
0001
0010
0001
0000
1000
0010
1000
0000
,
0200
0000
0300
0000
,
0011
0000
0001
0000
0000
0100
0001
0000
,
0010
0000
1000
0000
0000
0100
1000
0000
,
0010
0001
0100
0001
,
1000
0000
0010
1000
0000
1000
0010
0000
,
1100
0000
1000
0000
0000
0010
1000
0000
,
0100
0000
0001
0000
0000
0010
0001
0000
,
0100
1000
0010
1000
,
0001
0000
0100
0001
0000
0001
0100
0001
,
0100
0000
1100
0000
0100
1000
0001
0000
,
0100
0000
0010
0001
0100
0001
0010
0000
,
1000
0100
0001
0100
,
1000
0000
0001
1000
0000
1000
0001
0000
,
0011
0000
1000
0000
0001
0010
1000
0000
,
1100
0000
0001
0000
1000
0100
0001
0000
,
0001
0010
0100
1000
1000
0010
0100
0001
,
2000
0000
3000
0000
,
0101
0000
1000
0001
0100
0001
1000
0000
,
1100
0000
0001
1000
0100
1000
0001
0000
,
0010
1000
0010
0000
1000
0100
1000
0000
,
0100
0001
0100
0000
0001
0010
0001
0000
,
1010
0000
0001
1000
0010
1000
0001
0000
,
0011
0000
1000
0001
0010
0001
1000
0000
,
0100
0001
0100
0000
0001
0010
0001
0000
,
0010
1000
0010
0000
1000
0100
1000
0000
,
0001
0010
0001
1000
0010
1000
0110
0000
,
1001
0000
0001
0010
0100
0010
0001
0000
,
0100
0010
0100
0000
0100
0001
0100
0000
,
0100
1000
0100
0000
0100
0001
0100
0000
,
1001
0000
0100
0010
0100
0010
0100
0000
,
1001
0000
0010
0100
0010
0100
0010
0000
,
1010
0011
1100
0101
,
0110
0000
0000
0000
,
1001
0000
0010
0000
1000
0010
1000
0000
,
0001
0000
0010
0000
0001
0010
0001
0000
,
0100
0010
1000
0100
,
0001
1000
0001
0000
1000
0001
1000
0000
,
0001
0000
0100
0000
0001
0100
0001
0000
,
1000
0000
0100
0000
1000
0100
1000
0000
,
0010
0100
0001
0010
,
1000
0001
1000
0000
0001
1000
0001
0000
,
2000
0000
0000
3010
,
1001
0000
0100
0010
0100
0000
1000
0000
,
0010
0001
0100
0001
,
0010
1000
0010
1000
,
1000
0000
0010
0000
0001
1000
0010
0000
,
0001
0000
0010
1000
0000
1000
0010
0000
,
1000
0100
1000
0000
0001
0100
0001
0000
,
0020
0000
1000
1030
;

//---------------dance-single - ----------------
#NOTES:
     dance-single:
     :
     Hard:
     14:
     0.582641,0.719614,0.275683,0.137842,0.085137,503.000000,469.000000,34.000000,17.000000,0.000000,0.000000,0.582641,0.719614,0.275683,0.137842,0.085137,503.000000,469.000000,34.000000,17.000000,0.000000,0.000000:
0000
0000
0000
0000
,
0000
0000
0000
0000
,
0000
0000
0000
0000
,
0000
0000
0000
0000
,
0000
0000
0000
0000
,
0000
0000
0000
0000
,
0000
0000
0000
0000
,
0000
0000
0000
0000
,
0000
0000
0000
0000
,
0210
0000
0000
0000
,
0000
0000
0302
0000
,
0023
0000
0000
0000
,
0230
0000
2300
0000
,
3020
0000
0000
0000
,
0000
0000
0230
0000
,
0302
0000
0000
0000
,
2003
0000
3002
0000
,
0013
0000
0001
0000
0010
0001
0010
0000
,
1000
0000
0010
0000
1000
0010
1000
0000
,
0001
0000
0100
0000
0001
0100
0001
0000
,
1000
0000
0100
0000
1000
0100
1000
0000
,
0001
0010
1000
0010
,
0001
0100
1000
0100
,
0010
0000
0000
0000
,
0020
0000
0000
0000
0100
0100
0130
0000
,
1001
0000
0000
0000
1000
0000
0000
0010
0100
0000
0001
0000
1000
0000
0000
0000
,
0001
0000
0010
0000
0100
0000
0000
1000
0010
0000
0100
0000
0001
0000
0000
0000
,
1000
0001
1000
0100
1000
0001
1000
0000
,
0001
1000
0001
0010
0001
1000
0001
0000
,
0100
0000
0000
0000
1000
0000
0000
1000
0100
0000
0010
0000
0001
0000
0000
0000
,
1000
0000
0100
0000
0010
0000
0000
0001
0100
0000
0001
0000
1000
0000
0000
0000
,
0001
1000
0001
0010
0001
1000
0001
0000
,
1000
0001
1000
0100
1000
0001
1000
0000
,
0010
0100
0001
0010
0100
1000
0110
0000
,
1001
0100
0001
1000
0100
0000
1001
0000
,
0100
0000
1000
0000
0010
0000
0000
0010
0001
0000
0010
0000
0001
0000
0000
0000
,
0100
0000
0001
0000
0010
0000
0000
0010
1000
0000
0010
0000
1000
0000
1000
0000
,
1000
0000
0100
0000
0001
0000
0000
0001
1000
0000
0001
0000
1000
0000
0000
0000
,
0001
0000
0100
0000
1000
0000
0000
1000
0001
0000
1000
0000
0001
0000
0000
0000
,
0001
0010
0100
1000
0001
0010
0100
1000
,
0202
0000
0303
0000
,
1100
0000
0001
0000
0100
0001
1000
0000
,
0010
0000
0010
0001
1000
0010
0001
0000
,
0100
0001
0100
0001
1000
0010
1000
0010
,
1000
0100
0010
0001
0100
0100
1000
0000
,
0011
0000
1000
0000
0010
1000
0001
0000
,
0100
0000
0100
1000
0001
0100
1000
0000
,
0010
1000
0010
1000
0001
0100
0001
0100
,
0001
0010
0100
1000
0010
0010
0001
0001
,
0110
0000
0000
0000
1001
0000
0000
1000
0001
0000
0100
0000
0001
0000
0000
0000
,
0001
1000
0010
1000
0100
0001
0100
0000
,
0001
0100
0001
0100
1000
0100
1000
0100
,
0001
0010
0100
1000
0010
0100
0100
0000
,
1010
0100
0001
0010
1000
0100
0001
0000
,
0101
0010
1000
0100
0001
0010
1000
0000
,
0100
0100
0100
0100
0010
0010
0010
0010
,
0020
0000
0030
0000
,
1010
0000
1000
0000
0001
0000
0100
0001
0100
0000
0001
0000
1000
0000
0000
0000
,
0011
0000
0001
0000
1000
0000
0100
1000
0100
0000
1000
0000
0001
0000
0000
0000
,
0100
1000
0101
0000
0100
0001
1100
0000
,
0010
0001
1010
0000
0010
1000
0011
0000
,
0101
0000
0001
0000
1000
0000
0010
1000
0010
0000
1000
0000
0001
0000
0000
0000
,
1100
0000
1000
0000
0001
0000
0010
0001
0010
0000
0001
0000
1000
0000
0000
0000
,
0010
0001
1010
0000
0010
1000
0011
0000
,
0100
1000
0101
0000
0100
0001
1100
0000
,
0001
0010
0100
1000
0010
0100
1001
0000
,
0110
0001
1000
0100
0010
0001
1000
0000
,
0010
0100
0001
0010
0100
1000
0010
0100
,
0001
0010
0001
0010
0100
1000
0100
0000
,
1001
0100
0010
0001
0100
0010
1000
0100
,
1001
0100
0010
0001
0100
0010
0100
0010
,
1000
1000
0100
0100
0001
0001
0010
0010
,
0220
0000
0330
0000
,
1001
0000
0000
0000
0001
0000
0000
0100
0010
0000
1000
0000
0001
0000
0000
0000
,
1000
0000
0100
0000
0010
0000
0000
0001
0100
0000
0010
0000
1000
0000
0000
0000
,
0001
1000
0001
0010
0001
1000
0001
0000
,
1000
0001
1000
0100
1000
0001
1000
0000
,
0010
0000
0000
0000
0001
0000
0000
0001
0010
0000
0100
0000
1000
0000
0000
0000
,
0001
0000
0010
0000
0100
0000
0000
1000
0010
0000
1000
0000
0001
0000
0000
0000
,
1000
0001
1000
0100
1000
0001
1000
0000
,
0001
1000
0001
0010
0001
1000
0001
0000
,
0010
0100
1000
0010
0100
0001
0110
0000
,
1001
0010
1000
0001
0010
0000
1001
0000
,
0010
0000
0001
0000
0100
0000
0000
0100
1000
0000
0100
0000
1000
0000
0000
0000
,
0010
0000
1000
0000
0100
0000
0000
0100
0001
0000
0100
0000
0001
0000
0001
0000
,
0001
0000
0010
0000
1000
0000
0000
1000
0001
0000
1000
0000
0001
0000
0000
0000
,
1000
0000
0010
0000
0001
0000
0000
0001
1000
0000
0001
0000
1000
0000
0000
0000
,
1000
0010
0100
0001
1000
0010
0100
0001
,
2100
0000
0001
3001
;

//---------------dance-double - ----------------
#NOTES:
     dance-double:
     :
     Challenge:
     18:
     0.810833,1.080941,0.478391,0.186492,0.502716,700.000000,641.000000,59.000000,23.000000,88.000000,0.000000,0.810833,1.080941,0.478391,0.186492,0.502716,700.000000,641.000000,59.000000,23.000000,88.000000,0.000000:
00000000
00000000
00000000
00000000
,
00000000
00000000
00000000
00000000
,
00000000
00000000
00000000
00000000
,
00000000
00000000
00000000
00000000
,
00000000
00000000
00000000
00000000
,
00000000
00000000
00000000
00000000
,
00000000
00000000
00000000
00000000
,
00000000
00000000
00000000
00000000
,
00000000
00000000
00000000
00000000
,
20020000
00000000
00000000
00000000
,
00000000
00030000
02000000
30000000
,
00020000
00000000
00000000
03000000
,
00002000
00030000
00000020
00003000
,
00000002
00000000
00000000
00000000
,
00000000
00000030
00000200
00000003
,
00002000
00000000
00000000
00000300
,
00020000
00003000
00031000
MMMMMMMM
,
00010000
00000000
00100000
00000000
10000000
01000000
00010000
00000000
,
00001000
00000000
00000010
00000000
00000001
00000100
00001000
00000000
,
00010000
00100000
10100000
00000000
10000000
01000000
01010000
00000000
,
00001000
00000100
00000101
00000000
00000001
00000010
00001010
00000000
,
00000001
00000010
00000100
00001000
00010000
00100000
01000000
10000000
,
10000000
00100000
01000000
00010000
00001000
00000010
00000100
00000001
,
00000020
00000000
00000000
00000000
,
00000230
00000000
00000000
00000000
00000000
00000000
00000000
00000000
00000310
00000000
00000100
00000010
00000100
00000010
00000100
00000000
,
00001001
00000000
00000010
00000000
00001000
00000000
00000001
00000100
00000001
00000100
00000001
00000000
00001000
00000100
00001000
00000000
,
00000010
00010000
00000010
00000000
00001000
00000100
00010000
00001000
00010000
00000000
00001000
00000000
00100000
00000000
00010000
00000000
,
10000000
01000000
00010000
00000000
01000000
00000000
10000000
00100000
00010000
00000000
00100000
00000000
10000000
00000000
01000000
00000000
,
00100000
00010000
00100000
00000000
00001000
00000000
00100000
01000000
10000000
00000000
10000000
00000000
00010000
00000000
00010000
00000000
,
01000000
00000000
01000000
00000000
00100000
00000000
00100000
00010000
00001000
00010000
00001000
00000000
00000010
00001000
00010000
00000000
,
00001000
00010000
01000000
00000000
00010000
00000000
00001000
00000100
00001000
00000000
00010000
00000000
00000010
00001000
00000100
00000000
,
00000010
00000001
00000100
00000000
00000010
00000000
00001000
00000100
00000010
00000001
00000100
00000000
00000010
00000100
00000010
00000000
,
00010000
00001000
00010000
00000000
00001000
00000000
00000010
00000001
00001000
00000001
00001000
00000000
00000010
00000000
00001000
00000000
,
00000001
00000010
00000100
00001000
00010000
00100000
01000000
10000000
00010000
01000000
00100000
10000000
01000000
00000000
MMMMMMMM
00000000
,
10010000
00000000
01000000
00000000
10000000
00000000
00100000
00010000
00100000
00000000
10000000
00000000
01000000
00010000
01000000
00000000
,
00100000
00000000
00001000
00000000
00010000
00000000
00100000
00010000
00001000
00000010
00001000
00000000
00010000
00000000
00100000
00000000
,
00010000
00001000
00000100
00000000
00001000
00000000
00010000
01000000
00010000
00001000
00000100
00000000
00001000
00000000
00000100
00000000
,
00000001
00000010
00000001
00000000
00000100
00000000
00000010
00001000
00010000
01000000
10000000
00000000
00010000
00000000
00100000
00000000
,
10000000
00100000
10000000
00100000
10000000
00000000
00010000
00100000
00010000
00100000
00010000
00000000
00100000
00000000
01000000
00000000
,
10010000
10010000
00101000
00101000
00010100
00010100
00001001
00001001
,
00000022
00000000
00000033
MMMMMMMM
,
00001001
00000000
00000110
00000000
00001000
00000001
00000110
00000000
,
00001000
00000000
00000100
00000000
00011000
00000000
00000000
00010000
00001000
00010000
00001000
00000000
01000000
00000000
00000000
00000000
,
00010000
00100000
01000000
10000000
10000000
01000000
00100000
00010000
,
00001000
00010000
00100000
01000000
10000000
00100000
01000000
MMMMMMMM
,
10010000
00000000
01100000
00000000
00010000
10000000
01100000
00000000
,
00010000
00000000
01000000
00000000
00011000
00000000
00000000
00001000
00010000
00001000
00010000
00000000
00000100
00000000
00000000
00000000
,
00001000
00000100
00000010
00000001
00000001
00000010
00000100
00001000
,
00010000
00001000
00000100
00000010
00000001
00000100
00000100
00000100
,
MMMMMMMM
00000000
00001001
00000000
00000001
00001000
00000100
00000000
,
00000010
00000000
00000001
00000000
00001000
00000000
00000100
00010000
00001000
00010000
00000100
00000000
00010000
00000000
00000000
00000000
,
01000000
10000000
00010000
00100000
01000000
10000000
00010000
00100000
,
10000000
00010000
01000000
10000000
00010000
00100000
00001000
00010000
,
00011000
00000000
00000100
00000000
00000001
00000000
00000010
00000000
00001000
00000000
00010000
00001000
00010000
00000000
01000000
00000000
,
10010000
00000000
10000000
00000000
00100000
00000000
00010000
00000000
00001000
00000000
00000100
00000001
00000100
00000000
00000001
00000000
,
00000011
00001000
00001100
00010000
00011000
00100000
00110000
10000000
,
22000000
00000000
33000000
MMMMMMMM
,
01100000
00000000
00010000
00000000
01000000
00000000
00100000
10000000
00100000
10000000
00200000
00000000
01300000
00000000
00000000
00000000
,
10010000
00000000
10000000
00000000
01000000
00000000
00100000
00010000
00100000
00010000
00200000
00000000
01300000
00000000
00000000
00000000
,
00010000
00100000
10000000
01000000
00010000
00100000
00110000
00000000
,
00001000
00000000
00000100
00000000
00000001
00000000
00000010
00001000
00000001
00000000
00000100
00000000
00001010
00000000
MMMMMMMM
00000000
,
00000110
00000000
00001000
00000000
00000100
00000000
00000010
00000001
00000010
00000001
00000020
00000000
00000130
00000000
00000000
00000000
,
00001001
00000000
00000001
00000000
00000100
00000000
00000010
00001000
00000010
00001000
00000020
00000000
00000130
00000000
00000000
00000000
,
00001000
00000100
00000001
00000010
00001000
00000100
00001100
00000000
,
00010000
00000000
00100000
00000000
10000000
00000000
01000000
00010000
10000000
00000000
00100000
00000000
01010000
00000000
01000000
00000000
,
10000000
00100000
10000000
00100000
01000000
00001000
01000000
00001000
00010000
00000100
00010000
00000100
00000010
00000000
MMMMMMMM
00000000
,
00001001
00000000
00000100
00000000
00000100
00000000
00000001
00001000
00000010
00001000
00000001
00000000
00000100
00000000
00000100
00000000
,
00001000
00010000
00001000
00000000
00000010
00000000
00001000
00010000
00001000
00010000
00001000
00000000
00010000
00000000
00100000
00000000
,
01000000
00000000
00010000
00000000
10000000
00000000
00100000
01000000
00010000
00000000
10000000
00000000
00100000
00000000
01000000
00000000
,
10010000
00000000
01000000
00000000
00100000
00000000
00010000
00000000
10000000
01000000
10000000
01000000
00100000
00010000
00100000
00000000
,
00011000
00000000
00000100
00000000
00000010
00000000
00000001
00000000
00001000
00000100
00001000
00000100
00000010
00000001
00000010
00000000
,
00000110
00000100
00001001
00001000
00011000
00010000
10010000
00100000
,
02200000
00000000
03300000
MMMMMMMM
,
10010000
00000000
01000000
00000000
00010000
00000000
10000000
00100000
10000000
00100000
10000000
00000000
00010000
00100000
00010000
00000000
,
01000000
00001000
01000000
00000000
00010000
00100000
00001000
00010000
00001000
00000000
00010000
00000000
00000100
00000000
00001000
00000000
,
00000001
00000010
00001000
00000000
00000010
00000000
00000001
00000100
00001000
00000000
00000100
00000000
00000001
00000000
00000010
00000000
,
00000100
00001000
00000100
00000000
00010000
00000000
00000100
00000010
00000001
00000000
00000001
00000000
00001000
00000000
00001000
00000000
,
00000010
00000000
00000010
00000000
00000100
00000000
00000100
00001000
00010000
00001000
00010000
00000000
01000000
00010000
00001000
00000000
,
00010000
00001000
00000010
00000000
00001000
00000000
00010000
00100000
00010000
00000000
00001000
00000000
01000000
00010000
00100000
00000000
,
01000000
10000000
00100000
00000000
01000000
00000000
00010000
00100000
01000000
10000000
00100000
00000000
01000000
00100000
01000000
00000000
,
00001000
00010000
00001000
00000000
00010000
00000000
01000000
10000000
00010000
10000000
00010000
00000000
01000000
00000000
00010000
00000000
,
10000000
01000000
00100000
00010000
00001000
00000100
00000010
00000001
00001000
00000010
00000100
00000001
00000010
00000000
MMMMMMMM
00000000
,
00001001
00000000
00000010
00000000
00000001
00000000
00000100
00001000
00000100
00000000
00000001
00000000
00000010
00001000
00000010
00000000
,
00000100
00000000
00010000
00000000
00001000
00000000
00000100
00001000
00010000
01000000
00010000
00000000
00001000
00000000
00000100
00000000
,
00001000
00010000
00100000
00000000
00010000
00000000
00001000
00000010
00001000
00010000
00100000
00000000
00010000
00000000
00100000
00000000
,
10000000
01000000
10000000
00000000
00100000
00000000
01000000
00010000
00001000
00000010
00000001
00000000
00001000
00000000
00000100
00000000
,
00000001
00000100
00000001
00000100
00000001
00000000
00001000
00000100
00001000
00000100
00001000
00000000
00000100
00000000
00000010
00000000
,
00001001
00001001
00010010
00010010
01001000
01001000
10010000
10010000
,
12000000
00000000
13000000
MMMMMMMM
00010000
00100000
01000000
10000000
;

//---------------dance-double - ----------------
#NOTES:
     dance-double:
     :
     Easy:
     8:
     0.283791,0.467749,0.154058,0.121625,0.000000,245.000000,226.000000,19.000000,15.000000,0.000000,0.000000,0.283791,0.467749,0.154058,0.121625,0.000000,245.000000,226.000000,19.000000,15.000000,0.000000,0.000000:
00000000
00000000
00000000
00000000
,
00000000
00000000
00000000
00000000
,
00000000
00000000
00000000
00000000
,
00000000
00000000
00000000
00000000
,
00000000
00000000
00000000
00000000
,
00000000
00000000
00000000
00000000
,
00000000
00000000
00000000
00000000
,
00000000
00000000
00000000
00000000
,
00000000
00000000
00000000
00000000
,
00200000
00000000
00000000
00000000
,
00000000
00000000
00300000
00000000
,
02000000
00000000
00000000
00000000
,
00000000
00000000
03000000
00000000
,
20000000
00000000
00000000
00000000
,
00000000
00000000
30000000
00000000
,
00020000
00000000
00000000
00000000
,
00000000
00000000
00030000
00000000
,
00002000
00000000
00000000
00000000
,
00000000
00000000
00003000
00000000
,
00000002
00000000
00000000
00000000
,
00000000
00000000
00000003
00000000
,
00000020
00000000
00000000
00000000
,
00000000
00000000
00000030
00000000
,
00000200
00000000
00000300
00000000
,
00000020
00000000
00000030
00000000
,
00001001
00000010
00000100
00000000
,
00001000
00000001
00001000
00000000
,
00000010
00001000
00000010
00000000
,
00100000
00010000
00100000
00000000
,
00100000
00010000
01000000
10000000
,
00100000
01000000
00010000
00001000
,
00010000
01000000
10000000
00100000
,
10000000
01000000
00010000
10000000
,
00200000
00000000
00000000
01300000
,
10010000
01000000
00010000
00010000
,
00000010
00001000
00100000
00010000
,
00000100
00001000
01000000
00010000
,
00001000
00000000
00000100
00000000
,
00001000
00001000
00000001
00000001
,
00000010
00000010
00000010
00000010
,
00000200
00000000
00000300
00000000
,
00001001
00000100
00001000
00000100
,
00000001
00000100
00000001
00001000
,
00000010
00000010
00001000
00001000
,
01000000
01000000
10000000
10000000
,
10000000
00100000
00010000
00100000
,
00010000
00001000
00010000
00000100
,
00001000
00001000
00000001
00000001
,
00000010
00000010
00000100
00000100
,
00000010
00001001
00000010
00000010
,
00001000
00000100
00000001
00000100
,
00000001
00000010
00000001
00000010
,
00001000
00000100
00001000
00000100
,
00001001
00000000
00000000
00000000
,
00011000
00000000
00000000
00000000
,
10010000
00000000
01100000
00000000
,
10010000
00000000
00000000
00000000
,
10010000
00000000
00100000
00000000
00100000
00100000
00100000
00000000
,
10010000
00000000
01000000
00000000
01000000
01000000
01000000
00000000
,
00010000
10000000
01000000
00010000
,
00001000
00000100
00000001
00000010
,
00000110
00000000
00001000
00000000
00000001
00000001
00000001
00000000
,
00000110
00000000
00000001
00000000
00001000
00001000
00001000
00000000
,
00000010
00000001
00000100
00001000
,
00010000
00000000
00100000
00000000
,
02000000
00000000
00000000
03100000
,
10010000
00000000
01000000
00000000
00000000
10000000
10000000
00000000
,
00010000
01000000
10000000
01000000
,
01000000
00000000
00100000
00000000
,
01100000
00010000
00010000
00000000
,
00011000
00001000
00001000
00000000
,
00000110
00000000
00000001
00000000
00000001
00000001
00000001
00000000
,
00000002
00000000
00000003
00000000
,
00001001
00000100
00000010
00000000
,
00000001
00001000
00000001
00000000
,
00000100
00001000
00000100
00000000
,
01000000
00010000
01000000
00000000
,
01000000
10000000
00100000
10000000
,
01000000
00100000
00010000
00001000
,
00010000
00100000
10000000
01000000
,
10000000
00100000
00010000
10000000
,
02000000
00000000
00000000
03100000
,
10010000
01000000
00010000
00010000
,
00000100
00001000
01000000
00010000
,
00000010
00001000
00100000
00010000
,
00001000
00000000
00000010
00000000
,
00000001
00000001
00001000
00001000
,
00000100
00000100
00000100
00000100
,
00000020
00000000
00000000
00000030
;

//---------------dance-double - ----------------
#NOTES:
     dance-double:
     :
     Medium:
     11:
     0.436691,0.611672,0.178383,0.137842,0.000000,377.000000,355.000000,22.000000,17.000000,0.000000,0.000000,0.436691,0.611672,0.178383,0.137842,0.000000,377.000000,355.000000,22.000000,17.000000,0.000000,0.000000:
00000000
00000000
00000000
00000000
,
00000000
00000000
00000000
00000000
,
00000000
00000000
00000000
00000000
,
00000000
00000000
00000000
00000000
,
00000000
00000000
00000000
00000000
,
00000000
00000000
00000000
00000000
,
00000000
00000000
00000000
00000000
,
00000000
00000000
00000000
00000000
,
00000000
00000000
00000000
00000000
,
02000000
00000000
00000000
00000000
,
03200000
00000000
00000000
00000000
,
20300000
00000000
00000000
00000000
,
30020000
00000000
00000000
00000000
,
00030200
00000000
00000000
00000000
,
00000302
00000000
00000000
00000000
,
00000023
00000000
00000000
00000000
,
00002030
00000000
00000000
00000000
,
00003001
00000100
00000001
00000100
,
00001000
00000100
00001000
00000100
,
00100000
00010000
00100000
00010000
,
10000000
00100000
10000000
00100000
,
01000000
10000000
00100000
00010000
,
00001000
00000010
00000001
00000100
,
00000010
00000000
00000000
00000000
,
00000200
00000000
00000000
00000000
00000310
00000100
00000010
00000000
,
00001001
00000000
00000100
00000000
00000001
00000010
00000001
00000000
,
00001000
00000000
00000100
00000000
00001000
00000100
00010000
00000000
,
00001000
00100000
00010000
01000000
,
00010000
10000000
00010000
00000000
10000000
00010000
10000000
00000000
,
00010000
00000000
00100000
00000000
10000000
01000000
10000000
00000000
,
00010000
00000000
00100000
00000000
00010000
00100000
00001000
00000000
,
00010000
00000100
00001000
00000010
,
00001000
00000001
00001000
00000000
00000001
00001000
00000001
00000000
,
00000200
00000000
00000000
00000310
,
00001001
00000000
00000001
00000100
00000001
00000000
00001000
00000000
,
00000010
00001000
00010000
00000000
01000000
00010000
00001000
00000000
,
00000100
00001000
00010000
00000000
00100000
00010000
00001000
00000000
,
01000000
00000000
00010000
00000000
10000000
00010000
01000000
00000000
,
00100000
00000000
10000000
00010000
01000000
00010000
10000000
00000000
,
01000000
00010000
01000000
00000000
00100000
00001000
00100000
00000000
,
00020000
00000000
00030000
00000000
,
00001100
00000000
00000001
00000000
00000000
00001000
00000010
00000000
,
00001000
00000000
00000001
00000000
00000000
00000100
00000001
00000000
,
00001000
00000010
00000001
00000100
,
00001000
00000000
01000000
00010000
00000000
00010000
10000000
00000000
,
00110000
00000000
10000000
00000000
00000000
00010000
01000000
00000000
,
00010000
00000000
10000000
00000000
00000000
00100000
10000000
00000000
,
00010000
01000000
10000000
00100000
,
00010000
00000000
00000010
00001000
00000000
00001000
00000001
00001000
,
00000100
00000000
00001001
00000000
00000010
00000001
00001000
00000000
,
00000010
00000000
00000010
00000001
00000100
00000001
00000010
00000000
,
00000100
00001000
00010000
01000000
,
00010000
00000000
00100000
10000000
00000000
10000000
00010000
00000000
,
01010000
00000000
00100000
00000000
00001000
00010000
01000000
00000000
,
11000000
00000000
00100000
00000000
00001000
00010000
01000000
00000000
,
10000000
00100000
01000000
00010000
10000000
00100000
01000000
00010000
,
20000000
00000000
30000000
00000000
,
00110000
00000000
01000000
00001000
00010000
00001000
01000000
00000000
,
00011000
00000000
00000100
00010000
00001000
00010000
00000100
00000000
,
00001000
00000100
00000001
00000000
00000001
00000010
00001000
00000000
,
00000010
00000001
00000100
00000000
00000010
00001000
00000100
00000000
,
00001100
00000000
00000010
00010000
00001000
00010000
00000010
00000000
,
00011000
00000000
00100000
00001000
00010000
00001000
00100000
00000000
,
00010000
00100000
10000000
00000000
10000000
01000000
00010000
00000000
,
01000000
10000000
00100000
00000000
01000000
00010000
00100000
01000000
,
00200000
01000000
01300000
01100000
,
10010000
00000000
10000000
00100000
01000000
00100000
10000000
00000000
,
01000000
00010000
00001000
00000000
00001000
00000100
00000001
00000000
,
00000001
00000010
00001000
00000000
00001000
00010000
01000000
00000000
,
10010000
00000000
01000000
00100000
01000000
00100000
01000000
00000000
,
00011000
00000000
00000100
00000010
00000100
00000010
00000100
00000000
,
00000011
00001100
00011000
01010000
,
20200000
00000000
30300000
00000000
,
10010000
00000000
00100000
00000000
10000000
01000000
10000000
00000000
,
00010000
00000000
00100000
00000000
00010000
00100000
00001000
00000000
,
00010000
00000100
00001000
00000010
,
00001000
00000001
00001000
00000000
00000001
00001000
00000001
00000000
,
00001000
00000000
00000100
00000000
00000001
00000010
00000001
00000000
,
00001000
00000000
00000100
00000000
00001000
00000100
00010000
00000000
,
00001000
00100000
00010000
01000000
,
00010000
10000000
00010000
00000000
10000000
00010000
10000000
00000000
,
00200000
00000000
00000000
01300000
,
10010000
00000000
10000000
00100000
10000000
00000000
00010000
00000000
,
01000000
00010000
00001000
00000000
00000010
00001000
00010000
00000000
,
00100000
00010000
00001000
00000000
00000100
00001000
00010000
00000000
,
00000010
00000000
00001000
00000000
00000001
00001000
00000010
00000000
,
00000100
00000000
00000001
00001000
00000010
00001000
00000001
00000000
,
00000010
00001000
00000010
00000000
00000100
00010000
00000100
00000000
,
00002000
00000000
00000001
00003001
;

//---------------dance-double - ----------------
#NOTES:
     dance-double:
     :
     Hard:
     14:
     0.610441,0.719614,0.291900,0.145950,0.117571,527.000000,491.000000,36.000000,18.000000,0.000000,0.000000,0.610441,0.719614,0.291900,0.145950,0.117571,527.000000,491.000000,36.000000,18.000000,0.000000,0.000000:
00000000
00000000
00000000
00000000
,
00000000
00000000
00000000
00000000
,
00000000
00000000
00000000
00000000
,
00000000
00000000
00000000
00000000
,
00000000
00000000
00000000
00000000
,
00000000
00000000
00000000
00000000
,
00000000
00000000
00000000
00000000
,
00000000
00000000
00000000
00000000
,
00000000
00000000
00000000
00000000
,
20100000
00000000
00000000
00000000
,
00000000
00000000
32000000
00000000
,
03200000
00000000
00000000
00000000
,
00320000
00000000
00032000
00000000
,
00003200
00000000
00000000
00000000
,
00000000
00000000
00000320
00000000
,
00000032
00000000
00000000
00000000
,
00002003
00000000
00003002
00000000
,
00000103
00000000
00000001
00000000
00000010
00000001
00000100
00000000
,
00000010
00000000
00001000
00000000
00000100
00001000
00000010
00000000
,
00010000
00001000
00100000
00000000
00001000
00010000
00000010
00000000
,
00010000
00001000
01000000
00000000
00001000
00010000
00000100
00000000
,
01000000
00000000
00010000
00000000
00100000
00010000
01000000
00000000
,
00100000
00000000
10000000
00000000
01000000
10000000
00100000
00000000
,
01000000
00000000
00000000
00000000
,
02000000
00000000
00000000
00000000
00100000
00100000
03100000
00000000
,
10010000
00000000
00000000
00000000
00100000
00000000
00000000
00001000
00010000
00000000
01000000
00000000
10000000
00000000
00000000
00000000
,
00100000
00000000
01000000
00000000
00010000
00000000
00000000
10000000
01000000
00000000
00100000
00000000
00001000
00000000
00000000
00000000
,
00010000
00000100
00010000
00001000
00010000
00000010
00010000
00000000
,
00001000
00100000
00001000
00010000
00001000
01000000
00001000
00000000
,
00000100
00000000
00000000
00000000
00000010
00000000
00000000
00010000
00001000
00000000
00000100
00000000
00000001
00000000
00000000
00000000
,
00001000
00000000
00000100
00000000
00000010
00000000
00000000
00000001
00000010
00000000
00000100
00000000
00001000
00000000
00000000
00000000
,
00010000
00100000
00010000
00100000
00001000
01000000
00001000
01000000
,
00100000
10000000
00100000
10000000
00010000
01000000
00010000
00000000
,
10000000
01000000
00100000
00010000
00001000
00000100
00000110
00000000
,
00001001
00000010
00001000
00000001
00000010
00000000
00001100
00000000
,
00010000
00000000
00001000
00000000
00000010
00000001
00000000
00000001
00000010
00000000
00000100
00000000
00001000
00000000
00000010
00000000
,
00000100
00000000
00000001
00000000
00000100
00001000
00000000
00001000
00100000
00000000
00010000
00000000
01000000
00000000
00100000
00000000
,
10000000
00000000
00010000
00000000
00100000
01000000
00000000
01000000
00100000
00000000
01000000
00000000
10000000
00000000
00100000
00000000
,
00010000
00000000
10000000
00000000
01000000
00010000
00000000
00010000
01000000
00000000
00100000
00000000
10000000
00000000
10000000
00000000
,
00100000
10000000
01000000
00010000
00001000
00000100
00000001
00000010
,
00002200
00000000
00003300
00000000
,
00000101
00000000
00001000
00000000
00000010
00001000
00000001
00000000
,
00000010
00000000
00000100
00010000
00001000
00000100
00010000
00000000
,
01000000
00010000
01000000
00010000
10000000
00100000
10000000
00100000
,
00010000
01000000
00010000
01000000
00010000
00010000
00100000
00000000
,
10100000
00000000
00010000
00000000
01000000
00010000
10000000
00000000
,
01000000
00000000
00100000
00001000
00010000
00100000
00001000
00000000
,
00000010
00001000
00000010
00001000
00000001
00000100
00000001
00000100
,
00001000
00000010
00001000
00000010
00001000
00001000
00000100
00000100
,
00000011
00000000
00000000
00000000
00001100
00000000
00000000
00000001
00001000
00000000
00000100
00000000
00001000
00000000
00000000
00000000
,
00000001
00000010
00001000
00010000
01000000
10000000
00100000
00000000
,
00010000
00100000
00010000
00100000
10000000
01000000
10000000
01000000
,
00001000
00010000
00100000
01000000
10000000
00100000
01000000
00010000
,
00011000
00001000
00010000
00100000
10000000
01000000
00010000
00001000
,
00011000
00010000
00001000
00000100
00000001
00000010
00001000
00010000
,
00100000
00100000
10000000
10000000
01000000
01000000
00010000
00010000
,
00202000
00000000
00303000
00000000
,
00010010
00000000
00001000
00000000
00000100
00000000
00000010
00000001
00000010
00000000
00000001
00000000
00001000
00000000
00000000
00000000
,
00001010
00000000
00000001
00000000
00000100
00000000
00000010
00001000
00000010
00000000
00001000
00000000
00000100
00000000
00000000
00000000
,
00000010
00000001
00000011
00000000
00001000
00000100
00001100
00000000
,
00100000
00010000
00110000
00000000
10000000
01000000
11000000
00000000
,
01001000
00000000
00010000
00000000
00100000
00000000
01000000
10000000
01000000
00000000
10000000
00000000
00010000
00000000
00000000
00000000
,
01010000
00000000
10000000
00000000
00100000
00000000
01000000
00010000
01000000
00000000
00010000
00000000
00100000
00000000
00000000
00000000
,
01000000
00100000
11000000
00000000
01000000
00100000
00110000
00000000
,
00000100
00000010
00001100
00000000
00000100
00000010
00000011
00000010
,
00000001
00000100
00001000
00010000
00100000
10000000
01100000
00000000
,
10010000
00010000
10000000
00100000
01000000
00010000
10000000
00000000
,
01000000
10000000
01000000
10000000
00010000
00100000
00010000
00100000
,
00001000
00010000
00000100
00001000
00000001
00000010
00000100
00000000
,
00001001
00001000
00000010
00000100
00000001
00000010
00000100
00000000
,
00011000
00100000
01000000
10000000
00100000
01000000
00010000
00000000
,
10010000
10000000
00010000
00010000
00001000
00001000
00000100
00000100
,
00000220
00000000
00000330
00000000
,
00001001
00000000
00000000
00000000
00000100
00000000
00000000
00010000
00001000
00000000
00000010
00000000
00000001
00000000
00000000
00000000
,
00000100
00000000
00000010
00000000
00001000
00000000
00000000
00000001
00000010
00000000
00000100
00000000
00010000
00000000
00000000
00000000
,
00001000
00100000
00001000
00010000
00001000
01000000
00001000
00000000
,
00010000
00000100
00010000
00001000
00010000
00000010
00010000
00000000
,
00100000
00000000
00000000
00000000
01000000
00000000
00000000
00001000
00010000
00000000
00100000
00000000
10000000
00000000
00000000
00000000
,
00010000
00000000
00100000
00000000
01000000
00000000
00000000
10000000
01000000
00000000
00100000
00000000
00010000
00000000
00000000
00000000
,
00001000
00000100
00001000
00000100
00010000
00000010
00010000
00000010
,
00000100
00000001
00000100
00000001
00001000
00000010
00001000
00000000
,
00000001
00000010
00000100
00001000
00010000
00100000
01100000
00000000
,
10010000
01000000
00010000
10000000
01000000
00000000
00110000
00000000
,
00001000
00000000
00010000
00000000
01000000
10000000
00000000
10000000
01000000
00000000
00100000
00000000
00010000
00000000
01000000
00000000
,
00100000
00000000
10000000
00000000
00100000
00010000
00000000
00010000
00000100
00000000
00001000
00000000
00000010
00000000
00000100
00000000
,
00000001
00000000
00001000
00000000
00000100
00000010
00000000
00000010
00000100
00000000
00000010
00000000
00000001
00000000
00000100
00000000
,
00001000
00000000
00000001
00000000
00000010
00001000
00000000
00001000
00000010
00000000
00000100
00000000
00000001
00000000
00000001
00000000
,
00000100
00000001
00000010
00001000
00010000
00100000
10000000
01000000
,
00120000
00000000
10000000
10030000
;
