#TITLE:DAY DREAM;
#SUBTITLE:;
#ARTIST:Mutsuhiko Izumi;
#TITLETRANSLIT:;
#SUBTITLETRANSLIT:;
#ARTISTTRANSLIT:;
#GENRE:BEMANI;
#CREDIT:;
#BANNER:DAY DREAM.png;
#BACKGROUND:DAY DREAM-bg.png;
#LYRICSPATH:;
#CDTITLE:../cdtitle.png;
#MUSIC:DAY DREAM.ogg;
#OFFSET:-0.350000;
#SAMPLESTART:19.295000;
#SAMPLELENGTH:15.000000;
#SELECTABLE:YES;
#BPMS:0.000000=80.000000
,21.000000=300.000000
,37.000000=170.000000
,91.500000=90.000000
,107.500000=170.000000
;
#STOPS:
;
#BGCHANGES:-0.125=DAY DREAM.avi=1.000=0=0=0=StretchNoLoop====,
99999=-nosongbg-=1.000=0=0=0 // don't automatically add -songbackground-
;
#KEYSOUNDS:;
#ATTACKS:;

//---------------dance-single - ----------------
#NOTES:
     dance-single:
     :
     Beginner:
     3:
     0.083873,0.204502,0.045163,0.056453,0.067744,52.000000,48.000000,4.000000,5.000000,0.000000,0.000000,0.083873,0.204502,0.045163,0.056453,0.067744,52.000000,48.000000,4.000000,5.000000,0.000000,0.000000:
// measure 0
0000
0000
0000
0000
,  // measure 1
1001
0000
0010
0000
,  // measure 2
0100
0100
0100
0100
,  // measure 3
0000
0010
0000
0200
,  // measure 4
0000
0000
0000
0000
,  // measure 5
0000
0300
0000
0000
0000
0000
0000
0000
,  // measure 6
0000
0000
0000
0000
,  // measure 7
0000
0000
0000
0000
,  // measure 8
0000
0000
0000
0000
,  // measure 9
0000
0100
0000
0000
,  // measure 10
0000
0000
0000
0000
0000
0100
0000
0000
0000
0000
0000
0000
0000
0000
0000
0000
,  // measure 11
0000
0000
0000
0010
0000
0000
0000
0000
,  // measure 12
0000
0000
0000
0000
0000
0000
0000
0010
0000
0000
0000
0000
0000
0000
0000
0000
,  // measure 13
0000
0000
0001
0000
,  // measure 14
0000
0000
0000
0000
,  // measure 15
0000
0000
0000
0000
0000
0100
0000
0000
,  // measure 16
0000
0000
0000
0000
0000
0000
0000
0000
0000
0000
0000
0100
0000
0000
0000
0000
,  // measure 17
0000
0000
0000
0010
,  // measure 18
0000
0000
0000
0000
0000
0000
0000
0000
0000
0000
0000
0000
0000
0010
0000
0000
,  // measure 19
0000
0000
0000
0000
0000
0000
0000
1000
,  // measure 20
0000
0000
0000
0000
0000
0000
0000
0001
,  // measure 21
0000
0000
0000
0000
0000
0000
0000
1001
,  // measure 22
0000
0000
0000
0000
0000
0000
0000
1000
,  // measure 23
0000
1000
0000
1000
0000
0000
0000
0001
,  // measure 24
0000
0001
0000
0001
0000
0000
0000
0010
,  // measure 25
0000
0010
0000
0010
0000
0000
0000
0100
,  // measure 26
0000
0100
0000
0000
0000
0000
0000
0010
,  // measure 27
0000
0000
0000
0000
0000
0000
0000
0000
0000
0000
0000
0000
0000
0000
0000
0010
,  // measure 28
0000
0000
0000
0000
,  // measure 29
0100
0000
0000
0000
,  // measure 30
0000
0100
0000
0000
0000
0000
0000
0000
0000
0000
0000
0000
0000
0000
0000
0000
,  // measure 31
0000
1000
0000
0000
0000
0000
0000
0000
,  // measure 32
0000
0000
0000
0000
,  // measure 33
0000
0010
0000
0000
,  // measure 34
0000
0000
0000
0000
0000
0010
0000
0000
0000
0000
0000
0000
0000
0000
0000
0000
,  // measure 35
0000
0000
0000
0100
0000
0000
0000
0000
,  // measure 36
0000
0000
0000
0000
0000
0000
0000
0100
0000
0000
0000
0000
0000
0000
0000
0000
,  // measure 37
0000
0000
0001
0000
,  // measure 38
0000
0000
0000
0000
0000
0000
0000
0000
0000
1000
0000
0000
0000
0000
0000
0000
,  // measure 39
0000
0000
0000
0000
0000
0100
0000
0000
,  // measure 40
0000
0000
0000
0000
0000
0000
0000
0000
0000
0000
0000
0010
0000
0000
0000
0000
,  // measure 41
0000
0000
0000
0001
,  // measure 42
0000
0000
0000
0000
0000
0000
0000
0000
0000
0000
0000
0000
0000
1000
0000
0000
,  // measure 43
0000
0000
0000
0000
,  // measure 44
0000
0000
0000
2002
0000
0000
0000
0000
,  // measure 45
0000
0000
0000
0000
,  // measure 46
0000
0000
0000
0000
,  // measure 47
0000
0000
0000
0000
,  // measure 48
0000
0000
0000
0000
,  // measure 49
0000
0000
0000
0000
,  // measure 50
0000
0000
3003
0000
0000
0000
0000
0000
0000
0000
0000
0220
0000
0000
0000
0000
,  // measure 51
0000
0000
0000
0330
;

//---------------dance-single - ----------------
#NOTES:
     dance-single:
     :
     Challenge:
     18:
     0.932284,0.964079,0.225813,0.350010,1.473428,578.000000,558.000000,20.000000,31.000000,0.000000,0.000000,0.932284,0.964079,0.225813,0.350010,1.473428,578.000000,558.000000,20.000000,31.000000,0.000000,0.000000:
// measure 0
0000
0000
0000
0000
,  // measure 1
0220
0330
1001
0010
1100
0102
0020
0033
,  // measure 2
2200
3300
0202
0303
0011
1010
0220
0330
,  // measure 3
1001
0100
0011
2010
0200
3300
1100
0022
,  // measure 4
0000
0000
0000
0000
,  // measure 5
0000
0033
0000
1000
0010
1000
0010
0001
,  // measure 6
0010
0001
0010
1000
0001
0100
0000
0000
,  // measure 7
0010
0001
0000
0010
1000
0000
0100
0001
,  // measure 8
0000
0100
1000
0000
0001
1000
0010
0000
,  // measure 9
0000
0000
0000
0000
0100
0001
0100
0010
1000
0000
1000
0001
0000
0001
0010
0000
,  // measure 10
0001
0100
0010
1000
0001
1000
0001
0010
0100
0010
0000
0010
0001
0000
0001
1000
,  // measure 11
0000
1000
0010
0100
0001
0100
0010
1000
0001
0010
0100
0000
0100
1000
0000
1000
,  // measure 12
0010
0000
0100
0010
1000
0001
0100
0001
1000
0100
0010
0001
0000
0001
1000
0000
,  // measure 13
1000
0010
0000
1000
0001
0010
0100
1000
0100
0000
0100
0010
0000
0010
0001
0000
,  // measure 14
0001
1000
0000
1000
0002
0000
0203
0000
0301
0100
0000
0100
0010
0000
0010
1000
,  // measure 15
0000
1000
0001
0000
0001
2000
0000
3200
0000
1300
0010
1000
0010
0100
0001
0000
,  // measure 16
0001
1000
0000
1000
0100
0000
1000
0010
0100
0001
1000
0001
1000
0100
0010
0100
,  // measure 17
0000
0100
1000
0000
1000
0001
0000
0001
0100
0010
1000
0010
0100
0001
1000
0100
,  // measure 18
0010
0000
0010
0001
0000
0001
0100
0000
0010
0100
0001
1000
0010
1000
0001
0010
,  // measure 19
0100
1000
0000
1000
0001
0000
0001
0100
0000
0001
1000
0100
0010
0001
0010
0100
,  // measure 20
1000
0010
0000
0011
0000
0101
0000
1100
0000
1000
0010
0100
0001
0000
0010
0100
,  // measure 21
1000
0001
0010
0100
1000
0001
0100
0010
1000
0001
0000
0000
0000
0000
0220
0000
,  // measure 22
0000
0000
0000
0000
0000
0000
0000
0000
0000
0000
0000
0000
0330
0000
1000
0010
,  // measure 23
0010
0001
0010
0010
1000
0001
0001
0010
0100
0100
1000
0001
0100
0010
1000
0001
,  // measure 24
0001
0010
1000
1000
0010
0001
0001
1000
0010
0010
0100
0001
0100
0010
1000
0100
,  // measure 25
0100
0001
0100
0100
1000
0001
0001
0100
0010
0010
1000
0001
0010
0100
1000
0001
,  // measure 26
0001
0100
1000
1000
0100
0001
0000
0000
0000
0000
0000
0000
0000
0000
0100
0001
,  // measure 27
0100
0010
1000
0000
1000
0001
0000
0001
0010
0000
0001
0100
0010
1000
0001
1000
,  // measure 28
0001
0010
0100
0010
0000
0010
0001
0000
0001
1000
0000
1000
0010
0100
0001
0100
,  // measure 29
0010
1000
0001
0010
0100
0000
0100
1000
0000
1000
0010
0000
0100
0010
1000
0001
,  // measure 30
0100
0001
1000
0100
0010
0001
0000
0001
1000
0000
1000
0010
0000
1000
0001
0010
,  // measure 31
0100
1000
0100
0000
0100
0010
0000
0010
0001
0000
0001
1000
0000
1000
0002
0000
,  // measure 32
0203
0000
0301
0100
0000
0100
0010
0000
0010
1000
0000
1000
0001
0000
0001
2000
,  // measure 33
0000
3200
0000
1300
0100
0010
0001
1000
0001
0000
1000
0010
0000
1000
0001
1000
,  // measure 34
0100
1000
0001
0100
0001
1000
0100
0010
0100
1000
0000
0001
0010
0100
0010
0001
,  // measure 35
0000
1000
0010
0100
0010
1000
0001
0100
0010
0100
0001
0000
1000
0000
0100
0010
,  // measure 36
0100
0000
1000
0000
0001
0010
0001
1000
0010
0100
0001
1000
0000
0001
0100
0010
,  // measure 37
1000
0001
0000
1000
0001
1000
0001
1000
0100
0001
0100
1000
0100
0000
0010
0000
,  // measure 38
0001
1000
0100
1000
0001
0100
0010
1000
0010
2000
0000
0001
0000
3001
0000
0010
,  // measure 39
0100
1000
0000
0001
0000
1000
0100
0010
0001
0010
0002
0000
1000
0000
1003
0000
,  // measure 40
0010
0100
0001
0000
0010
0100
0000
1000
0001
0100
0010
1000
0010
1000
0001
0010
,  // measure 41
0000
0010
0100
0000
0100
1000
0000
0001
1000
0100
0010
0001
1000
0010
0100
0001
,  // measure 42
0100
0010
1000
0001
0000
0001
0010
0000
0100
1000
0001
0100
0001
1000
0010
1000
,  // measure 43
0010
1000
0100
1000
0100
0010
0001
0010
0001
0100
0010
0100
0010
1000
0000
0000
,  // measure 44
0000
0000
0000
2002
0000
0000
0000
0000
,  // measure 45
0003
0000
3100
0010
0000
0001
0010
0000
1000
0010
0000
0001
1000
0000
0010
0100
,  // measure 46
0000
0001
0100
0000
1000
0100
0000
0002
0000
1003
0010
1000
0010
0100
0001
0100
,  // measure 47
0001
1000
0100
1000
0100
1000
0001
1000
0001
0100
0010
1000
0001
0010
0100
1000
,  // measure 48
0001
0100
0010
1000
0010
1000
0010
1000
0010
1000
0001
0010
0100
1000
0100
0010
,  // measure 49
0100
0010
0100
0001
0100
0001
0100
0010
0100
1000
0100
0010
0001
1000
0001
1000
,  // measure 50
0010
0100
0010
1000
0100
0010
0001
1000
0000
0000
0000
0220
0000
0000
0000
0000
,  // measure 51
0000
0000
0000
0000
0000
0000
0000
0300
0000
0000
0130
0001
1000
0000
0000
0000
;

//---------------dance-single - ----------------
#NOTES:
     dance-single:
     :
     Easy:
     7:
     0.206457,0.409003,0.191941,0.135488,0.225813,128.000000,111.000000,17.000000,12.000000,0.000000,0.000000,0.206457,0.409003,0.191941,0.135488,0.225813,128.000000,111.000000,17.000000,12.000000,0.000000,0.000000:
// measure 0
0000
0000
0000
0000
,  // measure 1
2200
3300
0110
0001
,  // measure 2
0011
1010
1100
0202
,  // measure 3
0303
0110
1000
2002
,  // measure 4
0000
0000
0000
0000
,  // measure 5
0000
3003
0000
0110
0000
0000
0000
0000
,  // measure 6
0000
0000
0000
0000
,  // measure 7
1001
0000
0000
0110
,  // measure 8
0000
0000
1001
0000
,  // measure 9
0000
0000
1000
0000
0000
0100
0000
0000
,  // measure 10
0001
0000
0000
0000
0000
0100
0000
0000
0000
0000
0000
1000
0000
0000
0000
0000
,  // measure 11
0000
0010
0000
0000
0000
0000
0100
0000
0000
0000
0000
0000
0001
0000
0000
0000
,  // measure 12
0000
0000
0010
0000
0000
0000
0000
1000
0000
0000
0000
0000
0000
0010
0000
0000
,  // measure 13
0000
0000
0000
0001
0000
0000
0000
1000
0000
0000
0000
0000
0000
0000
0000
0000
,  // measure 14
0000
0000
0000
0000
,  // measure 15
0000
0000
0000
0000
0000
0001
0000
0000
,  // measure 16
0100
0000
0000
0000
0000
0000
1000
0000
0000
0000
0000
0100
0000
0000
0000
0000
,  // measure 17
0000
0001
0000
0000
0000
0000
0000
0010
0000
0000
0000
0000
0100
0000
0000
0000
,  // measure 18
0000
0000
1000
0000
0000
0000
0000
0000
0010
0000
0000
0000
0000
0001
0000
0000
,  // measure 19
0000
0000
0000
0010
0000
0000
0000
0000
0000
1000
0000
0000
0000
0000
0001
0000
,  // measure 20
0000
0000
0000
0000
0000
1000
0000
0000
0000
0000
0000
0000
0000
0000
1001
0000
,  // measure 21
0000
0000
0110
0000
0000
0000
0000
2002
,  // measure 22
0000
0000
0000
0000
0000
0000
3003
1000
,  // measure 23
0000
0100
0000
0001
0000
0100
0000
1000
,  // measure 24
0000
0001
0000
0010
0000
0100
0000
1000
,  // measure 25
0000
0010
0000
0001
0000
0010
0000
1000
,  // measure 26
0000
0010
0000
0100
0000
0000
0000
0001
,  // measure 27
0000
0000
0000
0000
0010
0000
0000
0000
0000
0000
1000
0000
0000
0000
0000
0010
,  // measure 28
0000
0000
0000
0000
0000
0001
0000
0000
0000
0000
0000
0100
0000
0000
0000
0000
,  // measure 29
0010
0000
0000
1000
0000
0000
0100
0000
,  // measure 30
0000
0001
0000
0000
0000
0000
0000
0100
0000
0000
0000
0000
0000
1000
0000
0000
,  // measure 31
0000
0001
0000
0000
0000
0000
0000
0000
0000
0000
0000
0000
0000
0000
0000
0000
,  // measure 32
0000
0000
0000
0000
,  // measure 33
0000
0000
1000
0000
0000
0010
0000
0000
,  // measure 34
0001
0000
0000
0000
0000
0010
0000
0000
0000
0000
0000
1000
0000
0000
0000
0000
,  // measure 35
0000
0100
0000
0000
0000
0000
0010
0000
0000
0000
0000
0000
0001
0000
0000
0000
,  // measure 36
0000
0000
0100
0000
0000
0000
0000
1000
0000
0000
0000
0000
0000
0100
0000
0000
,  // measure 37
0000
0000
0000
0001
0000
0000
0000
0000
1000
0000
0000
0000
0000
0000
1000
0000
,  // measure 38
0000
0000
0000
0000
0100
0000
0000
0000
0000
0001
0000
0000
0000
0000
0000
0001
,  // measure 39
0000
0000
0000
0000
0000
0100
0000
0000
0000
0000
1000
0000
0000
0000
0000
0000
,  // measure 40
1000
0000
0000
0000
0000
0000
0010
0000
0000
0000
0000
0001
0000
0000
0000
0000
,  // measure 41
0000
0001
0000
0000
0000
0000
0000
0010
0000
0000
0000
0000
1000
0000
0000
0000
,  // measure 42
0000
0000
0100
0000
0000
0000
0000
0000
0001
0000
0000
0000
0000
0100
0000
0000
,  // measure 43
0000
1000
0000
0000
0000
0010
0000
0000
0000
0100
0000
0000
0000
0001
0000
0000
,  // measure 44
0000
0000
0000
2002
0000
0000
0000
0000
,  // measure 45
0000
0000
0000
0000
,  // measure 46
0000
0000
0000
0000
,  // measure 47
0000
0000
0000
0000
,  // measure 48
0000
0000
0000
0000
0000
0000
0000
0000
0000
3003
0000
0000
1000
0000
0000
0000
,  // measure 49
0000
0000
0100
0000
0000
0000
0000
0000
0010
0000
0000
0000
0000
0001
0000
0000
,  // measure 50
0000
0000
1000
0000
0000
0000
0000
0000
0000
0000
0000
2002
0000
0000
0000
0000
,  // measure 51
0000
0000
0000
3003
;

//---------------dance-single - ----------------
#NOTES:
     dance-single:
     :
     Medium:
     11:
     0.393559,0.496647,0.112906,0.474207,0.541950,244.000000,234.000000,10.000000,42.000000,0.000000,0.000000,0.393559,0.496647,0.112906,0.474207,0.541950,244.000000,234.000000,10.000000,42.000000,0.000000,0.000000:
// measure 0
0000
0000
0000
0000
,  // measure 1
1001
0000
0100
0000
1001
0100
0010
0000
,  // measure 2
0110
1001
0110
1001
,  // measure 3
0100
0000
1001
0100
0010
0000
0001
2000
,  // measure 4
0000
0000
0000
0000
,  // measure 5
0000
3000
0000
0001
0000
0100
0000
0010
,  // measure 6
0000
0100
0000
0001
0000
1000
0000
0000
,  // measure 7
0001
0000
0000
0010
0000
0000
0100
0000
,  // measure 8
0000
1000
0000
0000
0001
0000
0000
0000
,  // measure 9
0000
0000
0000
0000
1000
0000
0000
0100
0000
0000
0010
0000
0000
0100
0000
0000
,  // measure 10
1000
0000
0000
0001
0000
0010
0000
0000
0100
0000
0000
0010
0000
0000
0001
0000
,  // measure 11
0000
1000
0000
0000
0010
0000
0100
0000
0000
0001
0000
0000
0100
0000
0000
0010
,  // measure 12
0000
0000
1000
0000
0000
0100
0000
0010
0000
0000
0001
0000
0000
0010
0000
0000
,  // measure 13
0100
0000
0000
1000
0000
0001
0000
2000
0000
0000
0000
0000
0000
0100
0000
0000
,  // measure 14
0000
0000
0000
0000
0001
0000
0000
0000
3002
0000
0000
0000
0000
0000
0000
0100
,  // measure 15
0000
0000
0000
0000
0000
1000
0000
0000
0000
0000
1003
0000
0000
0100
0000
0000
,  // measure 16
0010
0000
0000
0100
0000
0000
1000
0000
0000
0001
0000
0010
0000
0000
0100
0000
,  // measure 17
0000
0010
0000
0000
0001
0000
0000
1000
0000
0000
0010
0000
0100
0000
0000
0001
,  // measure 18
0000
0000
0100
0000
0000
0010
0000
0000
1000
0000
0000
0100
0000
0010
0000
0000
,  // measure 19
0001
0000
0000
0010
0000
0000
0100
0000
0000
1000
0000
0000
0001
0000
1000
0000
,  // measure 20
0010
0000
0000
0001
0000
0010
0000
1000
0000
0001
0000
1000
0000
0000
0002
0000
,  // measure 21
0000
0023
0000
0000
0230
0000
0000
2300
0000
0000
3000
0000
0000
0000
2002
0000
,  // measure 22
0000
0000
0000
0000
0000
0000
3003
0001
,  // measure 23
1000
0010
0001
0010
0100
0001
1000
0010
,  // measure 24
0100
1000
0100
0001
0010
0100
1000
0001
,  // measure 25
1000
0010
0001
0010
0100
0001
1000
0010
,  // measure 26
0100
1000
0100
0000
0000
0000
0000
0001
,  // measure 27
0000
0100
0000
0000
0010
0000
0000
0100
0000
0000
0001
0000
0000
1000
0000
0010
,  // measure 28
0000
0000
0100
0000
0000
0010
0000
0000
1000
0000
0000
0001
0000
0000
0010
0000
,  // measure 29
0100
0000
0000
1000
0000
0000
0100
0000
0000
0010
0000
0000
0001
0000
0000
0100
,  // measure 30
0000
0010
0000
0000
1000
0000
0000
0010
0000
0000
0100
0000
0000
0001
0000
1000
,  // measure 31
0000
0002
0000
0000
0000
0000
0000
0100
0000
0000
0000
0000
0000
0000
1000
0000
,  // measure 32
0000
0000
2003
0000
0000
0000
0000
0000
0000
0100
0000
0000
0000
0000
0000
0001
,  // measure 33
0000
0000
0000
0000
3001
0000
0000
0010
0000
0000
1000
0000
0000
0010
0000
0000
,  // measure 34
0100
0000
0000
1000
0000
0010
0000
0000
0001
0000
0000
0010
0000
0000
0100
0000
,  // measure 35
0000
0001
0000
0000
1000
0000
0100
0000
0000
0001
0000
0000
0100
0000
0000
0010
,  // measure 36
0000
0000
0001
0000
0000
0100
0000
1000
0000
0000
0100
0000
0000
0010
0000
0000
,  // measure 37
1000
0000
0000
0100
0000
0000
0010
0000
0001
0000
0000
0100
0000
0000
0010
0000
,  // measure 38
0000
1000
0000
0000
0001
0000
0000
0010
0000
0100
0000
0000
1000
0000
0000
0010
,  // measure 39
0000
0000
0100
0000
0000
0001
0000
0000
1000
0000
0100
0000
0000
0010
0000
0000
,  // measure 40
0100
0000
0000
1000
0000
0000
0010
0000
0000
0100
0000
0001
0000
0000
0010
0000
,  // measure 41
0000
0100
0000
0000
0010
0000
0000
0001
0000
0000
1000
0000
0001
0000
0100
0000
,  // measure 42
1000
0000
0200
0000
0000
0000
0000
0000
0000
0000
0000
0300
0000
0001
0000
0010
,  // measure 43
0000
1000
0000
0020
0000
0000
0000
0000
0000
0000
0000
0000
0000
0000
0000
0000
,  // measure 44
0000
0000
0030
2001
0000
0000
0000
0000
,  // measure 45
0000
3002
0000
0000
0023
0000
0000
2030
0000
0000
3002
0000
0000
0203
0000
0000
,  // measure 46
2300
0000
0000
3020
0000
0000
0230
0000
0000
0302
0000
0000
0023
0000
0000
0230
,  // measure 47
0000
0000
2300
0000
0000
3020
0000
0000
0230
0000
0000
0302
0000
0000
2003
0000
,  // measure 48
0000
0002
0000
0000
0000
0000
0000
0000
0000
0000
3003
0000
2000
0000
0000
3200
,  // measure 49
0000
0000
0000
0000
0320
0000
0000
0000
0000
0000
0032
0000
0000
0000
0000
0000
0203
0000
0000
0000
0000
0320
0000
0000
0000
0000
2030
0000
0000
0000
0000
3200
,  // measure 50
0000
0000
0320
0000
0000
0000
0000
0000
0000
0030
0000
2002
0000
0000
0000
0000
,  // measure 51
0000
0000
0000
3003
;

//---------------dance-single - ----------------
#NOTES:
     dance-single:
     :
     Hard:
     15:
     0.667760,0.847221,0.203231,0.654857,1.061319,414.000000,396.000000,18.000000,58.000000,0.000000,0.000000,0.667760,0.847221,0.203231,0.654857,1.061319,414.000000,396.000000,18.000000,58.000000,0.000000,0.000000:
// measure 0
0000
0000
0000
0000
,  // measure 1
1001
0000
0110
0000
1001
0020
0200
0330
,  // measure 2
1100
1010
0011
1001
,  // measure 3
0110
0000
1001
0200
0020
0330
0110
2002
,  // measure 4
0000
0000
0000
0000
,  // measure 5
0000
3003
0000
1000
0100
1000
0100
0010
,  // measure 6
0001
0010
0001
1000
0001
0100
0000
0000
,  // measure 7
0010
1000
0000
0001
0100
0000
0001
0010
,  // measure 8
0000
0100
1000
0000
0100
0010
0100
0000
,  // measure 9
0000
0000
0000
0000
1000
0001
0000
0001
0010
0000
0010
0100
0000
0100
1000
0000
,  // measure 10
0001
0000
0010
0000
0100
0010
0001
0000
0001
1000
0000
1000
0010
0000
0010
0100
,  // measure 11
0000
0001
0000
0100
0000
0100
0010
1000
0000
1000
0001
0000
0001
1000
0000
1000
,  // measure 12
0100
0000
0010
0000
0001
0000
0001
1000
0100
0000
0100
0001
0000
0001
0100
0000
,  // measure 13
0100
0010
0000
0001
1000
0001
1000
0002
0000
0000
0023
0000
0000
0230
0000
0000
,  // measure 14
2300
0000
0000
3020
0000
0000
0032
0000
0023
0000
0000
2030
0000
0000
3200
0000
,  // measure 15
0000
0320
0000
0000
0032
0000
0000
2003
0000
0000
3001
0010
0000
0010
0001
0000
,  // measure 16
0001
1000
0000
1000
0010
0000
0100
0000
0001
0000
0001
1000
0010
0000
0010
1000
,  // measure 17
0000
1000
0001
0000
0001
0010
0000
0100
0000
1000
0000
1000
0001
0010
0000
0010
,  // measure 18
1000
0000
1000
0010
0000
0010
0001
0000
0001
0000
1000
0000
0001
1000
0001
0000
,  // measure 19
0001
0100
0000
0100
0010
0000
0010
1000
0000
1000
0000
0010
0000
0100
0001
1000
,  // measure 20
0001
1000
0000
0001
0000
0010
0000
0100
0000
0010
0000
0001
0000
0000
1100
0000
,  // measure 21
0000
0101
0000
0000
0011
0000
0000
1010
0000
0000
0000
0000
0000
0000
2002
0000
,  // measure 22
0000
0000
0000
0000
0000
0000
0000
0000
0000
0000
0000
0000
3003
0000
1000
0100
,  // measure 23
0010
0100
0000
1000
0001
0100
0010
0100
0000
0001
1000
0010
0100
0010
1000
0001
,  // measure 24
0010
0100
0000
1000
0001
1000
0010
0100
0000
0010
1000
0100
0010
0001
1000
0010
,  // measure 25
0100
0010
0000
1000
0001
0010
0100
0010
0000
0001
1000
0100
0010
0100
1000
0001
,  // measure 26
0100
0010
0000
1000
0001
1000
0000
0000
0000
0000
0000
0000
0000
0000
0001
1000
,  // measure 27
0000
1000
0010
0000
0010
0100
0000
0100
0001
0000
1000
0000
0010
0000
0100
0010
,  // measure 28
1000
0000
1000
0001
0000
0001
0010
0000
0010
0100
0000
1000
0000
0100
0000
0100
,  // measure 29
0010
0001
0000
0001
1000
0000
1000
0001
0000
0001
0100
0000
0010
0000
1000
0000
,  // measure 30
1000
0001
0100
0000
0100
1000
0000
1000
0100
0000
0100
0010
0000
1000
0001
1000
,  // measure 31
0001
2000
0000
0000
3020
0000
0000
0230
0000
0000
0302
0000
0000
0023
0000
0000
,  // measure 32
2030
0000
3020
0000
0000
0032
0000
0000
0203
0000
0000
0320
0000
0000
2030
0000
,  // measure 33
0000
3002
0000
0000
1003
0010
0000
0010
0100
0000
0100
0001
0000
0001
0010
0000
,  // measure 34
0100
0000
1000
0000
0001
1000
0010
1000
0000
0001
0000
0010
0100
0010
0000
0001
,  // measure 35
0000
1000
0001
1000
0000
0010
0100
0001
0100
0000
0010
0000
1000
0000
0001
0010
,  // measure 36
0001
0000
0100
0000
0010
0000
1000
0001
1000
0001
0000
0010
0000
0100
0000
1000
,  // measure 37
0001
1000
0000
0100
0010
0100
0010
0001
1000
0001
1000
0000
0001
0000
0100
0000
,  // measure 38
0010
0000
0100
0000
0001
0000
1000
0000
0010
0100
0000
0001
0000
0001
0000
1000
,  // measure 39
0000
0010
0000
1000
0000
0001
0000
0010
0000
0010
0100
0000
1000
0000
0001
0000
,  // measure 40
0010
0000
0001
0000
0100
0000
0010
0000
1000
0000
0001
1000
0000
0100
0000
0100
,  // measure 41
0000
0010
0000
0100
0000
1000
0000
0010
0000
0100
0000
0100
0001
0000
1000
0000
,  // measure 42
0100
0000
0010
0000
0001
0000
0010
0000
0100
0000
1000
0000
0001
2000
0000
0010
,  // measure 43
0000
3020
0000
0100
0000
0230
0000
0001
0000
0302
0000
1000
0000
1003
0000
0000
,  // measure 44
0000
0000
0000
0000
0000
0000
0220
0000
0000
0000
0000
0000
0000
0000
0000
0330
,  // measure 45
0000
0002
0000
0000
0023
0000
0000
0230
0000
0000
2300
0000
0000
3020
0000
0000
,  // measure 46
0230
0000
0000
0000
0000
0000
0302
0000
0000
0000
0000
0000
0023
0000
0000
0000
0000
0000
0130
0000
0000
1000
0000
0000
0100
0000
0000
1000
0000
0000
0100
0000
,  // measure 47
0000
0010
0000
0000
0100
0000
0000
0010
0000
0000
0001
0000
0000
0100
0000
0000
0001
0000
0000
0100
0000
0000
0010
0000
0000
1000
0000
0000
0010
0000
0000
1000
,  // measure 48
0000
0002
0000
0000
0000
0000
0000
0000
0000
0000
0000
0003
2000
0000
0000
3002
,  // measure 49
0000
0000
0000
0000
0023
0000
0000
0000
0000
0000
0230
0000
0000
0000
0000
0000
2300
0000
0000
0000
0000
3020
0000
0000
0000
0000
0230
0000
0000
0000
0000
0302
,  // measure 50
0000
0000
2000
0000
0000
0000
0000
0000
3003
0000
0000
0220
0000
0000
0000
0000
,  // measure 51
0000
0000
0000
0330
;
