#TITLE:YUME SOUTI;
#SUBTITLE:(desmix);
#ARTIST:Des ROW;
#TITLETRANSLIT:;
#SUBTITLETRANSLIT:;
#ARTISTTRANSLIT:;
#GENRE:;
#CREDIT:;
#BANNER:YUME SOUTI (desmix).png;
#BACKGROUND:YUME SOUTI (desmix)-bg.png;
#LYRICSPATH:;
#CDTITLE:;
#MUSIC:YUME SOUTI (desmix).mp3;
#OFFSET:0.000000;
#SAMPLESTART:0.462000;
#SAMPLELENGTH:12.000000;
#SELECTABLE:YES;
#BPMS:0.000000=130.000000
,97.000000=170.000000
;
#STOPS:
;
#BGCHANGES:;
#KEYSOUNDS:;
#ATTACKS:;

//---------------dance-single - ----------------
#NOTES:
     dance-single:
     :
     Challenge:
     15:
     0.606863,0.681456,0.255669,0.137668,0.924342,432.000000,406.000000,26.000000,14.000000,0.000000,0.000000,0.606863,0.681456,0.255669,0.137668,0.924342,432.000000,406.000000,26.000000,14.000000,0.000000,0.000000:
// measure 0
0000
0000
0000
0010
0000
0010
1000
0000
1000
0001
0000
0001
,  // measure 1
0100
0000
0100
0010
0000
0010
1000
0000
1000
0100
0000
0100
,  // measure 2
0010
0000
0010
0001
0000
0001
1000
0000
1000
0010
0000
0010
,  // measure 3
0100
0000
0100
0001
0000
0001
0010
0000
0010
1000
0000
1000
,  // measure 4
0100
0000
0100
0010
0000
0020
0000
0000
1030
0000
0000
2000
,  // measure 5
0000
0000
3001
0001
0000
0001
1000
0000
1000
0010
0000
0010
,  // measure 6
0100
0000
0100
0001
0000
0001
1000
0000
1000
0100
0000
0100
,  // measure 7
1000
0000
1000
0010
0000
0010
0100
0000
0100
0001
0000
0001
,  // measure 8
1000
0000
1000
0110
0000
0010
1000
0000
1000
0100
0000
0100
,  // measure 9
0010
0000
0010
1001
0000
1000
0100
0000
0100
1000
0000
1000
,  // measure 10
0010
0000
0010
0101
0000
0001
0010
0000
0010
0100
0000
0100
,  // measure 11
1000
0000
1000
1010
0000
0010
0100
0000
0100
0001
0000
0001
,  // measure 12
1000
0000
1000
0010
0000
0200
0000
0000
0301
0000
0000
0002
,  // measure 13
0000
0000
1003
0000
0000
0010
0100
0000
0010
0100
0000
0010
,  // measure 14
0100
0000
1001
0001
0000
0001
0100
0000
0100
0010
0000
0010
,  // measure 15
1000
0000
1000
0100
0000
0100
0001
0000
0001
0100
0000
0100
,  // measure 16
1000
0000
1000
0020
0000
0000
0100
0000
0000
0000
0000
0000
,  // measure 17
0230
0000
0001
0000
,  // measure 18
0302
0000
1000
0000
,  // measure 19
2003
0000
0010
0000
,  // measure 20
3020
0000
0001
0000
,  // measure 21
0032
0000
0100
0000
,  // measure 22
0203
0000
1000
0000
,  // measure 23
2300
0000
0010
0000
,  // measure 24
3010
1000
1000
1000
,  // measure 25
1000
1001
0001
0001
,  // measure 26
0001
0000
0000
0100
0000
0100
0001
0000
0001
1000
0000
1000
,  // measure 27
0010
0000
0010
0100
0000
0100
0001
0000
0001
0010
0000
0010
,  // measure 28
0100
0000
0100
1000
0000
1000
0001
0000
0001
0100
0000
0100
,  // measure 29
0010
0000
0010
1000
0000
1000
0100
0000
0100
0001
0000
0001
,  // measure 30
0010
0000
0010
0100
0000
0100
0010
0000
0010
1000
0000
1000
,  // measure 31
0001
0000
0001
0100
0000
0100
0010
0000
0010
1000
0000
1000
,  // measure 32
0001
0000
0001
0100
0000
0100
0010
0000
0010
1000
0000
1000
,  // measure 33
0001
0000
0001
0100
0000
0100
0001
0000
0001
0010
0000
0010
,  // measure 34
0100
0000
0100
1000
0000
1000
0001
0000
1000
0001
0000
1000
,  // measure 35
0001
0000
0010
0100
0000
0000
0100
0000
0000
0100
0000
0000
,  // measure 36
1100
0000
0010
0100
0000
0100
1000
0000
1000
0010
0000
0010
,  // measure 37
0100
0000
0100
0001
0000
0001
0010
0000
0010
1000
0000
1000
,  // measure 38
0100
0000
0100
1000
0000
1000
0010
0000
0010
0100
0000
0100
,  // measure 39
0001
0000
0001
1001
0000
0000
1001
0000
1000
0001
0000
0000
,  // measure 40
1001
0000
0000
0010
0000
0010
0100
0000
0100
0001
0000
0001
,  // measure 41
1000
0000
1000
0001
0000
0001
0100
0000
0100
0010
0000
0010
,  // measure 42
1000
0000
1000
0100
0000
0100
0010
0000
0010
0001
0000
0001
,  // measure 43
1000
0000
1000
0010
0100
0010
0100
0010
0100
0010
0100
0010
,  // measure 44
0100
0010
0100
0010
0000
0010
1000
0000
1000
0010
0000
0010
,  // measure 45
1010
0000
0000
0100
0000
0100
0001
0000
0001
0100
0000
0100
,  // measure 46
0101
0000
0000
0010
0000
0010
0100
0000
0100
0010
0000
0010
,  // measure 47
0110
0000
0000
1000
0000
1000
0001
0000
0001
1000
0000
1000
,  // measure 48
1001
0000
0000
0010
0000
0010
0001
0000
0001
0010
0000
0010
,  // measure 49
0011
0000
0000
1000
0000
1000
0100
0000
0100
1000
0000
1000
,  // measure 50
1100
0000
0000
0010
0000
0010
0100
0000
0100
0001
0000
0001
,  // measure 51
1000
0000
1000
0110
0000
0000
1001
0000
0000
0110
0000
0000
,  // measure 52
0010
1000
0000
1000
,  // measure 53
0000
1001
0000
0110
,  // measure 54
0000
0011
0000
0001
,  // measure 55
0000
0000
0000
0010
0100
0010
0100
0010
0100
0010
0100
0010
,  // measure 56
0100
0010
0100
0010
0000
1000
0001
0000
0100
0010
0000
0100
,  // measure 57
0001
0000
0010
0100
0000
1000
0010
0000
0100
0001
0000
0010
,  // measure 58
0100
0000
0010
0001
0000
1000
0010
0000
0100
0001
0000
1000
,  // measure 59
0100
0000
1000
0110
0000
0000
0110
0000
0000
0110
0000
0000
,  // measure 60
0000
0000
0000
1000
0100
0010
0001
0010
0100
1000
0100
0010
,  // measure 61
0001
0010
0100
1000
0100
0010
0001
0010
0100
0202
0000
0000
,  // measure 62
0000
0000
0000
0000
,  // measure 63
0303
0000
0000
0000
;
