#TITLE:Set Fire To The Rain;
#SUBTITLE:;
#ARTIST:Adele;
#TITLETRANSLIT:;
#SUBTITLETRANSLIT:;
#ARTISTTRANSLIT:;
#GENRE:;
#CREDIT:;
#BANNER:Set Fire To The Rain.png;
#BACKGROUND:;
#LYRICSPATH:;
#CDTITLE:;
#MUSIC:Set Fire To The Rain.ogg;
#OFFSET:-0.016;
#SAMPLESTART:41.060;
#SAMPLELENGTH:12.000;
#SELECTABLE:YES;
#BPMS:0.000=108.106,187.875=215.990,188.125=108.272;
#STOPS:;
#TIMESIGNATURES:0.000=4=4
;
#BGCHANGES:;
#KEYSOUNDS:;

//---------------dance-single - ----------------
#NOTES:
     dance-single:
     :
     Hard:
     7:
     0.352,0.332,0.121,0.182,0.074,249.000,14.000,21.000,0.000,0.000,0.000,0.352,0.332,0.121,0.182,0.074,249.000,14.000,21.000,0.000,0.000,0.000:
0000
0000
0000
0000
,
0000
0000
0000
0000
,
0000
0000
0000
0000
,
0000
0000
0000
0000
0000
0000
0000
0000
0000
0000
0000
0000
0000
1000
0001
0100
,
0010
0000
0000
0000
0000
0000
0000
1000
,
0100
0000
0000
0000
0000
0010
0001
1000
,
0100
0000
0000
1000
0100
1000
0100
0000
,
0000
0000
0001
0000
0000
0000
0000
0000
0000
0000
0000
0000
0000
0000
0001
0010
,
0100
0000
0000
0000
0000
0000
0000
0000
0000
0000
0000
1000
0100
1000
0100
0000
,
0010
0000
0000
0000
0000
0010
0100
0010
,
1001
0110
1001
0000
0000
0010
0100
1100
,
0000
0101
0000
0000
0000
1000
0001
0100
,
0010
0000
0000
1000
0100
0000
0001
0100
,
1000
0100
0001
0100
1000
0100
0001
0100
,
0010
0000
0000
0001
0100
0000
1000
0100
,
0001
0100
1000
0100
0001
0100
1000
0100
,
0010
0000
0000
1000
0001
0000
0010
0001
,
1000
0001
0010
0001
1000
0002
0000
0000
,
1000
0000
1003
0100
0100
0000
0110
0000
,
1000
0001
0000
0000
0001
0100
0000
0000
0100
0010
0000
0000
0000
0000
0001
1000
,
0200
0000
0000
1300
0000
0001
0010
2000
,
0000
0000
3001
0100
0000
0010
0001
0020
,
0000
0230
0000
0000
0000
0310
1000
0100
,
0000
0010
0001
0100
0000
1000
0100
0001
,
0000
1000
0010
0001
0000
0001
0100
1000
,
0200
0000
0000
0000
0000
0000
1000
1300
,
0001
1000
0000
0000
0000
0001
0000
0000
0000
0000
0010
0000
0001
0000
2000
0000
,
0000
0000
3100
0000
0001
0100
0001
0020
,
0000
0130
0000
0000
0000
0001
1000
0001
,
0100
0000
1000
0001
1000
0000
1000
0200
,
0000
2300
0000
3001
0000
0010
1000
0002
,
0000
0000
0103
0010
1000
0100
1000
0020
,
0000
0130
0000
0000
0000
1000
0001
1000
,
0000
0100
0001
1000
0001
0000
0001
0200
,
0000
0302
0000
2003
0000
3100
1100
0000
,
1000
0010
0000
0000
0010
0100
0000
0000
0100
0001
0000
0000
0000
0000
0001
0010
,
0200
0000
0000
1300
0000
0001
1000
0001
,
0200
0000
0301
0000
0010
0001
1000
0020
,
0000
0230
0000
0000
0000
0310
0100
0101
,
0000
0010
0100
1100
0000
1000
0001
0011
,
0000
0001
0010
1010
0000
1000
0101
0001
,
2200
0000
0000
0000
3000
0010
0010
0310
,
0001
1000
0000
0000
0000
0000
0000
0000
1000
0001
0000
0000
0000
0000
0000
0000
,
1000
0000
0100
0000
1000
0000
0001
0100
,
0000
0100
0001
0000
1000
0010
1000
0010
,
0001
0000
0100
0000
0001
0000
1000
0100
,
0000
0100
1000
0000
0001
0010
0001
0010
,
1000
0000
0100
0000
1000
0000
0001
0100
,
0000
0100
0001
0000
1000
0010
1000
0010
,
0001
0000
0100
0000
0001
0000
1000
0100
,
0000
0100
1000
0000
0001
0010
0001
0010
,
1001
0000
0000
0000
;

//---------------dance-single - ----------------
#NOTES:
     dance-single:
     :
     Beginner:
     1:
     0.110,0.111,0.035,0.000,0.000,85.000,4.000,0.000,0.000,0.000,0.000,0.110,0.111,0.035,0.000,0.000,85.000,4.000,0.000,0.000,0.000,0.000:
0000
0000
0000
0000
,
0000
0000
0000
0000
,
0000
0000
0000
0000
,
0000
0000
0000
0000
,
1000
0000
0000
0000
,
1000
0000
0000
0000
,
0001
0000
0000
0000
,
0001
0000
0000
0000
,
1000
0000
0000
0000
,
1000
0000
0000
0000
,
0001
0000
0000
0000
,
0001
0000
0000
0000
,
0100
0000
0100
0000
,
0010
0000
0010
0000
,
0100
0000
0100
0000
,
0010
0000
0010
0000
,
1000
0000
0001
0000
,
1000
0000
0001
0000
,
0010
0000
0100
0000
,
0010
0010
0010
0000
,
0100
0100
0100
0000
,
0010
0000
0100
0000
,
0010
0010
0010
0000
,
1000
0000
0001
0000
,
1000
0000
0001
0000
,
1001
0000
0000
0000
,
1001
0000
0000
0000
,
0001
0000
1000
0000
,
0001
0000
0000
0000
,
1000
0000
0001
0000
,
1000
0000
0000
0000
,
1000
0000
0010
0000
,
0001
0000
0000
0000
,
0001
0000
0100
0000
,
1000
0000
0000
0000
,
0100
0100
0100
0000
,
0010
0010
0010
0000
,
0100
0000
0010
0000
,
0100
0100
0100
0000
,
0001
0000
1000
0000
,
0001
0000
1000
0000
,
1001
0000
0000
0000
,
1001
0000
0000
0000
,
0010
0000
0010
0000
,
0010
0000
0010
0000
,
0100
0000
0100
0000
,
0100
0000
0100
0000
,
1000
0000
1000
0000
,
1000
0000
1000
0000
,
0001
0000
0001
0000
,
0001
0000
0001
0000
,
0001
0000
0000
0000
;

//---------------dance-single - Medium----------------
#NOTES:
     dance-single:
     Medium:
     Easy:
     2:
     0.125,0.111,0.078,0.000,0.000,92.000,9.000,0.000,0.000,0.000,0.000,0.125,0.111,0.078,0.000,0.000,92.000,9.000,0.000,0.000,0.000,0.000:
0000
0000
0000
0000
,
0000
0000
0000
0000
,
0000
0000
0000
0000
,
0000
0000
0000
0000
,
1000
0000
0000
0000
,
0100
0000
0000
0000
,
0001
0000
1000
1000
,
0000
0001
0000
0000
,
0001
0000
0000
0000
,
0100
0000
0000
0000
,
1000
0001
0000
0000
,
0001
0010
0100
0000
,
1001
0000
0100
0000
,
0010
0000
0010
0000
,
1001
0000
0100
0000
,
0001
0000
0001
0000
,
1001
0000
0001
0000
,
0010
0000
0010
0000
,
0100
0000
0100
0000
,
1001
0000
0000
0000
,
0100
0100
0000
0010
,
1000
0100
0000
0000
,
1001
0000
0000
0000
,
0001
0000
0100
0000
,
1000
0000
0100
0000
,
0001
0000
0000
0000
,
0010
0000
0000
0000
,
1000
0000
0001
0000
,
1001
0000
0000
0000
,
0001
0000
1000
0000
,
1001
0000
0000
0000
,
1000
0100
1000
0000
,
0001
0100
0001
0000
,
1000
0000
0001
0000
,
1000
0001
1000
0000
,
0110
0000
0000
0000
,
1000
0001
0000
0010
,
1000
0100
0000
0000
,
0110
0000
0000
0000
,
1000
0000
0010
0000
,
0001
0000
0010
0000
,
0100
0000
0000
0000
,
1000
0000
0100
0000
,
1000
0001
0100
0000
,
0001
0000
0001
0000
,
0001
1000
0100
0000
,
1000
0000
1000
0000
,
1000
0010
1000
0000
,
0100
0000
0100
0000
,
0001
0010
0001
0000
,
0100
0000
0100
0000
,
0100
0000
0000
0000
;

//---------------dance-single - ----------------
#NOTES:
     dance-single:
     :
     Medium:
     4:
     0.220,0.243,0.052,0.052,0.000,166.000,6.000,6.000,0.000,0.000,0.000,0.220,0.243,0.052,0.052,0.000,166.000,6.000,6.000,0.000,0.000,0.000:
0000
0000
0000
0000
,
0000
0000
0000
0000
,
0000
0000
0000
0000
,
0000
0000
0000
0000
,
1001
0000
0000
0000
,
0100
0000
0000
1000
,
0100
0000
0001
0100
,
0000
0010
0000
0000
0000
0000
0000
0000
,
1001
0000
0000
0000
,
0010
0000
0000
1000
,
0001
0100
0001
0000
0000
0000
0000
0000
,
1000
0100
1000
0001
,
1000
0000
0001
0000
,
1000
0100
1000
0000
0001
0100
0001
0000
,
0001
0000
1000
0000
,
0001
0100
0001
0000
1000
0100
1000
0000
,
0010
0000
0100
0000
,
0010
1000
0100
0000
0010
0001
0200
0000
,
0000
0000
0000
0010
0310
0000
1001
0000
,
0010
0000
0010
0000
0010
0000
0000
0001
,
1000
0000
1000
0000
0000
1000
0001
0000
,
1000
0000
0100
0000
0001
0000
1000
0001
,
0000
0010
0000
0000
0000
0001
0000
0100
,
0000
0010
0000
1000
0000
0100
0000
0010
,
0000
0001
0000
1000
0000
0001
0100
0010
,
2000
0000
0000
0000
3100
0100
2000
0000
,
0000
0000
0000
3100
,
0100
0000
1000
0000
0010
0000
1000
0100
,
0000
0001
0000
0001
0000
0001
0100
0000
,
0100
0000
0001
0000
0010
0000
0001
0100
,
0000
1000
0000
1000
0100
0000
0100
0000
,
0010
0010
0010
1000
,
0001
0001
0001
0100
,
0010
0100
0010
0000
0010
0100
0010
0000
,
0110
0000
0110
0000
0000
0100
0100
0000
,
0010
0000
0010
0000
0010
0000
0000
1000
,
0001
0000
0001
0000
0000
0001
1000
0000
,
0001
0000
0100
0000
1000
0000
0001
1000
,
0000
0010
0000
0000
0000
1000
0000
0100
,
0000
0010
0000
0001
0000
0100
0000
0010
,
0000
1000
0000
0001
0000
1000
0100
0010
,
0002
0000
0000
0000
0103
0100
0002
0000
,
0000
2003
0000
3000
,
0100
0000
0100
0000
,
0100
0000
0000
0100
0000
0000
0100
0000
,
0010
0000
0010
0000
,
0010
0000
0000
0010
0000
0000
0010
0000
,
1000
0100
1000
0100
,
0001
0100
0001
0100
,
1000
0001
1000
0001
,
1000
0000
0000
0010
0000
0000
1000
0000
,
1100
0000
0000
0000
;

//---------------dance-double - ----------------
#NOTES:
     dance-double:
     :
     Hard:
     7:
     0.349,0.332,0.104,0.182,0.074,249.000,12.000,21.000,0.000,0.000,0.000,0.349,0.332,0.104,0.182,0.074,249.000,12.000,21.000,0.000,0.000,0.000: // measure 1
00000000
00000000
00000000
00000000
,  // measure 2
00000000
00000000
00000000
00000000
,  // measure 3
00000000
00000000
00000000
00000000
,  // measure 4
00000000
00000000
00000000
00000000
00000000
00000000
00000000
00000000
00000000
00000000
00000000
00000000
00000000
10000000
00010000
01000000
,  // measure 5
00100000
00000000
00000000
00000000
00000000
00000000
00000000
10000000
,  // measure 6
01000000
00000000
00000000
00000000
00000000
00100000
00010000
10000000
,  // measure 7
00100000
00000000
00000000
01000000
00100000
01000000
00100000
00000000
,  // measure 8
00000000
00000000
00001000
00000000
00000000
00000000
00000000
00000000
00000000
00000000
00000000
00000000
00000000
00000000
00001000
00010000
,  // measure 9
00100000
00000000
00000000
00000000
00000000
00000000
00000000
00000000
00000000
00000000
00000000
01000000
00100000
01000000
00100000
00000000
,  // measure 10
00010000
00000000
00000000
00000000
00000000
00010000
00100000
00010000
,  // measure 11
00100000
00011000
00100000
00000000
00000000
00001000
00010000
00110000
,  // measure 12
00000000
00010100
00000000
00000000
00000000
00100000
00000100
00010000
,  // measure 13
00001000
00000000
00000000
00100000
00010000
00000000
00000100
00010000
,  // measure 14
00100000
00010000
00000100
00010000
00100000
00010000
00000100
00010000
,  // measure 15
00000100
00000000
00000000
00000010
00001000
00000000
00010000
00001000
,  // measure 16
00000010
00001000
00010000
00001000
00000010
00001000
00010000
00001000
,  // measure 17
00000100
00000000
00000000
00010000
00000010
00000000
00000100
00000010
,  // measure 18
00010000
00000010
00000100
00000010
00010000
00000020
00000000
00000000
,  // measure 19
00010000
00000000
00010030
00001000
00001000
00000000
00001100
00000000
,  // measure 20
00001000
00000001
00000000
00000000
00000001
00000100
00000000
00000000
00000100
00000010
00000000
00000000
00000000
00000000
00000001
00001000
,  // measure 21
00000200
00000000
00000000
00001300
00000000
00000001
00000010
00002000
,  // measure 22
00000000
00000000
00003001
00000100
00000000
00000010
00000001
00000020
,  // measure 23
00000000
00000230
00000000
00000000
00000000
00000310
00001000
00000100
,  // measure 24
00000000
00000100
00000010
00001000
00000000
00010000
00001000
00000010
,  // measure 25
00000000
00010000
00000100
00000010
00000000
00000010
00001000
00010000
,  // measure 26
00002000
00000000
00000000
00000000
00000000
00000000
00010000
00013000
,  // measure 27
00000010
00010000
00000000
00000000
00000000
00000010
00000000
00000000
00000000
00000000
00000100
00000000
00000010
00000000
00020000
00000000
,  // measure 28
00000000
00000000
00031000
00000000
00000010
00001000
00000010
00000200
,  // measure 29
00000000
00001300
00000000
00000000
00000000
00000010
00010000
00000010
,  // measure 30
00010000
00000000
00100000
00000100
00100000
00000000
00100000
00020000
,  // measure 31
00000000
00230000
00000000
00300100
00000000
00001000
00100000
00000200
,  // measure 32
00000000
00000000
00010300
00001000
00100000
00010000
00100000
00002000
,  // measure 33
00000000
00013000
00000000
00000000
00000000
00100000
00000100
00100000
,  // measure 34
00000000
00100000
00001000
01000000
00001000
00000000
00001000
00200000
,  // measure 35
00000000
00302000
00000000
02003000
00000000
03100000
01100000
00000000
,  // measure 36
01000000
00010000
00000000
00000000
00010000
00100000
00000000
00000000
00100000
00001000
00000000
00000000
00000000
00000000
00001000
00010000
,  // measure 37
00200000
00000000
00000000
01300000
00000000
00001000
01000000
00001000
,  // measure 38
02000000
00000000
03010000
00000000
00100000
00010000
10000000
00200000
,  // measure 39
00000000
02300000
00000000
00000000
00000000
03100000
01000000
01010000
,  // measure 40
00000000
00100000
01000000
11000000
00000000
10000000
00010000
00110000
,  // measure 41
00000000
00010000
00100000
10100000
00000000
10000000
01010000
00010000
,  // measure 42
02200000
00000000
00000000
00000000
03000000
00010000
00010000
00310000
,  // measure 43
00001000
01000000
00000000
00000000
00000000
00000000
00000000
00000000
01000000
00001000
00000000
00000000
00000000
00000000
00000000
00000000
,  // measure 44
01000000
00000000
00100000
00000000
01000000
00000000
00001000
00100000
,  // measure 45
00000000
00100000
00001000
00000000
01000000
00010000
01000000
00010000
,  // measure 46
00000100
00000000
00010000
00000000
00000100
00000000
00100000
00010000
,  // measure 47
00000000
00010000
00100000
00000000
00000100
00001000
00000100
00001000
,  // measure 48
00100000
00000000
00010000
00000000
00100000
00000000
00000100
00010000
,  // measure 49
00000000
00010000
00000100
00000000
00100000
00001000
00100000
00001000
,  // measure 50
00000010
00000000
00001000
00000000
00000010
00000000
00010000
00001000
,  // measure 51
00000000
00001000
00010000
00000000
00000010
00000100
00000010
00000100
,  // measure 52
00010010
00000000
00000000
00000000
;

//---------------dance-double - Medium----------------
#NOTES:
     dance-double:
     Medium:
     Easy:
     2:
     0.120,0.111,0.043,0.000,0.000,92.000,5.000,0.000,0.000,0.000,0.000,0.120,0.111,0.043,0.000,0.000,92.000,5.000,0.000,0.000,0.000,0.000: // measure 1
00000000
00000000
00000000
00000000
,  // measure 2
00000000
00000000
00000000
00000000
,  // measure 3
00000000
00000000
00000000
00000000
,  // measure 4
00000000
00000000
00000000
00000000
,  // measure 5
10000000
00000000
00000000
00000000
,  // measure 6
01000000
00000000
00000000
00000000
,  // measure 7
00010000
00000000
10000000
10000000
,  // measure 8
00000000
00001000
00000000
00000000
,  // measure 9
00001000
00000000
00000000
00000000
,  // measure 10
00100000
00000000
00000000
00000000
,  // measure 11
01000000
00001000
00000000
00000000
,  // measure 12
00000100
00001000
00010000
00000000
,  // measure 13
00100000
00000000
00010000
00000000
,  // measure 14
00001000
00000000
00001000
00000000
,  // measure 15
00100000
00000000
00010000
00000000
,  // measure 16
00000010
00000000
00000010
00000000
,  // measure 17
00010010
00000000
00000010
00000000
,  // measure 18
00000100
00000000
00000100
00000000
,  // measure 19
00001000
00000000
00001000
00000000
,  // measure 20
00001001
00000000
00000000
00000000
,  // measure 21
00000100
00000100
00000000
00000010
,  // measure 22
00001000
00000100
00000000
00000000
,  // measure 23
00001001
00000000
00000000
00000000
,  // measure 24
00000010
00000000
00001000
00000000
,  // measure 25
00010000
00000000
00001000
00000000
,  // measure 26
00000010
00000000
00000000
00000000
,  // measure 27
00000100
00000000
00000000
00000000
,  // measure 28
00100000
00000000
00000100
00000000
,  // measure 29
00100000
00000000
00000000
00000000
,  // measure 30
00000100
00000000
00100000
00000000
,  // measure 31
00100000
00000000
00000000
00000000
,  // measure 32
01000000
00100000
01000000
00000000
,  // measure 33
00001000
00100000
00001000
00000000
,  // measure 34
01000000
00000000
00001000
00000000
,  // measure 35
01000000
00001000
01000000
00000000
,  // measure 36
01100000
00000000
00000000
00000000
,  // measure 37
10000000
00010000
00000000
00100000
,  // measure 38
10000000
01000000
00000000
00000000
,  // measure 39
01100000
00000000
00000000
00000000
,  // measure 40
01000000
00000000
00010000
00000000
,  // measure 41
00001000
00000000
00010000
00000000
,  // measure 42
00100000
00000000
00000000
00000000
,  // measure 43
01000000
00000000
00100000
00000000
,  // measure 44
00100000
00000100
00010000
00000000
,  // measure 45
00000100
00000000
00000100
00000000
,  // measure 46
00000100
00100000
00010000
00000000
,  // measure 47
00100000
00000000
00100000
00000000
,  // measure 48
00010000
00000100
00010000
00000000
,  // measure 49
00001000
00000000
00001000
00000000
,  // measure 50
00000010
00000100
00000010
00000000
,  // measure 51
00001000
00000000
00001000
00000000
,  // measure 52
00000100
00000000
00000000
00000000
;

//---------------dance-double - ----------------
#NOTES:
     dance-double:
     :
     Medium:
     4:
     0.220,0.243,0.052,0.052,0.000,166.000,6.000,6.000,0.000,0.000,0.000,0.220,0.243,0.052,0.052,0.000,166.000,6.000,6.000,0.000,0.000,0.000: // measure 1
00000000
00000000
00000000
00000000
,  // measure 2
00000000
00000000
00000000
00000000
,  // measure 3
00000000
00000000
00000000
00000000
,  // measure 4
00000000
00000000
00000000
00000000
,  // measure 5
10010000
00000000
00000000
00000000
,  // measure 6
01000000
00000000
00000000
10000000
,  // measure 7
01000000
00000000
00010000
01000000
,  // measure 8
00000000
00010000
00000000
00000000
00000000
00000000
00000000
00000000
,  // measure 9
01001000
00000000
00000000
00000000
,  // measure 10
00010000
00000000
00000000
01000000
,  // measure 11
00001000
00100000
00001000
00000000
00000000
00000000
00000000
00000000
,  // measure 12
00100000
00010000
00100000
00000100
,  // measure 13
00100000
00000000
00000100
00000000
,  // measure 14
00100000
00010000
00100000
00000000
00000100
00010000
00000100
00000000
,  // measure 15
00000100
00000000
00100000
00000000
,  // measure 16
00000010
00001000
00000010
00000000
00010000
00001000
00010000
00000000
,  // measure 17
00000100
00000000
00001000
00000000
,  // measure 18
00000100
00010000
00001000
00000000
00000100
00000010
00002000
00000000
,  // measure 19
00000000
00000000
00000000
00000100
00003100
00000000
00010010
00000000
,  // measure 20
00000010
00000000
00000010
00000000
00000010
00000000
00000000
00000001
,  // measure 21
00001000
00000000
00001000
00000000
00000000
00001000
00000001
00000000
,  // measure 22
00001000
00000000
00000100
00000000
00000001
00000000
00001000
00000001
,  // measure 23
00000000
00000010
00000000
00000000
00000000
00000001
00000000
00000100
,  // measure 24
00000000
00000100
00000000
00010000
00000000
00001000
00000000
00000100
,  // measure 25
00000000
00000010
00000000
00010000
00000000
00000010
00001000
00000100
,  // measure 26
00020000
00000000
00000000
00000000
00031000
00001000
00020000
00000000
,  // measure 27
00000000
00000000
00000000
00031000
,  // measure 28
00010000
00000000
00100000
00000000
00001000
00000000
00100000
00010000
,  // measure 29
00000000
00000100
00000000
00000100
00000000
00000100
00010000
00000000
,  // measure 30
00010000
00000000
00000100
00000000
00001000
00000000
00000100
00010000
,  // measure 31
00000000
00100000
00000000
00100000
00010000
00000000
00010000
00000000
,  // measure 32
00010000
00010000
00010000
01000000
,  // measure 33
00001000
00001000
00001000
00100000
,  // measure 34
00010000
00100000
00010000
00000000
00010000
00100000
00010000
00000000
,  // measure 35
00110000
00000000
00110000
00000000
00000000
00100000
00100000
00000000
,  // measure 36
00100000
00000000
00100000
00000000
00100000
00000000
00000000
10000000
,  // measure 37
00010000
00000000
00010000
00000000
00000000
00010000
10000000
00000000
,  // measure 38
00010000
00000000
01000000
00000000
10000000
00000000
00010000
10000000
,  // measure 39
00000000
00100000
00000000
00000000
00000000
10000000
00000000
01000000
,  // measure 40
00000000
00010000
00000000
00001000
00000000
00100000
00000000
00010000
,  // measure 41
00000000
01000000
00000000
00001000
00000000
01000000
00100000
00010000
,  // measure 42
00002000
00000000
00000000
00000000
00103000
00100000
00002000
00000000
,  // measure 43
00000000
02003000
00000000
03000000
,  // measure 44
00010000
00000000
00010000
00000000
,  // measure 45
00010000
00000000
00000000
00010000
00000000
00000000
00010000
00000000
,  // measure 46
00001000
00000000
00001000
00000000
,  // measure 47
00001000
00000000
00000000
00001000
00000000
00000000
00001000
00000000
,  // measure 48
00010000
00001000
00010000
00001000
,  // measure 49
00000010
00001000
00000010
00001000
,  // measure 50
00010000
00000010
00010000
00000010
,  // measure 51
00010000
00000000
00000000
00000100
00000000
00000000
00010000
00000000
,  // measure 52
00001100
00000000
00000000
00000000
;
