#TITLE:X3;
#SUBTITLE:[UNFINISHED] v2;
#ARTIST:xRGTMx;
#TITLETRANSLIT:;
#SUBTITLETRANSLIT:;
#ARTISTTRANSLIT:;
#GENRE:;
#CREDIT:Telperion;
#BANNER:;
#BACKGROUND:;
#LYRICSPATH:;
#CDTITLE:;
#MUSIC:X3 [UNFINISHED] v2.mp3;
#OFFSET:-0.038;
#SAMPLESTART:34.324;
#SAMPLELENGTH:12.000;
#SELECTABLE:YES;
#BPMS:0.000=175.000;
#STOPS:;
#BGCHANGES:;
#KEYSOUNDS:;

//---------------dance-single - Telperion----------------
#NOTES:
     dance-single:
     Telperion:
     Challenge:
     10:
     0.802,1.000,0.517,0.292,1.000:
0000
0000
0000
0000
,
0000
0000
0000
0000
,
0000
0000
0000
0000
,
0000
0000
0000
0000
,
0000
0000
0000
0000
,
0000
0000
0000
0000
,
0000
0000
0000
0000
,
0000
0000
0000
0000
,
0000
0000
0000
0000
,
0000
0000
0000
0000
,
1000
0000
0001
0000
,
1000
1000
0001
0001
,
1000
0000
0000
0001
0000
0000
0100
0000
0000
0010
0000
1000
,
0100
0000
0000
0010
0000
0000
0001
0000
0010
0001
0000
0010
,
0100
0000
1000
0010
0000
0100
1000
0000
0100
0010
0000
1000
,
0100
0010
0001
0010
0100
1000
0010
0100
0001
0400
0000
0000
,
0310
0000
0000
0000
,
0000
0000
0000
0000
,
0000
0000
0000
0000
,
0000
0000
0000
0000
,
0002
0000
0003
0000
,
0200
0000
0300
0000
,
2000
0000
3000
0000
,
0100
0001
1000
0100
,
0001
0000
0000
1100
0000
0000
0001
0000
0000
1010
0000
1000
,
0100
0000
0000
0011
0000
0000
0100
0000
0010
1000
0000
1000
,
0100
0000
0000
1100
0000
0000
0001
0000
0000
0101
0000
0001
,
0010
0000
0010
0100
0000
0100
1000
0100
0010
0001
0100
0001
,
0010
0000
0010
0100
0000
0100
1000
0000
1000
0001
0000
0001
,
0100
0000
0100
0010
0000
0010
1000
0001
1000
0100
0010
0001
,
0100
0000
0010
1000
0000
0100
0001
0000
0100
1000
0000
0010
,
0100
0001
0100
0010
0100
0001
0010
0100
0010
0001
1000
0100
,
0020
0000
0000
0000
,
0031
0000
0000
0011
0000
0000
1000
0000
0000
0101
0000
0100
,
1000
0000
0000
1001
0000
0000
0101
0000
0100
0010
0000
0010
,
1000
0000
0000
1100
0000
0000
0010
0000
0000
0011
0000
0001
,
0100
0000
0100
0010
0000
0010
1000
0000
1000
0100
0010
0001
,
0100
0000
0000
1010
0000
0000
0100
0000
0000
0011
0000
0001
,
1000
0000
0000
0110
0000
0000
0001
0000
0001
1000
0000
1000
,
0010
0000
0000
1001
0000
0000
0010
0000
0000
0101
0000
0100
,
0010
0000
1000
0100
0000
0010
0001
0000
0100
0010
1000
0100
,
0010
0000
0000
0101
0000
0000
0010
0000
0000
1100
0000
1000
,
0001
0000
0000
1010
0000
0000
0100
0000
0001
0010
0000
0100
,
1000
0000
0000
1100
0000
0000
0001
0000
0000
0101
0000
0100
,
0001
0000
0001
0010
0000
0010
1000
0000
1000
0100
0000
0100
,
0001
0000
0000
1100
0000
1000
0010
0000
0000
0110
0000
0100
,
0001
0000
0001
0010
0000
0010
0100
0000
0110
0000
0000
0000
,
0010
0000
0000
0011
0000
0000
1000
0000
0000
0011
0000
1000
,
0100
0000
0010
0100
0000
1000
0010
1000
0010
0100
0010
0100
,
0001
0000
0001
0010
0000
0010
0100
0000
0100
1000
0000
1000
,
0001
0000
0010
1000
0000
0001
0100
0000
0100
1000
0000
1000
,
0010
0000
0010
0100
0000
0100
1000
0000
0000
1100
0000
0100
,
0001
0000
0001
0010
0000
0010
0100
0000
0100
1000
0100
1000
,
0010
0000
0010
0100
0000
0100
0010
0000
0110
0000
0000
0100
,
0010
1000
0001
0100
0010
1000
0100
0000
1100
0000
0000
0000
,
1000
0011
0100
0011
,
0100
0000
0010
1000
0000
0100
0010
0000
0001
0010
0000
0100
,
1000
0000
1000
0001
0000
0100
1000
0000
1000
0001
0000
0001
,
0010
0100
0010
1000
0100
1000
0010
0000
0010
0100
0000
0100
,
0001
0000
0001
0010
0000
0010
0100
0000
0100
1000
0000
1000
,
0001
0000
1000
0010
0000
0100
1000
0000
0100
0010
0000
1000
,
0100
0000
0010
0001
0000
0010
0100
0000
0100
0010
0000
0010
,
0001
0000
0100
1000
0000
0100
0010
0000
0010
0100
0000
0100
,
0001
0000
0010
0100
0000
1000
0010
0000
1000
0100
0000
0010
,
0001
0000
0100
0010
0000
0100
0001
0000
0010
0100
1000
0001
,
0010
0000
0010
0001
0000
0001
1000
0000
1000
0010
0000
0010
,
0100
0000
0102
0000
0013
0000
0110
0000
0000
0100
0010
0001
,
0100
0000
0100
0010
0000
0010
1000
0000
1000
0001
0000
0001
,
0010
0000
0210
0000
1300
0000
1010
0000
0000
4000
0000
0000
,
3001
0000
0001
0100
0000
0100
0010
0000
0010
1000
0000
1000
,
0100
0000
0120
0000
0031
0000
0101
0000
0000
0400
0000
0000
,
0310
1100
0010
0101
,
0010
0000
2010
0000
3100
0000
0110
0000
0000
0040
0000
0000
,
0031
1010
0101
1100
,
0012
0000
0103
0000
0110
0000
0011
0000
0000
1000
0100
0010
,
0001
0000
0001
1000
0000
1000
0100
0000
0100
0010
0000
0010
,
0001
0000
2100
0000
3010
0000
0110
0000
0000
0400
0000
0000
,
0310
0000
0000
0101
0000
0000
1010
0000
0000
0011
0000
0001
,
2000
0000
0001
0000
3100
0000
0110
0000
0000
0001
0100
0010
,
1000
0100
1000
0001
0100
0001
0010
0001
1000
0010
1000
0001
,
1000
0000
0201
0000
1300
0000
4004
0000
0000
0000
0000
3003
,
0020
0000
0000
0000
,
0000
0000
0000
0000
,
0030
0000
0000
0000
,
0000
0000
0000
0000
,
2000
0000
0000
0000
,
3200
0000
0000
0000
,
0302
0000
0023
0000
,
2030
3200
0320
0032
,
0203
0000
0320
0000
,
2030
0000
3200
0000
,
0302
0000
0023
0000
,
0230
0302
0023
0230
,
1300
0000
0000
0010
0000
0000
0100
0000
0000
0001
0000
1000
,
0010
0000
0000
0100
0000
0000
0001
0000
1000
0100
0000
0010
,
0001
0000
0000
1000
0000
0000
0100
0000
0000
0010
0000
0001
,
0100
0000
0000
0010
0000
0000
1000
0000
0001
0100
0000
0010
,
1000
0000
0000
0001
0000
0000
0100
0000
0000
0010
0000
0100
,
0001
0000
0000
1000
0000
0000
0100
0000
0010
0100
0000
1000
,
0001
0000
0010
0100
0000
1000
0001
0000
0100
1000
0000
0100
,
0001
0010
0100
0001
0100
0010
0001
0100
0010
0001
0010
0100
,
0004
4000
0000
0000
0000
0000
0000
0000
0000
0000
0000
0000
,
0000
0000
0000
0000
,
0000
0000
0000
0000
,
0000
0000
0000
0000
,
3003
0000
0000
0000
;

//---------------dance-single - Expert----------------
#NOTES:
     dance-single:
     Expert:
     Beginner:
     1:
     0.003,0.072,0.009,0.000,0.000:
0000
0000
0000
0000
,
0000
0000
0000
0000
,
0000
0000
0000
0000
,
0000
0000
0000
0000
,
0000
0000
0000
0000
,
0000
0000
0000
0000
,
0000
0000
0000
0000
,
0000
0000
0000
0000
,
0000
0000
0000
0000
,
0000
0000
0000
0000
,
0000
0000
0000
0000
,
0000
0000
0000
0000
,
0000
0000
0000
0000
,
0000
0000
0000
0000
,
0000
0000
0000
0000
,
0000
0000
0000
0000
,
0000
0000
0000
0000
,
0000
0000
0000
0000
,
0000
0000
0000
0000
,
0000
0000
0000
0000
,
0000
0000
0000
0000
,
0000
0000
0000
0000
,
0000
0000
0000
0000
,
0000
0000
0000
0000
,
0000
0000
0000
0000
,
0000
0000
0000
0000
,
0000
0000
0000
0000
,
0000
0000
0000
0000
,
0000
0000
0000
0000
,
0000
0000
0000
0000
,
0000
0000
0000
0000
,
0000
0000
0000
0000
,
0000
0000
0000
0000
,
0000
0000
0000
0000
,
0000
0000
0000
0000
,
0000
0000
0000
0000
,
0000
0000
0000
0000
,
0000
0000
0000
0000
,
0000
0000
0000
0000
,
0000
0000
0000
0000
,
0000
0000
0000
0000
,
0000
0000
0000
0000
,
0000
0000
0000
0000
,
0000
0000
0000
0000
,
0000
0000
0000
0000
,
0000
0000
0000
0000
,
0000
0000
0000
0000
,
0000
0000
0000
0000
,
0000
0000
0000
0000
,
0000
0000
0000
0000
,
0000
0000
0000
0000
,
0000
0000
0000
0000
,
0000
0000
0000
0000
,
0000
0000
0000
0000
,
0000
0000
0000
0000
,
0000
0000
0000
0000
,
0000
0000
0000
0000
,
0000
0000
0000
0000
,
0000
0000
0000
0000
,
0000
0000
0000
0000
,
0000
0000
0000
0000
,
0000
0000
0000
0000
,
0000
0000
0000
0000
,
0000
0000
0000
0000
,
0000
0000
0000
0000
,
0000
0000
0000
0000
,
0000
0000
0000
0000
,
0000
0000
0000
0000
,
0000
0000
0000
0000
,
0000
0000
0000
0000
,
0000
0000
0000
0000
,
0000
0000
0000
0000
,
0000
0000
0000
0000
,
0000
0000
0000
0000
,
0000
0000
0000
0000
,
0000
0000
0000
0000
,
0000
0000
0000
0000
,
1001
0000
0000
0000
;
