#TITLE:World Go Boom;
#SUBTITLE:United State of Pop 2011;
#ARTIST:DJ Earworm remixing;
#TITLETRANSLIT:;
#SUBTITLETRANSLIT:;
#ARTISTTRANSLIT:;
#GENRE:;
#CREDIT:Telperion;
#BANNER:wgb-bn.png;
#BACKGROUND:wgb-bg.png;
#LYRICSPATH:;
#CDTITLE:;
#MUSIC:usop2011.ogg;
#OFFSET:-0.882;
#SAMPLESTART:102.473;
#SAMPLELENGTH:30.909;
#SELECTABLE:YES;
#DISPLAYBPM:132.000;
#BPMS:0.000=132.000
;
#STOPS:
;
#BGCHANGES:;
#KEYSOUNDS:;
#ATTACKS:;

//---------------dance-single - ----------------
#NOTES:
     dance-single:
     :
     Challenge:
     9:
     0.527,0.545,0.253,0.384,0.148,857.000,71.000,108.000,2.000,0.000,0.000,0.527,0.545,0.253,0.384,0.148,857.000,71.000,108.000,2.000,0.000,0.000:
0000
0000
0000
0000
,
1001
1000
0000
0001
0010
0001
0000
0100
,
0010
1000
0000
0010
0100
0010
0000
1000
,
0001
0010
0000
0010
0001
0010
0000
0010
,
0100
1000
0000
0001
1000
0001
0100
0200
,
0000
0300
0100
0100
0010
0100
0001
1000
,
0100
0000
0010
0100
0000
0100
1000
0020
,
0000
0230
0000
0301
0000
0100
0000
2000
,
0000
0000
0000
0000
0000
3000
0100
0010
,
0100
0000
0100
0001
0100
0000
0010
0100
,
0002
0000
0000
0000
0013
0000
0001
0100
0000
0000
0000
0000
0001
0000
0010
0000
,
2000
0000
3010
0100
0010
0001
0010
0000
,
0100
1000
0100
0010
0100
0000
0000
0110
,
0010
0000
0001
0000
1000
0001
0100
0001
,
0010
0000
0000
0001
0100
0020
0000
2030
,
0000
3010
0000
0100
0010
0000
0100
0002
,
0003
0001
0010
0100
1000
0001
0010
0001
,
0100
0000
0000
0100
0000
0000
0010
0000
0000
0010
0000
0000
1000
0000
0001
0000
,
1000
0000
0000
1000
0000
0000
0100
0000
0000
0100
0000
0000
0010
0000
0200
0000
,
0001
0000
0000
0010
0000
0000
1000
0000
0000
0010
0000
0300
0100
0000
2000
0000
,
0010
0000
3000
1000
0001
0000
0100
0000
0110
0000
0000
0000
0100
0000
0000
0000
,
0101
0000
0000
0100
0000
0000
0010
0000
0000
0010
0000
0000
1000
0000
0001
0000
,
1000
0000
0000
1000
0100
0000
1000
0000
0001
0000
0000
0001
0100
0000
0001
0000
,
1000
0100
0010
1000
0001
0100
1000
0010
,
0100
0000
0010
0100
0100
0000
0100
0000
,
1001
0000
0000
0001
1000
0000
0100
0000
1000
0001
0000
0000
0100
0000
0010
0000
,
1000
0000
0000
1000
0001
0000
0010
0000
0001
0100
0000
0000
0010
0000
1000
0000
,
0020
0000
0230
0000
0302
0000
0013
0010
,
0200
0000
0320
0000
0130
1000
0001
0000
,
1001
0000
1000
0000
0010
0000
1000
0000
0001
1000
0000
0000
0100
0000
0010
0000
,
0001
0000
0000
0001
0100
0000
0010
0000
0100
0000
0000
0100
0001
0000
0010
0000
,
0200
0000
1300
0200
0000
1300
0002
0100
,
0103
0000
0000
0010
0000
0000
0100
0000
0010
0000
1001
0000
0100
0000
0010
0000
,
1002
0000
1003
2100
3000
0000
0001
1000
,
0001
0100
0001
0000
1000
0100
1000
0000
0001
0000
0011
0000
0001
0000
1000
0000
,
2001
0000
3001
0101
0100
0001
0100
0000
,
2000
0000
0000
0000
3100
0000
0110
0000
0000
0000
1010
0000
0000
1001
0000
0000
,
0021
0000
0000
0000
0130
0000
1000
0000
0001
0100
0010
0000
0100
0000
0002
0000
,
0000
0003
0000
0101
0100
0110
0000
1000
,
1020
0000
0000
0000
0130
0000
0001
0000
1000
0100
0010
0000
0100
0000
2000
0000
,
0000
0001
0000
3100
1000
0100
0010
0000
,
0110
0000
0000
0001
0000
0000
1010
0000
0000
0000
1000
0000
0001
0000
0100
0000
,
0200
0000
0300
0101
0000
0101
0010
0000
,
0110
0000
0000
1000
0000
0000
0011
0000
0000
0000
1000
0000
0100
0000
0010
0000
,
0020
0000
0030
0110
0000
0110
0100
0100
,
1000
0000
0000
0010
0000
0000
0200
0000
0300
0000
0010
0000
1000
0000
0000
0000
,
0001
0010
0000
0110
0000
1100
1000
0020
,
0000
1030
0010
0100
0001
1000
1000
1000
,
0001
0010
0100
0001
0001
0100
1000
0001
,
1001
0000
0101
0000
1001
1000
0100
0001
,
0000
0100
2000
0000
3002
0000
0103
0100
,
0010
1000
0100
0000
0010
0001
0100
0010
,
0001
0010
1000
0001
0000
1000
0001
0010
,
0100
0000
1000
0010
0100
1000
0100
0001
,
0020
0000
0130
0020
0100
0130
1000
0001
,
0200
0300
0000
0000
0000
0000
0000
0000
,
0000
0000
0000
0000
,
1001
0000
0000
1000
0001
0000
0100
0000
0000
0010
1000
0000
0100
0000
0010
0000
,
0001
0000
0000
0010
0100
0000
1000
0000
0000
0001
0100
0000
0010
0000
0100
0000
,
0001
0000
0000
0100
0000
0000
0001
0000
0000
0100
0000
0000
0010
0000
1000
0000
,
0100
0000
0010
0100
0100
0000
0100
0000
,
1001
0000
0000
0001
1000
0000
0100
0000
0000
1000
0001
0000
0100
0000
0010
0000
,
2000
0000
0000
3010
0100
0000
0100
0000
0002
0000
0000
0000
0203
0000
0000
0000
,
0310
0100
1000
0001
0010
1000
0100
0010
,
0001
0000
0010
0100
1000
0000
0001
0000
,
1001
0000
0000
1000
0001
0000
0100
0000
0010
0100
0000
0100
0001
0000
1000
0000
,
0001
0000
0000
1000
0100
0000
0010
0000
0100
1000
0000
1000
0001
0000
0000
0000
,
0100
0010
0100
1000
0100
0010
0100
0001
,
1000
0100
0001
0100
1000
0000
0010
0100
,
0001
0000
0000
0100
0001
0000
1000
0000
0100
1000
0000
0001
1000
0000
0100
0000
,
0020
0000
0000
0130
1000
0000
0100
0000
0020
0000
0000
0000
0130
0000
1000
0000
,
0010
0100
0010
0001
0010
0100
0001
1000
,
0001
0000
0000
0001
0000
0000
0010
0000
0000
0010
0000
0000
0100
0010
0100
0010
,
0200
0000
0000
0000
0000
0000
0000
2000
,
0300
0000
0000
3001
2000
0000
3002
0000
,
0203
0000
0000
0000
,
0300
0000
0000
0000
,
0220
0000
0300
0000
,
2000
0000
0030
0000
,
3001
0000
1000
0001
0000
0001
0010
0000
0010
0100
0000
0100
1000
0000
1000
0001
,
0000
0001
0100
0000
0100
0001
0000
0001
0020
0000
0000
0000
0030
0000
0000
0000
,
0110
0000
0000
0100
1000
0000
0001
0000
0101
0000
0000
0100
0001
0000
1000
0000
,
1100
0000
0000
0100
0010
0000
0100
0000
1000
0000
0000
0001
0100
0000
0010
0000
,
1000
0000
0000
0010
0100
0000
0010
0000
1000
0000
0000
0010
0100
0000
1000
0000
,
1000
0000
0000
0100
0010
0000
0010
0000
1000
0000
0000
1000
0001
0000
0010
0000
,
0110
0000
0000
0100
1000
0000
0100
1000
0001
0000
0000
0100
0001
0000
0100
0010
,
1000
0000
0000
0001
1000
0000
0100
1000
0001
0000
0000
0010
0001
0000
0010
0100
,
1000
0000
0010
0000
0100
0000
0001
0010
0100
0000
0010
0000
0001
0000
1000
0000
,
0020
0000
0000
0030
,
0110
0100
0001
1000
1100
1000
0001
0100
,
1000
0000
0000
0100
0000
0000
0002
0000
0000
0000
0013
0000
0011
0000
0001
0000
,
1000
0010
0100
0010
1000
0010
0100
0001
,
0010
0010
0100
0200
0000
1300
0012
0000
,
0103
0010
0100
0001
1000
0010
0100
0001
,
0010
0000
0100
0010
0000
0010
0001
0200
,
0000
0320
0000
0230
0000
0301
0000
1020
,
0000
0100
0000
1000
0000
0130
0001
0010
,
0100
0000
0100
1000
0100
0000
0010
0100
,
2000
0000
0000
0000
3001
0000
0100
0010
0000
0000
0000
0000
1000
0000
0010
0000
,
0002
0000
0013
0100
0010
1000
0100
0000
,
0010
0001
0010
0100
2000
0000
3001
0000
,
1001
1000
0100
1000
0001
0010
0100
1000
,
0010
0000
0100
0010
0100
0200
0000
0302
,
0000
2003
0000
0100
0000
3020
0000
0001
,
0000
0000
0000
0030
,
0120
0000
1030
0002
0000
1003
0100
0000
,
0021
0000
0031
2000
0000
3001
0100
0020
,
0100
0000
1030
0020
0100
0000
1030
0001
,
0010
0000
0010
0100
0000
0100
0002
0003
,
0120
0000
0031
2000
0000
3001
0100
0000
,
1010
0000
0000
1000
0001
0000
0010
0000
0011
0000
0000
0000
1100
0000
0000
0000
,
1000
0100
0010
1000
0001
0100
1000
0010
,
0200
0000
0010
0320
1000
0030
0110
0000
,
1001
1000
0020
1030
0200
0000
0310
0001
,
1000
0001
0020
0031
0200
0000
0310
0100
,
0002
0023
0230
0010
,
2300
3020
0230
0301
,
0120
0000
1030
0002
0000
1003
0100
0000
,
0011
0000
0000
0001
1000
0000
0010
0000
1010
0000
0000
0000
0101
0000
0001
0000
,
0010
0000
0100
0010
0100
1000
0002
0000
,
0003
0000
0000
0000
,
0010
0100
0100
0001
0002
0000
1003
0100
,
0001
0000
0001
0000
0002
0000
0103
1000
,
0010
0000
0010
0000
0020
0000
0130
1000
,
0000
0000
0100
0000
0010
0000
0100
0000
0001
0000
0000
1000
0000
0000
0001
0000
,
0010
0100
0100
1000
1000
0000
0001
0100
,
1000
0000
0000
0100
0000
0000
0010
0000
1000
0000
0000
0000
0011
0000
0000
0000
,
1000
0100
0001
1000
0010
0001
1000
0100
,
0020
0000
0000
0000
,
0030
0000
0000
0000
,
1100
0110
0101
1001
,
0020
0000
0031
0100
0020
0000
0130
0001
,
0020
0000
0130
0200
0000
1300
0010
0000
,
0101
0110
1100
1001
,
0011
0000
0000
0010
0100
0000
0010
0000
0011
0000
0000
0000
1100
0000
0000
0000
,
1000
0001
0100
1000
0001
0010
0100
0001
,
0020
0000
0130
0200
0000
1000
2300
0000
,
3001
0000
0001
0100
0001
1000
0001
0010
,
0000
0010
0100
0010
0100
0000
1000
0020
,
0100
0000
0001
0000
0100
0000
1030
0001
,
0020
0230
2300
3001
,
0110
0000
0001
1000
0001
0010
0100
1000
,
0100
0000
0010
0100
0100
0000
0100
0000
,
1000
0010
0001
1000
0100
0010
1000
0001
,
0010
0000
0010
0100
0000
0000
0200
0000
,
0300
0000
0000
0000
0000
0000
0000
2000
,
0000
3001
0100
0000
,
0000
0000
0000
0000
0000
0000
0100
0002
,
0000
0013
0100
0000
,
0000
0000
0000
0000
0000
0000
1000
0002
,
0000
1003
0100
0000
,
0000
0000
0000
0000
,
0000
0000
0000
0000
,
M00M
0000
0000
0000
;

//---------------dance-single - Blank----------------
#NOTES:
     dance-single:
     :
     Hard:
     6:
     0.426,0.408,0.434,0.221,0.000,653.000,122.000,62.000,2.000,0.000,0.000,0.426,0.408,0.434,0.221,0.000,653.000,122.000,62.000,2.000,0.000,0.000: // measure 0
0000
0000
0000
0000
,  // measure 1
1001
0000
0001
0100
0000
0000
0001
0000
,  // measure 2
1000
0000
0100
0010
0000
0000
0100
1000
,  // measure 3
0200
0000
0320
0000
0032
0000
1003
0001
,  // measure 4
1000
0000
1000
0010
0000
0000
0100
0000
,  // measure 5
0101
0000
0001
1000
0000
0000
1000
0000
,  // measure 6
0100
0000
1000
0001
0000
0001
0100
0000
,  // measure 7
0010
0000
0100
0010
0000
0010
1000
0000
,  // measure 8
0001
0000
0010
0001
0000
0001
0010
0000
,  // measure 9
0100
0000
1000
0100
1000
0000
0001
1000
,  // measure 10
0001
0000
0100
0001
0100
0000
0010
0100
,  // measure 11
0002
0023
0230
1300
,  // measure 12
0001
0010
0100
1000
0200
0000
0000
0300
,  // measure 13
1001
0000
1000
0010
0000
0000
0110
0000
,  // measure 14
0100
0000
0001
1000
0000
0000
0011
0000
,  // measure 15
1000
0000
0010
1000
0000
0000
1100
0000
,  // measure 16
0001
0000
0100
0010
0000
0100
0001
0000
,  // measure 17
0020
0000
0000
0230
0000
0000
1300
0000
,  // measure 18
0020
0000
0000
0230
0000
0000
0302
0003
,  // measure 19
0020
0001
0030
0001
,  // measure 20
1000
0000
0010
1000
0100
0000
1000
0000
,  // measure 21
0020
0000
0000
0230
0000
0000
0301
0000
,  // measure 22
0020
0030
0010
0200
1000
0000
1300
0000
,  // measure 23
0001
0100
0001
0010
0001
0100
0002
0000
,  // measure 24
1003
0000
0100
0100
0200
0000
0300
0000
,  // measure 25
1001
0000
0010
0000
1001
0000
1000
0010
,  // measure 26
0110
0000
0001
0000
0110
0000
1000
0001
,  // measure 27
1001
0000
0010
0000
1001
0000
0001
0010
,  // measure 28
0110
0000
0001
0000
0110
0000
0001
1000
,  // measure 29
1001
0010
1100
0010
,  // measure 30
1001
0000
0010
0001
0100
0000
0001
0000
,  // measure 31
0011
0010
0110
0100
,  // measure 32
1100
0000
1000
0000
0001
1000
0010
1000
,  // measure 33
0001
0000
0000
0011
0000
0000
0000
0000
,  // measure 34
1000
0000
1000
0010
1000
0100
1000
0000
,  // measure 35
0001
0000
0000
0101
0000
0000
0000
0000
,  // measure 36
1000
0000
0001
0010
0000
0001
0100
0000
,  // measure 37
0010
0000
0100
0000
0001
0100
0001
0100
,  // measure 38
0020
0030
1000
0001
,  // measure 39
1000
0000
0100
0000
1000
0100
1000
0100
,  // measure 40
0020
0000
0030
0110
0000
0110
0100
0000
,  // measure 41
1002
0000
0003
1000
0001
1000
0100
0010
,  // measure 42
0020
0000
0030
0100
1000
0001
1000
0000
,  // measure 43
2001
0000
3000
0001
1000
0001
0100
0010
,  // measure 44
0020
0000
0030
0110
0000
0100
0010
0100
,  // measure 45
0001
0000
0010
0010
0000
0100
0100
0000
,  // measure 46
1000
0000
0010
0010
0000
0100
0200
0300
,  // measure 47
0001
0000
1000
1000
0000
0001
1000
0001
,  // measure 48
0010
0000
0100
0100
0000
0010
0100
0100
,  // measure 49
1000
0000
1001
0000
1000
0100
1100
0000
,  // measure 50
0001
0000
0101
0000
0001
1000
1100
0000
,  // measure 51
0001
0100
0001
0000
0010
0001
0010
0000
,  // measure 52
0100
0010
0100
0000
1000
0001
1000
0000
,  // measure 53
0001
0000
1001
0000
0001
0100
0101
0000
,  // measure 54
1000
0000
1100
0000
0001
0100
0001
1000
,  // measure 55
0200
0300
0000
0000
0000
0000
0000
0000
,  // measure 56
0000
0000
0000
0000
,  // measure 57
0011
0010
0110
0100
,  // measure 58
1001
0001
1100
0100
,  // measure 59
0002
0000
0103
1000
,  // measure 60
0020
0000
0130
0010
0100
0000
0010
0000
,  // measure 61
1010
0010
0110
0100
,  // measure 62
1001
0000
0001
0100
0101
0000
0001
0000
,  // measure 63
1000
0100
1000
0010
1000
0100
2000
0000
,  // measure 64
3001
0000
0100
0010
0100
0000
0001
0000
,  // measure 65
0011
0000
0010
0100
0110
0000
0100
0000
,  // measure 66
1100
0000
1000
0001
0101
0000
0100
0010
,  // measure 67
1010
0010
0110
0100
,  // measure 68
0101
0000
0001
0000
1001
0000
1000
0001
,  // measure 69
0011
0000
0010
0100
0110
0000
0100
0000
,  // measure 70
1001
0000
0010
0100
0010
0000
0010
0000
,  // measure 71
1001
1000
1100
1000
,  // measure 72
1001
0000
0001
0000
0101
0000
0100
0010
,  // measure 73
2000
0000
0000
0000
0000
0000
0000
3000
,  // measure 74
0002
0000
0000
0000
0000
0000
0000
0003
,  // measure 75
0020
0000
0000
0000
0100
0000
0000
0030
,  // measure 76
0200
0000
0000
0000
0000
0000
0000
0300
,  // measure 77
2002
0000
0003
0000
,  // measure 78
0020
3000
0200
0330
,  // measure 79
0102
0000
0000
0100
0000
0000
0203
0000
,  // measure 80
0302
2003
3001
0000
,  // measure 81
0011
0110
0011
0001
,  // measure 82
1010
0110
0101
1000
,  // measure 83
1010
0000
1100
0000
1010
0000
0100
0001
,  // measure 84
0010
0101
0011
1000
,  // measure 85
1010
0110
1010
1000
,  // measure 86
0011
0000
0010
0100
1000
0000
0001
1000
,  // measure 87
0001
0100
0010
0100
1000
0100
0010
0100
,  // measure 88
0002
0000
0000
0013
,  // measure 89
1001
0000
1000
0010
1001
0000
0001
0010
,  // measure 90
1001
0000
0110
0000
1001
1000
0001
0000
,  // measure 91
0120
0000
0100
0000
0100
0000
0130
0010
,  // measure 92
1001
0001
1000
1000
0000
0000
0020
0000
,  // measure 93
0130
0101
0001
1001
,  // measure 94
1000
1100
0100
0110
,  // measure 95
1000
1001
0001
0101
,  // measure 96
1000
1010
0001
0011
,  // measure 97
1000
0000
0001
0010
0001
0000
0100
0001
,  // measure 98
0100
0000
0010
0100
0010
0000
1000
0100
,  // measure 99
0020
0230
2300
3001
,  // measure 100
1000
0001
0010
0001
0200
0000
0300
0000
,  // measure 101
0110
0000
0100
0000
0101
0001
1000
0000
,  // measure 102
1100
0000
0100
0000
1001
1000
0000
0010
,  // measure 103
0000
0100
0000
0001
0000
0010
0000
0002
,  // measure 104
0000
0000
0003
0000
,  // measure 105
0011
0110
0011
1000
,  // measure 106
1010
0000
0110
0000
1010
0000
0100
0001
,  // measure 107
0011
0000
1000
0001
0010
0000
0001
1000
,  // measure 108
0010
0000
0100
0010
0100
0000
0020
0000
,  // measure 109
1030
0110
1010
0001
,  // measure 110
0011
0000
0100
0010
0001
0000
0100
0000
,  // measure 111
0001
0100
0010
1000
0100
0010
0001
0100
,  // measure 112
0010
0000
0100
0100
0100
0000
0100
0000
,  // measure 113
1001
0000
0001
0010
0000
0010
0100
0000
,  // measure 114
1001
0000
1000
0010
0000
0010
0100
0000
,  // measure 115
0101
0100
0110
0010
,  // measure 116
1001
1000
1100
1000
,  // measure 117
1001
0000
1000
0100
0000
0100
0010
0000
,  // measure 118
1001
0000
0001
0100
0010
0000
0100
0000
,  // measure 119
0110
0010
1010
0001
,  // measure 120
2000
0000
0000
3000
,  // measure 121
0001
0000
0010
0000
0100
0000
1000
0100
,  // measure 122
0010
0000
0100
0000
1000
0000
0010
0100
,  // measure 123
0001
0000
0100
0000
0010
0000
0100
0001
,  // measure 124
0000
1000
0001
0010
0001
0000
1000
0000
,  // measure 125
0001
0000
0010
0000
0100
0000
1000
0100
,  // measure 126
0010
0000
0110
0000
0100
0000
1000
0100
,  // measure 127
0010
0100
0010
0100
1000
0001
1000
0001
,  // measure 128
0200
1000
0010
0301
,  // measure 129
0011
0000
0000
0000
,  // measure 130
1100
0010
0101
0010
,  // measure 131
1100
0000
0001
0000
1100
0000
0001
0100
,  // measure 132
0010
0100
0101
0020
,  // measure 133
0031
0100
1010
0100
,  // measure 134
0011
0000
0001
1000
0001
0000
0010
0000
,  // measure 135
0100
1000
0001
0010
0001
0100
0010
1000
,  // measure 136
0100
0100
0020
0030
,  // measure 137
1000
0000
0010
1000
0010
0100
0001
0010
,  // measure 138
0000
0001
0100
0010
1000
0000
0100
0010
,  // measure 139
0002
0000
0023
0000
0230
0000
1300
0001
,  // measure 140
2000
0000
3020
0000
0230
0000
0301
1000
,  // measure 141
0001
0000
0010
0001
0100
0001
1000
0100
,  // measure 142
0010
0000
0100
0100
0100
0000
1000
0000
,  // measure 143
0001
0100
0001
0010
0100
1000
0001
1000
,  // measure 144
0020
0000
0000
0000
,  // measure 145
0030
0000
0000
0000
,  // measure 146
0000
0000
0000
0000
,  // measure 147
0000
0000
0000
0000
,  // measure 148
0000
0000
0000
0000
,  // measure 149
0000
0000
0000
0000
,  // measure 150
0000
0000
0000
0000
,  // measure 151
0000
0000
0000
0000
,  // measure 152
0000
0000
0000
0000
,  // measure 153
M00M
0000
0000
0000
;
