#TITLE:Red. by Full Metal Jacket;
#SUBTITLE:;
#ARTIST:DJ Mass MAD Izm*;
#TITLETRANSLIT:;
#SUBTITLETRANSLIT:;
#ARTISTTRANSLIT:;
#GENRE:;
#CREDIT:Telperion;
#BANNER:Red. by Full Metal Jacket-bn.png;
#BACKGROUND:Red. by Full Metal Jacket-bg.png;
#LYRICSPATH:;
#CDTITLE:;
#MUSIC:Red. by Full Metal Jacket.ogg;
#OFFSET:-0.127;
#SAMPLESTART:13.700;
#SAMPLELENGTH:15.949;
#SELECTABLE:YES;
#DISPLAYBPM:158.000;
#BPMS:0.000=158.000,2.000=316.000,7.000=158.000,154.125=118.500,154.250=79.000,154.375=52.667,154.500=39.500,154.625=31.600,154.750=26.333,154.875=16.345,155.000=158.000;
#STOPS:0.250=0.190
,0.750=0.190
,1.250=0.190
,1.750=0.190
,2.250=0.095
,2.750=0.095
,3.250=0.095
,3.750=0.095
,4.250=0.095
,4.750=0.095
;
#BGCHANGES:;
#KEYSOUNDS:;

//---------------dance-double - Telperion----------------
#NOTES:
     dance-double:
     Telperion:
     Challenge:
     11:
     0.672,0.649,0.100,0.092,0.246:
M0000000
M0000000
M0000000
M0000000
M0000000
M0000000
M0000000
M0000000
M0000000
M0000000
M0000000
M0000000
M0000000
M0000000
M0000000
M0000000
,
M00000M0
M0000000
M0000M00
M000M000
M00M0MMM
0000M000
00000M00
00000000
000000M0
00000000
00000000
00000000
10000000
00000000
00010000
00000000
,
00000000
10000000
01000000
00100000
00001000
00000000
00000100
00000001
,
00000000
00000010
00000100
00001000
00000001
00000000
00000010
00000001
,
00000000
00000000
00000100
00000000
00001000
00000000
00100000
00000000
01000000
00000000
00000000
00000000
10000000
01000000
10000000
01000000
,
10000000
00100000
00010000
00010000
00010000
00000000
00001000
00010000
,
00000000
01000000
10000000
01000000
00002000
M0000000
M0003100
00010000
,
00000000
00000100
00000010
00000001
M0000002
M0001003
M0001000
00000001
,
00000000
00000000
00000001
00000000
00000100
00000000
00010000
00000000
00200000
00000000
00000M00
00000000
01300M00
00100000
01000000
00100000
,
01000000
00010000
00001000
00000100
MMMM0020
00000000
00000130
00001000
,
00000000
00000000
00000100
00000000
00000001
00000000
00000010
00000000
0000MM0M
000000M0
00000000
00000000
00010000
00000000
00100000
00000000
,
00000000
00000000
01000000
00000000
10000000
00000000
00100000
00000000
MM0M0000
00M00000
00000000
00000000
00010000
00000000
00000000
00001000
,
00000000
00000000
00000100
00000000
00000001
00000000
00000000
00000010
00000000
00000000
00001000
00000000
00100000
00000000
00000000
10000000
,
00000000
00000000
00010000
00000000
00001000
00000000
00000000
00000100
00000000
00000000
00000001
00000000
MMMM1001
00000000
00000000
00000000
,
00000001
00000100
00000010
00000100
00000001
00000010
0100MM0M
00000000
,
10000000
00100000
01000000
00010000
00100000
00010000
MMM00010
00000000
,
00000001
00000100
00001000
00010000
00000010
00000100
0010M0MM
01000000
,
00001000
01000000
00010000
00100000
10000000
00000000
0MMM1000
00000100
,
00000010
00000001
00000100
00001000
01000000
10000000
0MMM1000
00000010
,
00000100
00000001
00000010
00000100
00010000
01000000
M0MM0010
00000001
,
00000100
00000000
00010000
00000000
01000000
00000000
00100000
00000000
00010000
00000000
00001000
00000000
10000MMM
00000000
00000000
01000000
,
00000000
00000000
00001000
00000000
MMMM0001
00000000
00000000
00000100
00000000
00000000
00010000
00000000
1000MMMM
00010000
10000000
00010000
,
10000000
00010000
10000000
00100000
01000000
00000000
01000000
00000000
00000000
00000000
00000000
00000000
MMMM0100
00000000
00001000
00000000
,
00000001
00000010
00000100
00001000
00000000
00000100
0010M0MM
01000000
,
00010000
00000100
00000010
00000001
00000000
00000100
0010M0MM
01000000
,
00001000
00000100
00000010
00000001
00000100
00001000
00000010
00000100
,
00000010
00000100
0010M0MM
10000000
00000000
10000000
0MMM1000
00010000
,
00100000
00001000
00000010
00010000
00100000
00100000
10000000
01000000
,
00010000
00000010
MMMM0100
00000010
00000000
00100000
0100MMMM
00100000
,
00010000
10000000
010MM000
00000010
00000000
00000001
000MM100
00100000
,
02000000
00000000
00000000
00000000
M000100M
00000000
00000000
M001000M
00000000
00000000
M300100M
00000000
00M11M00
00000000
00010000
00000000
,
00000100
00000010
00000001
00010000
01000000
00100000
00010000
00000100
,
00000010
00000100
00000001
00010000
00000000
00000010
00001000
00001000
,
10000000
00010000
00010000
00000001
00000000
00000001
00001000
00000001
,
00010000
00000000
00001000
00000000
10000000
00010000
10000000
00000000
00001000
00000000
00010000
00000000
01000000
00000000
00001000
00000000
,
01000000
00000000
10000000
00000000
00010000
10000000
00010000
00000000
00100000
00010000
00100000
00010000
00100000
00000000
00001000
00000000
,
00000100
00000000
00000001
00000000
00000010
00000001
00000010
00000001
00000010
00000000
00000010
00000000
00000001
00000000
00000100
00000000
,
00001000
00000000
00010000
00000000
00000010
00001000
00000010
00000000
00000010
00000000
00010000
00000000
00100000
01000000
00010000
00000000
,
10000000
00100000
10000000
00000000
01000000
00000000
00001000
00000100
MMMMM02M
00000000
00000000
00000000
00000131
00000000
00000000
00000000
,
00000100
00000010
00000100
00001000
00000100
00001000
00001000
00000000
,
00000000
01000000
10000000
00100000
00010000
00001000
00100000
00000000
,
01000000
00001000
00000010
00000100
00000200
00000000
00001300
00000000
,
00000000
01000000
10000000
01000000
00010000
00100000
01000000
00000000
,
00001000
00000001
00000010
00000010
00001000
00010000
01000000
00000000
,
10000000
01000000
10000000
01000000
00010000
00000000
00001000
00000000
00001000
00000000
00000100
00000000
00000001
00000000
00000000
00000000
,
00004000
000M0000
00000M00
0000000M
000000M0
000M0000
00000M00
000000M0
,
00003100
00010000
01000000
00100000
00001000
00010000
01000000
10000000
,
00001000
00000100
00000010
00010000
01000000
00100000
00001000
00000000
,
00100000
01000000
10000000
00001000
00000100
00000010
00010000
00000000
,
00000001
00000100
00000001
00010000
00001000
01000000
10000000
00000000
,
01000000
00000100
00001000
00000100
00100000
00100000
10000000
00000000
,
00100000
01000000
00001000
00000010
00000100
00010000
01000000
00000000
,
00100000
00000100
00000001
00001000
00000100
00100000
01000000
00000000
,
00001000
00000100
00010000
00100000
10000000
00010000
00000010
00001000
,
00001000
01000000
00000100
00000010
00000001
00010000
02000000
00000000
,
1300000M
100000M0
0100000M
010000M0
1000000M
00010M00
010000M0
00010M00
,
0010000M
010000M0
00100M00
0M001000
M0010000
0M001000
0010000M
010000M0
,
0001000M
0M000100
M0001000
00M00100
0M010000
00M00100
M0000010
0M000100
,
00M01000
000M0001
0M000010
00M00001
000M1000
00M00100
0M000010
0000M001
,
000M0100
0000M100
00M00010
0M000010
M0010000
0001000M
000010M0
0000100M
,
001000M0
01000M00
100000M0
0010000M
M0010000
0M001000
00M00010
000M0001
,
MMMM0100
00000000
00001111
00000000
,
MM010MMM
00000000
00110110
00000000
,
MMM010MM
00000000
11101000
00000000
,
0020MMMM
02000000
13310MM0
01100000
,
0010MMMM
01000000
00100000
10000000
01000000
00100000
00010000
10000000
,
00010000
10000000
00010000
10000000
00010000
00000000
01000000
00000000
00001000
00000000
00000000
00000100
00000000
00000000
00000001
00000000
,
0000M00M
00001000
00000100
00000010
00000001
00000100
00000001
00000010
,
00000110
00000000
00001000
00000100
00010000
00001000
00100000
00010000
00000000
00000000
01001000
00000000
00000000
00000000
00010000
00000000
,
10000000
00000100
00000010
00001000
00100000
01000000
00000000
10000000
,
00100000
00000000
00001000
00000000
00000010
00000000
00000100
00000000
00100000
00000000
00000000
00100000
00000000
00000000
00100000
00000000
,
00010000
00000010
00001000
00000100
00100000
10000000
00000000
00100000
,
00001000
00000100
00000100
00000010
00040000
00000000
00000000
00031000
,
00001000
00010000
00001000
00010000
00001000
00000000
01000000
00000000
10000000
00000000
00000000
00010000
00000000
00000000
00000010
00000000
,
00000100
00000000
00000001
00000100
00000001
00000100
00000001
00001000
00000000
00000000
00011000
00000000
00000000
00000000
00000000
00000000
,
00001000
00010000
00001000
00010000
00000100
00001000
00000100
00000010
00000001
00000000
00000000
00001000
00000000
00000000
01000000
00000000
,
10000000
00000000
00010000
00000000
00000010
00000000
00000001
00000000
00001000
00000000
00000000
00010000
00000000
00000000
01121000
00000000
,
00000000
00000000
00000000
00000000
,
00030000
00000000
00000000
00000000
;
