#TITLE:I'll forget you, you'll never forget me.;
#SUBTITLE:;
#ARTIST:mommy;
#TITLETRANSLIT:;
#SUBTITLETRANSLIT:;
#ARTISTTRANSLIT:;
#GENRE:2 STEP;
#CREDIT:Telperion;
#BANNER:ifyynfm-bn.png;
#BACKGROUND:ifyynfm-bq.png;
#LYRICSPATH:;
#CDTITLE:!CDTitle.png;
#MUSIC:ifyynfm.ogg;
#OFFSET:0.007;
#SAMPLESTART:8.957;
#SAMPLELENGTH:14.328;
#SELECTABLE:YES;
#DISPLAYBPM:134;
#BPMS:0.000=134.000
,168.000=67.000
,176.000=134.000
;
#STOPS:168.000=0.896
;
#BGCHANGES:;
#KEYSOUNDS:;
#ATTACKS:;

//---------------dance-single - Telperion----------------
#NOTES:
     dance-single:
     Telperion:
     Challenge:
     10:
     0.642,0.823,0.218,0.357,0.728,450.000,25.000,41.000,64.000,0.000,4.000,0.642,0.823,0.218,0.357,0.728,450.000,25.000,41.000,64.000,0.000,4.000: // measure 0
0000
0000
0000
0000
,  // measure 1
0000
0000
0000
0000
,  // measure 2
000M
000M
000M
000M
000M
000M
000M
000M
000M
000M
000M
000M
M00M
0000
0000
0000
,  // measure 3
00M0
0000
0000
0M00
0000
0M00
0000
000M
,  // measure 4
0000
0000
0000
M000
,  // measure 5
0011
0000
0000
1000
0000
1000
0000
0200
,  // measure 6
0000
0000
0000
0000
0300
0000
0001
0100
,  // measure 7
1000
0100
0010
0100
1000
0001
0100
0020
,  // measure 8
0000
0000
4000
0000
3000
0000
0000
0000
0004
0000
0033
0000
0010
1000
0000
1000
,  // measure 9
0M01
0000
0010
0000
0100
0000
1000
0100
0000
0000
1000
0000
1001
0000
0100
0001
,  // measure 10
0010
0001
0100
0000
0010
0000
1000
0001
0000
0000
0001
1000
0100
0010
0001
1000
,  // measure 11
0010
0000
0100
0000
0001
0000
0001
1000
0000
0000
0001
0000
1001
0000
0002
0010
,  // measure 12
0000
0000
0003
0000
0001
0000
0000
0000
1000
0000
0000
0000
0020
0000
0100
0000
0000
0000
0000
0000
0130
0000
0000
0000
0001
0000
0000
0000
0000
0000
1000
0100
,  // measure 13
0010
0000
0100
0000
1000
0000
1000
0001
0000
0000
0010
0000
1001
0000
0100
1000
,  // measure 14
0010
1000
0100
0000
0010
0000
0001
0010
0000
0000
0001
1000
0001
0100
0010
0100
,  // measure 15
2000
0000
3100
0101
0000
1010
0000
1MM2
,  // measure 16
0000
0000
0000
0000
0003
0000
0020
0000
0000
0000
0030
0000
0100
1000
0000
1000
,  // measure 17
0M01
0000
0010
0001
0010
0100
1000
0001
0010
0100
0010
0100
1000
0001
1000
0100
,  // measure 18
0000
1000
0001
0000
1M10
0000
0000
0000
1000
0000
M001
0000
010M
0000
0M01
0000
,  // measure 19
100M
0000
0010
1000
0001
0100
0010
1000
0010
0100
0010
0100
0001
1000
0001
0010
,  // measure 20
0200
0320
2030
3020
0031
1001
MM12
0000
,  // measure 21
0003
0000
0010
0001
0010
0100
1000
0001
0010
0100
0010
0100
1000
0001
1000
0100
,  // measure 22
0000
1000
0001
0000
0100
0001
0100
0001
0100
0001
0100
0010
1000
0001
0100
0010
,  // measure 23
1000
0000
0001
0010
0100
1000
0001
0010
0100
0010
0100
1000
0001
1000
0100
1000
,  // measure 24
0000
1000
0001
0000
0010
0000
0001
0100
0000
0000
0010
0010
0000
0100
0010
1000
,  // measure 25
0M01
0000
0010
0000
01M0
0000
2000
0001
0000
0000
3020
0000
0000
0000
0230
0001
,  // measure 26
0000
0000
0310
0000
2000
0000
0000
0000
3000
0000
0100
1000
0001
0100
0010
0100
,  // measure 27
1000
0000
0100
0000
0M01
0000
0200
0000
0000
0000
0320
0000
0000
0000
1030
0200
,  // measure 28
0000
0000
0000
0000
0300
0000
0000
0000
0001
0000
0100
0000
0010
0000
0100
0000
1000
0000
0001
0000
1000
0000
0010
0000
0100
0000
0000
0000
0001
0000
0100
0010
,  // measure 29
1000
0000
0000
0000
1MM1
0000
0002
1000
0000
0000
0023
0000
0000
0000
0230
0010
,  // measure 30
0000
0000
1300
0000
0002
0000
0000
0000
0003
0000
0100
0001
1000
0010
1000
0001
,  // measure 31
0020
0000
0130
0010
0000
0110
0000
MM12
,  // measure 32
0000
0000
0003
2000
0000
3000
0020
0000
,  // measure 33
0130
0000
0000
0000
001M
1000
0010
0100
0000
0000
0010
0100
0001
0100
0000
0000
,  // measure 34
0001
0100
0001
1000
0000
0000
0001
1000
0100
1000
0000
0000
0100
0000
0010
0000
,  // measure 35
MM11
0000
1000
0001
0010
0000
M11M
0000
0000
0000
1100
0000
0000
0000
2MM1
0000
,  // measure 36
0000
0000
3010
1000
0010
1000
0010
0100
0001
1000
0010
0100
0001
1000
0010
0100
,  // measure 37
0001
0000
0000
0000
M010
0001
0010
0100
0000
0000
0010
0100
1000
0100
0000
0000
,  // measure 38
1000
0100
1000
0001
0000
0000
1000
0001
0100
0001
0000
0000
0100
0000
0010
0000
,  // measure 39
1M1M
0000
0001
1000
0001
0000
MM11
0000
0000
0000
0110
0000
0000
0000
21MM
0000
,  // measure 40
0000
0000
3001
0010
0001
0010
0100
1000
0001
1000
0100
0010
0001
0010
0100
0010
,  // measure 41
1000
0000
0000
0001
0000
0000
0100
0000
0000
0010
0000
0000
0100
0000
0000
1000
0000
0000
0001
0000
0000
1000
0000
0000
0010
0000
0000
0000
1000
0000
0000
0000
0010
0000
0000
0000
0100
0000
0001
0000
0100
0000
0001
0000
0200
0000
0001
0000
,  // measure 42
M300
0000
000M
0000
,  // measure 43
0M00
0000
0000
0000
0000
0000
0000
0000
00M0
0000
0000
0000
0000
0000
0000
M00M
,  // measure 44
0100
0000
0001
0000
000M
0000
0001
1000
0010
0000
1000
0000
M000
0000
1000
0000
,  // measure 45
0000
0000
0100
0000
1000
0000
0100
0010
0001
0000
0010
0000
01M0
0000
1000
0000
,  // measure 46
0001
0000
0000
0000
0100
0000
0000
0000
0010
0000
0000
0000
0100
0000
0000
0000
0001
0000
0000
0000
1000
0000
0000
0000
0100
0000
0000
0000
1000
0100
0010
0002
,  // measure 47
0000
0000
0000
0000
,  // measure 48
0023
0000
0004
0000
0003
0000
0000
0000
4000
0000
3030
0000
0010
0001
0000
0001
,  // measure 49
1M00
0000
0010
0000
0100
0000
0001
1000
0000
0000
0001
0000
0011
0000
0000
0100
,  // measure 50
0000
1000
0001
0000
1000
0000
0000
1000
0010
0000
0100
0000
0101
0000
0000
0000
,  // measure 51
1000
0000
0001
0000
0011
0000
0020
0100
0000
0000
0031
0000
1000
0000
0001
0100
,  // measure 52
0001
1000
0100
0000
0001
0100
0010
0100
1000
0001
1000
0010
0100
0000
0002
0100
,  // measure 53
0000
0000
1003
0000
1010
0000
0010
0100
0002
0000
0010
0000
2003
0000
3010
1000
,  // measure 54
0001
1000
0010
0000
0100
0001
0010
0100
1000
0001
0020
0000
0000
0000
0000
0000
,  // measure 55
0030
0000
0000
0000
0100
0000
0010
0000
0100
0000
1000
0000
0000
0000
0001
0000
1000
0100
2000
0000
0000
0000
3001
1000
0002
0000
0000
0000
M103
0001
0200
0000
,  // measure 56
0000
0000
0301
0000
1000
0000
0010
1000
0000
0000
1000
0000
0001
0010
0000
0010
,  // measure 57
M20M
0000
0000
0000
,  // measure 58
0000
0000
0000
0000
,  // measure 59
0300
0000
0000
0000
;

//---------------dance-double - Telperion----------------
#NOTES:
     dance-double:
     Telperion:
     Challenge:
     10:
     0.645,0.823,0.174,0.183,0.745,477.000,20.000,21.000,52.000,0.000,4.000,0.645,0.823,0.174,0.183,0.745,477.000,20.000,21.000,52.000,0.000,4.000:
00000000
00000000
00000000
00000000
,
00000000
00000000
00000000
00000000
,
00000000
00000000
00000000
00000000
,
00000000
00000000
00000000
00000000
,
00000000
00000000
00000000
00000000
,
00000020
00000000
00000030
00001000
00000000
00000001
00000000
00000200
,
00000000
00000000
00000000
00000000
00000300
00000000
00001000
00000100
,
00000001
00001000
00000010
00000100
00000001
00000100
00000010
00020000
,
00000000
00000000
00004000
00000000
00003000
00000000
00000000
00000000
00400000
00000000
00330000
00000000
00010000
00001000
00000000
00001000
,
001000MM
00000000
01000000
00000000
10000000
00000000
10000000
00010000
00000000
00000000
00010000
00000000
00100000
00000000
00010000
01000000
,
00001000
00010000
00001000
00000000
00100000
00000000
00001000
00010000
00000000
00000000
00001000
00010000
00000100
00001000
00000001
00000100
,
00000010
00000000
00000100
00000000
00000001
00000000
00000001
00001000
00000000
00000000
00000010
00000000
00001000
00000000
00000100
00001000
,
00000100
00000000
00010000
00000000
00001000
00000000
00000000
00000000
00100000
00000000
00000000
00000000
00001000
00000000
00010000
00000000
00000000
00000000
00000000
00000000
00001000
00000000
00000000
00000000
01000000
00000000
00000000
00000000
00000000
00000000
00010000
01000000
,
00100000
00000000
01000000
00000000
00010000
00000000
00010000
10000000
00000000
00000000
00100000
00000000
01000000
00000000
00010000
01000000
,
00001000
00010000
00000010
00000000
00001000
00000000
00000010
00010000
00000000
00000000
00010000
00001000
00100000
01000000
00100000
00010000
,
10000000
00000000
00010000
00000000
01000000
00000000
01000000
00001000
00000000
00000000
00011000
00000000
00000000
00000000
0001MM20
00000000
,
00000000
00000000
00001030
00000000
00000110
00000000
00000100
00000001
00000000
00000000
00000001
00000000
00001000
00000001
00000000
00001000
,
MM000100
00000000
00000010
00000100
00001000
00000100
00010000
00000100
00010000
00001000
00100000
00001000
00100000
00010000
00100000
01000000
,
00000000
01000000
10000000
00000000
M0100000
00000000
00000000
00000000
00000000
00000000
01000000
00000000
01010000
00000000
00000000
00000000
,
10000000
00000000
00100000
01000000
00010000
01000000
00001000
01000000
00001000
00010000
00000010
00010000
00000010
00001000
00000010
00000100
,
00000002
00002003
00003020
00000230
00000301
00001001
00000M11
00000000
,
00000001
00000000
00000010
00000100
00001000
00000100
00010000
00000100
00010000
00001000
00100000
00001000
00100000
00010000
00100000
01000000
,
00000000
01000000
10000000
00000000
00M10000
10000000
01000000
00100000
00010000
00100000
00001000
00010000
00000010
00001000
00000001
00000100
,
00000001
00000000
00000010
00000100
00001000
00000100
00010000
00000100
00010000
00001000
00100000
00001000
00100000
00010000
00100000
01000000
,
00000000
01000000
10000000
00000000
00010000
00000000
01000000
00000000
00000000
00000000
00100000
00100000
000M0000
01000000
00100000
10000000
,
00010000
00000000
00100000
00000000
01M00000
00000000
10000000
00010000
00000000
00000000
00100000
00000000
00010000
00000000
01000000
00001000
,
00000000
00001000
00010000
00000000
00000M20
00000000
00010030
00000010
00000000
00000000
0000101M
00000000
00000100
00000000
00000000
00000000
,
00000001
00000000
00000100
00000000
00000M01
00000000
00000020
00000100
00000000
00000000
00001030
00000000
00010000
00000000
00001000
00100000
,
00000000
00000000
00100000
00000000
01000000
00000000
00000000
00000000
10000000
00000000
00100000
00000000
01000000
00000000
00010000
00000000
00100000
00000000
00001000
00000000
00010000
00000000
00000010
00000000
00001000
00000000
00000001
00000000
00001000
00000000
00000100
00000010
,
00000001
00000000
00000000
00000000
00000M11
00000000
00000001
00001000
00000000
00000000
00000010
00000000
00010000
00000000
00000100
00010000
,
00000000
00010000
00001000
00000000
002M0000
00000000
00301000
00100000
00000000
00000000
0M110000
00000000
10000000
00000000
01000000
00100000
,
00020000
00000000
01M30000
10010000
00000000
00110000
00001000
0M2M1000
,
00000000
00000000
01300000
00000000
10000000
00000000
10000000
00010000
00000000
00000000
01000000
00000000
00010000
10000000
00000000
00010000
,
01000000
00000000
00000000
00000000
0010MM00
01000000
00100000
01000000
00000000
00000000
00010000
01000000
00010000
01000000
00000000
00000000
,
00001000
01000000
00001000
01000000
00000000
00000000
00000100
01000000
00000100
01000000
00000000
00000000
00001000
00000000
00010000
00000000
,
0001MM10
00000000
00010000
00000010
00001000
00000000
00001MM1
00000000
00000000
00000000
00000001
00000010
00000100
00000000
000011MM
00000000
,
00000000
00000000
00000001
00000010
00000100
00001000
00000100
00010000
00001000
01000000
00001000
00010000
00000010
00001000
00000001
00001000
,
00000100
00000000
00000000
00000000
00MM0010
00000100
00000010
00000100
00000000
00000000
00001000
00000100
00001000
00000100
00000000
00000000
,
00010000
00000100
00010000
00000100
00000000
00000000
01000000
00000100
01000000
00000100
00000000
00000000
00010000
00000000
00001000
00000000
,
001MM010
00000000
00001000
00100000
01000000
00000000
11MM0000
00000000
00000000
00000000
10000000
01000000
10000000
00000000
1MM10000
00000000
,
00000000
00000000
10000000
00100000
01000000
00010000
01000000
00001000
00010000
00000100
00001000
00000010
00000100
00000001
00000010
00000100
,
00001000
00000000
00000000
00000001
00000000
00000000
00001000
00000000
00000000
00000100
00000000
00000000
00010000
00000000
00000000
00000100
00000000
00000000
00010000
00000000
00000000
00001000
00000000
00000000
01000000
00000000
00000000
00000000
00000100
00000000
00000000
00000000
00010000
00000000
00000000
00000000
00001000
00000000
00010000
00000000
00001000
00000000
00010000
00000000
00002000
00000000
00010000
00000000
,
M0003000
00000000
0000000M
00000000
,
0M000000
00000000
00000000
00000000
00000000
00000000
00000000
00000000
000000M0
00000000
00000000
00000000
00000000
00000000
00000000
00M00M00
,
00011000
00000000
00001000
00000000
00000000
00000000
00010000
00000100
00000010
00000000
00000100
00000000
00000M00
00000000
00000100
00000000
,
0000M000
00000000
00001000
00000000
00000001
00000000
00000100
00000010
00001000
00000000
00000010
00000000
00000000
00000000
00010000
00000000
,
00001000
00000000
00000000
00000000
0000M000
00000000
00000000
00000000
00001000
00000000
00000000
00000000
00010000
00000000
01000000
00000000
00100000
00000000
00000000
00000000
01000000
00000000
00000000
00000000
00000000
00000000
00000000
00000000
10000000
01000000
00200000
00010000
,
00000000
00000000
00000000
00000000
,
00302000
00000000
04000000
00000000
03000000
00000000
00000000
00000000
00000040
00000000
00003030
00000000
00001000
00010000
00000000
00010000
,
00000010
00000000
00000100
00000000
00000M01
00000000
00000001
00001000
00000000
00000000
00001000
00000000
00000010
00000000
00001000
00000100
,
00010000
00001000
00100000
00000000
00010000
00000000
10000000
00010000
00000000
00000000
01000000
00000000
01100000
00000000
00000000
00000000
,
00010000
00000000
00100000
00000000
01M00000
00000000
10000000
00010000
00000000
00000000
10000000
00000000
00100000
00000000
01000000
00001000
,
01000000
00010000
01000000
00000000
00100000
10000000
00010000
01000000
00001000
00100000
00000100
00010000
00000010
00001000
00000001
00000100
,
00000001
00000000
00001000
00000100
0000001M
00000000
00000001
00001000
00000010
00000000
00100000
00000000
00001000
00000000
10000000
00000000
,
00010000
01000000
00000100
00000000
00010000
00000100
00001000
00000001
00000100
00000000
00000020
00000000
00001000
00000000
00000000
00000000
,
00000130
00000000
00000000
00000000
00000010
00000000
00000001
00000000
00000010
00000000
00001000
00000000
00000000
00000000
00000001
00000000
00001000
00000100
00002000
00000000
00000000
00000000
00003100
00010000
00000200
00000000
00000000
00000000
00M103M0
00001000
00020000
00000000
,
00000000
00000000
00031000
00000000
01000000
00000000
00001000
00010000
00000000
00000000
01000000
00000000
10000000
00010000
00000000
10000000
,
002000MM
00000000
00000000
00000000
,
00000000
00000000
00000000
00000000
,
00300000
00000000
00000000
00000000
;
