#TITLE:Hearts Burst Into Fire;
#SUBTITLE:;
#ARTIST:Bullet For My Valentine;
#TITLETRANSLIT:;
#SUBTITLETRANSLIT:;
#ARTISTTRANSLIT:;
#GENRE:;
#CREDIT:Telperion;
#BANNER:;
#BACKGROUND:;
#LYRICSPATH:;
#CDTITLE:;
#MUSIC:hbif.ogg;
#OFFSET:-0.218;
#SAMPLESTART:84.446;
#SAMPLELENGTH:21.702;
#SELECTABLE:YES;
#DISPLAYBPM:181.000:188.000;
#BPMS:0.000=128.250
,64.000=132.500
,80.000=133.000
,92.000=139.500
,96.000=186.000
,192.000=188.000
,288.000=186.000
,352.000=188.000
,448.000=181.000
,544.000=188.000
,640.000=181.000
,672.000=186.000
,736.000=181.000
,744.000=178.500
,753.000=176.000
,761.000=173.500
,769.000=171.000
,777.000=166.000
,785.000=161.000
,793.000=136.000
,800.000=126.000
,802.000=116.000
,809.000=110.000
,813.000=106.000
,816.000=116.000
;
#STOPS:
;
#BGCHANGES:;
#KEYSOUNDS:;
#ATTACKS:;

//---------------dance-single - Blank----------------
#NOTES:
     dance-single:
     :
     Challenge:
     12:
     0.755,1.000,0.574,0.688,0.320,1199.000,171.000,205.000,185.000,0.000,1.000,0.755,1.000,0.574,0.688,0.320,1199.000,171.000,205.000,185.000,0.000,1.000: // measure 0
M000
0000
00M0
0000
000M
00M0
0M00
000M
,  // measure 1
00M0
0M00
000M
00M0
0M00
000M
00M0
0M00
,  // measure 2
M000
0000
00M0
0000
0M00
000M
00M0
M000
,  // measure 3
0000
0000
0000
0000
,  // measure 4
M000
0000
00M0
0000
000M
00M0
0M00
000M
,  // measure 5
00M0
0M00
000M
00M0
0M00
000M
00M0
0M00
,  // measure 6
M000
0000
00M0
0000
0M00
000M
00M0
M000
,  // measure 7
0000
0000
0000
0000
00M0
000M
0M00
M000
,  // measure 8
0002
0000
0000
0203
0000
0000
0320
0000
,  // measure 9
0000
0000
0000
0230
,  // measure 10
0302
0000
0000
0000
0000
0000
0000
0000
0000
2003
0000
0000
0000
0000
0000
0000
0000
0000
3001
0020
0000
0000
0000
0000
,  // measure 11
0000
0000
0000
0000
0000
0000
0000
0030
,  // measure 12
0001
0000
1000
0000
0200
0300
1000
0000
0020
0030
0100
0000
0001
0000
0020
0030
,  // measure 13
0100
0000
1000
0000
0020
0030
0100
0000
0001
0000
0020
0030
0100
0000
1000
0000
,  // measure 14
2000
0100
0000
3001
0002
0100
0000
0013
,  // measure 15
0020
0100
0000
0031
0004
0000
0000
0003
,  // measure 16
1000
0100
1000
0100
0020
0000
0130
1000
0100
1000
0002
0000
0103
0001
0100
0001
,  // measure 17
0020
0000
0130
1000
0100
1000
0020
0000
0130
0001
0100
0001
0020
0000
0030
0000
,  // measure 18
0100
1000
0100
1000
0002
0000
0103
0001
0100
0001
2000
0000
3100
1000
0001
0010
,  // measure 19
0002
0000
0103
0001
1000
0010
2000
0000
3100
1000
0100
0010
0002
0000
0003
0000
,  // measure 20
0101
0000
0000
0100
0000
0000
0010
0000
0110
0000
0000
0000
0000
0000
0010
0000
,  // measure 21
1010
0000
0000
1000
0000
0000
0100
0000
0110
0000
0100
0000
1100
0000
1000
0000
,  // measure 22
0002
0003
0000
0200
0300
0000
0010
0000
1000
0010
0100
0001
1000
0010
0100
0001
,  // measure 23
0020
0000
0000
0000
0000
0000
0000
0030
,  // measure 24
0210
1000
0000
1000
,  // measure 25
0000
1000
0000
1000
,  // measure 26
0000
1000
0000
1000
,  // measure 27
0300
0000
0000
0000
1000
0000
0001
1000
0010
0000
0000
0000
0000
0000
0210
0000
,  // measure 28
0000
0001
0000
0001
,  // measure 29
0000
0001
0000
0001
,  // measure 30
0000
0001
0000
0301
,  // measure 31
1000
0000
0001
0000
1000
0000
0110
0002
,  // measure 32
0000
0000
0013
0001
0010
0000
0001
0000
1000
0000
0100
0000
0010
0000
0002
0000
,  // measure 33
0000
0000
1003
0001
1000
0000
0010
0000
0100
0000
0001
0000
1000
0000
0020
0000
,  // measure 34
0000
0000
0130
0010
0100
0000
0001
1000
0100
0000
0010
0000
0001
0000
0020
0000
,  // measure 35
0000
0000
0031
0010
0001
0000
1000
0001
0100
0000
0010
0100
0010
0000
1020
0000
,  // measure 36
0000
0000
0130
0010
0100
0000
0001
0100
0010
0000
0010
0000
1000
0000
2100
0000
,  // measure 37
0000
0000
3001
1000
0001
0000
0010
0000
0100
0000
0100
0000
0010
0000
0012
0000
,  // measure 38
0000
0000
1003
0001
1000
0000
0100
0000
1000
0000
1000
0000
0010
0000
0101
0000
,  // measure 39
0000
0110
0000
0101
0000
1001
0000
0021
,  // measure 40
0000
0000
0031
0010
0001
0000
1000
0000
0001
0000
0001
0000
1000
0000
1200
0000
,  // measure 41
0000
0000
0310
0100
0010
0000
0100
0000
1000
0000
1000
0000
0001
0000
0201
0000
,  // measure 42
0000
0000
0310
0100
0001
0000
0100
0000
0010
0000
0010
0000
1000
0000
0110
0000
,  // measure 43
0000
1001
0001
0021
0030
0010
0100
2100
,  // measure 44
0000
0000
3001
0100
0001
0000
1000
0000
0100
0000
0110
0000
1000
0000
1002
0000
,  // measure 45
0000
0000
1003
0100
1000
0000
0001
0000
0100
0000
0110
0000
0001
0000
0201
0000
,  // measure 46
0000
0000
0310
0100
0010
0000
1000
0001
0100
0000
0010
0000
1000
0000
1010
0000
,  // measure 47
0000
0110
0010
1010
1000
1001
1000
1200
,  // measure 48
0000
0000
1300
1000
0002
1003
1000
0100
,  // measure 49
1000
0001
1000
0100
0010
0001
1000
0001
,  // measure 50
0210
0000
0301
0001
2000
3001
0001
0100
,  // measure 51
0001
1000
0001
0100
0010
0100
0001
0010
,  // measure 52
0210
0000
1300
1000
0002
1003
1000
0100
,  // measure 53
1000
0001
1000
0100
0110
0100
1000
1020
,  // measure 54
0000
0000
0130
0100
0001
0100
0010
0100
,  // measure 55
0002
0003
1000
0000
0002
0003
0100
0000
0002
0003
1000
0000
0100
0000
0011
0000
,  // measure 56
0000
0000
0000
0000
0000
0000
0000
0000
0001
0000
0000
0000
0000
0000
0000
0000
0100
0000
0000
0000
0000
0000
0000
0000
0000
0000
0000
0000
0000
0000
0000
0000
0020
0000
0000
0000
0000
0000
0000
0000
2030
0000
0000
0000
0000
0000
0000
0000
3200
0000
0000
0000
0000
0000
0000
0300
0120
0000
0000
0000
0000
0000
0000
0000
,  // measure 57
0000
0000
0000
0000
0000
0000
0000
0000
0130
0000
0000
0000
0000
0000
0000
0000
2000
0000
0000
0000
3000
0000
0000
0000
0000
0000
0000
0000
0000
0000
0000
0000
0002
0000
0000
0000
0000
0000
0000
0000
0203
0000
0000
0000
0000
0000
0000
0000
0320
0000
0000
0000
0000
0000
0000
0030
0102
0000
0000
0000
0000
0000
0000
0000
,  // measure 58
0000
0103
0001
0000
0010
0001
0011
0000
,  // measure 59
1000
0100
1001
1000
0000
0001
0000
0120
,  // measure 60
0000
0000
0000
0000
0000
0000
0000
0000
0130
0000
0000
0000
0000
0000
0000
0000
0001
0000
0000
0000
0000
0000
0000
0000
0000
0000
0000
0000
0000
0000
0000
0000
2000
0000
0000
0000
0000
0000
0000
0000
3002
0000
0000
0000
0000
0000
0000
0000
0203
0000
0000
0000
0000
0000
0000
0300
1020
0000
0000
0000
0000
0000
0000
0000
,  // measure 61
0000
0000
0000
0000
0000
0000
0000
0000
0130
0000
0000
0000
0000
0000
0000
0000
0002
0000
0000
0000
0003
0000
0000
0000
0000
0000
0000
0000
0000
0000
0000
0000
2000
0000
0000
0000
0000
0000
0000
0000
3100
0000
0000
0000
0000
0000
0000
0000
0020
0000
0000
0000
0000
0000
0000
0030
1200
0000
0000
0000
0000
0000
0000
0000
,  // measure 62
0000
1300
0001
0000
0100
0001
0101
0000
,  // measure 63
1000
0000
0000
0000
0001
0000
0000
0010
0001
0000
0000
0000
0001
0000
0000
1000
0001
0000
0000
0000
0100
0000
0000
0000
0010
0000
0000
0000
2010
0000
0000
0000
,  // measure 64
0000
0000
0001
0000
0100
0000
3001
0020
,  // measure 65
0000
0030
0110
0000
1100
0000
1001
0002
,  // measure 66
0000
0000
0013
0001
0011
0010
0001
0001
,  // measure 67
0010
0001
0100
0001
0010
0100
1000
1002
,  // measure 68
0000
0000
1000
0000
0100
0000
1003
0020
,  // measure 69
0000
0030
0110
0000
1010
0000
1100
0002
,  // measure 70
0000
0000
0013
0001
0011
0010
0001
1000
,  // measure 71
1001
1000
0100
1000
1001
1000
0010
0210
,  // measure 72
0000
0000
0310
1000
0010
0000
0100
0000
0001
0000
2000
3000
0001
0000
0020
0000
,  // measure 73
0000
0000
0130
1000
0100
0000
0010
0100
1000
0000
0002
0003
1000
0000
0020
0000
,  // measure 74
0000
0000
0130
0001
0100
0000
0010
1000
0100
0000
0020
0030
0100
0000
2000
0000
,  // measure 75
0000
0000
3001
0100
0001
0000
0100
0001
1000
0000
0100
0010
0001
0000
0021
0000
,  // measure 76
0000
0000
0130
0010
0100
0000
1000
0100
0010
0000
0012
0003
1000
0000
2100
0000
,  // measure 77
0000
0000
3001
1000
0001
0000
0100
0001
0100
0000
0120
0030
1000
0000
1002
0000
,  // measure 78
0000
0000
1003
0001
1000
0000
0100
1000
0001
0000
0102
0003
0100
0000
0201
0300
,  // measure 79
0000
0000
0210
0300
0000
0000
0102
0003
0000
0000
1002
0003
0000
0000
0021
0000
,  // measure 80
0000
0000
0031
0010
0001
0000
1000
0001
1000
0000
0020
0030
1000
0000
1200
0000
,  // measure 81
0000
0000
0310
0100
0010
0000
0100
1000
0001
0000
0200
0300
0001
0000
0021
0000
,  // measure 82
0000
0000
0130
0010
0001
0000
0100
0010
0100
0000
0001
0000
1000
0000
0210
0000
,  // measure 83
0000
0000
0310
0100
0001
0000
0010
0001
0100
0000
0010
1000
0100
0000
0120
0000
,  // measure 84
0000
0000
0031
1000
0100
0000
1000
0000
0200
0000
0320
0000
0230
0000
2000
0000
,  // measure 85
0300
0000
3001
0100
0001
0000
0100
0000
0010
0000
0120
0030
0100
0000
0201
0000
,  // measure 86
0000
0000
0310
0100
0001
0000
1000
0001
1000
0000
0100
0000
1000
0000
1010
0000
,  // measure 87
0000
0110
0010
1010
0010
0110
0100
0201
,  // measure 88
0000
0000
0301
0001
2000
3001
0001
0100
,  // measure 89
0001
1000
0001
0100
0010
1000
0100
0010
,  // measure 90
0210
0000
1300
1000
0020
1030
1000
0100
,  // measure 91
1000
0001
1000
0010
1000
0001
0100
0010
,  // measure 92
0210
0000
0301
0001
0021
0031
0100
0001
,  // measure 93
1000
0100
0010
0100
0110
0100
1000
1002
,  // measure 94
0000
0000
0103
0100
0010
0100
0100
0001
,  // measure 95
2000
3000
0100
0000
2000
3000
0001
0000
2000
3000
0100
0000
0010
0000
1001
0000
,  // measure 96
0000
0000
0000
0000
0000
0000
0000
0000
0001
0000
0000
0000
0000
0000
0000
0000
0100
0000
0000
0000
0000
0000
0000
0000
0000
0000
0000
0000
0000
0000
0000
0000
0020
0000
0000
0000
0000
0000
0000
0000
2030
0000
0000
0000
0000
0000
0000
0000
3200
0000
0000
0000
0000
0000
0000
0300
0102
0000
0000
0000
0000
0000
0000
0000
,  // measure 97
0000
0000
0000
0000
0000
0000
0000
0000
0103
0000
0000
0000
0000
0000
0000
0000
2000
0000
0000
0000
3000
0000
0000
0000
0000
0000
0000
0000
0000
0000
0000
0000
0002
0000
0000
0000
0000
0000
0000
0000
0203
0000
0000
0000
0000
0000
0000
0000
0320
0000
0000
0000
0000
0000
0000
0030
0012
0000
0000
0000
0000
0000
0000
0000
,  // measure 98
0000
0013
0100
0000
0001
1000
0110
0000
,  // measure 99
0001
0100
1001
0001
0000
1000
0000
0120
,  // measure 100
0000
0000
0000
0000
0000
0000
0000
0000
0130
0000
0000
0000
0000
0000
0000
0000
1000
0000
0000
0000
0000
0000
0000
0000
0000
0000
0000
0000
0000
0000
0000
0000
0002
0000
0000
0000
0000
0000
0000
0000
0203
0000
0000
0000
0000
0000
0000
0000
0320
0000
0000
0000
0000
0000
0000
0030
0012
0000
0000
0000
0000
0000
0000
0000
,  // measure 101
0000
0000
0000
0000
0000
0000
0000
0000
0013
0000
0000
0000
0000
0000
0000
0000
2000
0000
0000
0000
3000
0000
0000
0000
0000
0000
0000
0000
0000
0000
0000
0000
0200
0000
0000
0000
0000
0000
0000
0000
1300
0000
0000
0000
0000
0000
0000
0000
0020
0000
0000
0000
0000
0000
0000
0030
0201
0000
0000
0000
0000
0000
0000
0000
,  // measure 102
0000
0301
0100
0000
0001
1000
1100
0000
,  // measure 103
0001
0000
0000
0000
1000
0000
0000
0010
1000
0000
0000
0000
1000
0000
0000
0001
1000
0000
0000
0000
0100
0000
0000
0000
0010
0000
0000
0000
0012
0000
0000
0000
,  // measure 104
0000
0000
1000
0000
0100
0000
1003
0020
,  // measure 105
0000
0030
0101
0000
0110
0000
1001
2000
,  // measure 106
0000
0000
3100
1000
1100
0100
1000
1000
,  // measure 107
0010
1000
0001
1000
0100
0010
0001
2001
,  // measure 108
0000
0000
0010
0000
0100
0000
3001
0200
,  // measure 109
0000
0300
1010
0000
0101
0000
0011
2000
,  // measure 110
0000
0000
3100
1000
1010
0010
1000
0001
,  // measure 111
1001
0001
0100
0001
1001
0001
0020
0030
,  // measure 112
0110
0000
M000
0000
,  // measure 113
000M
0000
00M0
0000
,  // measure 114
0M00
0000
00M0
0000
,  // measure 115
110M
0000
0000
0000
M101
0000
0000
0110
,  // measure 116
0000
0000
000M
0000
,  // measure 117
M000
0000
0M00
0000
,  // measure 118
00M0
0000
0M00
0000
,  // measure 119
M101
0000
0000
0000
101M
0000
0000
1100
,  // measure 120
0000
1000
0010
0000
0100
0001
0000
0010
,  // measure 121
0100
0000
1000
0100
00M0
1000
0M01
0010
,  // measure 122
010M
0000
1000
0010
000M
0100
0010
1000
,  // measure 123
1M01
0000
0010
0001
M101
0000
0010
0110
,  // measure 124
0000
1000
0010
0000
0100
0010
0000
1000
,  // measure 125
0100
0000
M010
0100
000M
1000
010M
0010
,  // measure 126
0M01
0000
1000
010M
0000
1000
00M1
0100
,  // measure 127
01M1
0000
0000
0000
11M0
0000
0000
10M1
,  // measure 128
0000
0000
0000
0000
0001
1000
0001
1000
0001
0100
0001
0100
0001
1000
0001
1000
,  // measure 129
0100
1000
0100
1000
0100
0010
0100
0010
0100
1000
0100
1000
0001
1000
0001
1000
,  // measure 130
0010
0100
0010
0100
0001
0100
0010
0100
0001
0100
0001
0100
0010
1000
0001
0100
,  // measure 131
0010
1000
0010
1000
0001
1000
0001
1000
0100
1000
0100
1000
0100
0010
0001
0010
,  // measure 132
0100
1000
0100
1000
0001
1000
0100
1000
0100
1000
0001
0010
0100
1000
0001
0010
,  // measure 133
0001
0100
0010
1000
0001
0100
0001
0100
0010
1000
0001
0100
0001
0100
0010
1000
,  // measure 134
0001
0100
0001
1000
0001
0010
0001
1000
0001
0100
0001
1000
0100
0010
0001
0100
,  // measure 135
0010
0000
0000
0000
0000
0000
0000
0210
,  // measure 136
0000
0000
0301
0001
2000
3001
0001
0100
,  // measure 137
0001
0010
0001
0100
0010
1000
0100
0010
,  // measure 138
0012
0000
1003
1000
0020
1030
1000
0100
,  // measure 139
1000
0010
0100
0010
1000
0001
1000
0100
,  // measure 140
0010
0110
0110
1000
0002
1003
1000
0100
,  // measure 141
1000
0001
1000
0100
0010
0001
0100
0102
,  // measure 142
0000
0000
0103
0100
0010
0100
0100
0001
,  // measure 143
1000
0000
0100
0000
1000
0000
0002
0003
1000
0000
0020
0030
0100
0000
0110
0000
,  // measure 144
0000
0000
0000
0000
0000
0000
0000
0000
0100
0000
0000
0000
0000
0000
0000
0000
0001
0000
0000
0000
0000
0000
0000
0000
0000
0000
0000
0000
0000
0000
0000
0000
0020
0000
0000
0000
0000
0000
0000
0000
0032
0000
0000
0000
0000
0000
0000
0000
0203
0000
0000
0000
0000
0000
0000
0300
2100
0000
0000
0000
0000
0000
0000
0000
,  // measure 145
0000
0000
0000
0000
0000
0000
0000
0000
3100
0000
0000
0000
0000
0000
0000
0000
0002
0000
0000
0000
0003
0000
0000
0000
0000
0000
0000
0000
0000
0000
0000
0000
2000
0000
0000
0000
0000
0000
0000
0000
3200
0000
0000
0000
0000
0000
0000
0000
0320
0000
0000
0000
0000
0000
0000
0030
2010
0000
0000
0000
0000
0000
0000
0000
,  // measure 146
0000
3010
0100
0000
1000
0001
0110
0000
,  // measure 147
1000
0100
1001
1000
0000
0101
0000
1020
,  // measure 148
0000
0000
0000
0000
0000
0000
0000
0000
0130
0000
0000
0000
0000
0000
0000
0000
0001
0000
0000
0000
0000
0000
0000
0000
0000
0000
0000
0000
0000
0000
0000
0000
2000
0000
0000
0000
0000
0000
0000
0000
3200
0000
0000
0000
0000
0000
0000
0000
0320
0000
0000
0000
0000
0000
0000
0030
2010
0000
0000
0000
0000
0000
0000
0000
,  // measure 149
0000
0000
0000
0000
0000
0000
0000
0000
3010
0000
0000
0000
0000
0000
0000
0000
0002
0000
0000
0000
0003
0000
0000
0000
0000
0000
0000
0000
0000
0000
0000
0000
0200
0000
0000
0000
0000
0000
0000
0000
0301
0000
0000
0000
0000
0000
0000
0000
0020
0000
0000
0000
0000
0000
0000
0030
1200
0000
0000
0000
0000
0000
0000
0000
,  // measure 150
0000
1300
0100
0000
1000
0001
1100
0000
,  // measure 151
0001
0000
0000
0000
1000
0000
0000
0010
1000
0000
0000
0000
0001
0000
0000
0010
0001
0000
0000
0000
1000
0000
0000
0000
0100
0000
0000
0000
0012
0000
0000
0000
,  // measure 152
0000
0000
0000
0000
0000
0000
0000
0000
0000
0000
0000
0000
0000
0000
0000
0000
1000
0000
0000
0000
0000
0000
0000
0000
0000
0000
0000
0000
0000
0000
0000
0003
0102
0000
0000
0000
0000
0000
0000
0000
0000
0000
0000
0000
0000
0000
0000
0000
1003
0000
0000
0000
0000
0000
0000
0000
0020
0000
0000
0000
0000
0000
0000
0000
,  // measure 153
0000
0030
0101
0000
0110
0000
1001
2000
,  // measure 154
0000
0000
3010
1000
1010
0010
1000
1000
,  // measure 155
0010
1000
0001
0100
0001
0010
0100
2001
,  // measure 156
0000
0000
0000
0000
0000
0000
0000
0000
0000
0000
0000
0000
0000
0000
0000
0000
0010
0000
0000
0000
0000
0000
0000
0000
0000
0000
0000
0000
0000
0000
0000
3000
2100
0000
0000
0000
0000
0000
0000
0000
0000
0000
0000
0000
0000
0000
0000
0000
3001
0000
0000
0000
0000
0000
0000
0000
0200
0000
0000
0000
0000
0000
0000
0000
,  // measure 157
0000
0300
1010
0000
0011
0000
1100
0002
,  // measure 158
0000
0000
0013
0001
0101
0001
0010
0001
,  // measure 159
1001
1000
0100
0010
0001
1000
0010
0201
,  // measure 160
0000
0000
0301
0100
0001
0010
0000
0100
,  // measure 161
0000
1000
0100
1000
0001
0100
0010
1000
,  // measure 162
0000
1000
0100
1000
0010
0100
0010
0001
,  // measure 163
0000
0010
0000
1000
0000
1000
0000
0001
,  // measure 164
1000
0001
1000
0001
1000
0001
1000
0001
0100
0001
0100
0001
1000
0001
1000
0001
,  // measure 165
0100
0001
0100
0001
1000
0001
1000
0001
1000
0100
1000
0100
1000
0001
1000
0001
,  // measure 166
1000
0100
0010
0100
1000
0100
0010
0001
1000
0100
0010
0001
0100
0001
1000
0010
,  // measure 167
0100
0000
0000
0000
0000
0000
0000
0210
,  // measure 168
0000
0000
0310
0100
0010
0000
1000
0001
1000
0000
0020
0030
1000
0000
0200
0000
,  // measure 169
0000
0000
0310
0100
1000
0000
0001
1000
0100
0000
0020
0030
0100
0000
1002
0000
,  // measure 170
0000
0000
0103
0010
0100
0000
0001
0100
0010
0000
2000
3000
0001
0000
0201
0000
,  // measure 171
0000
0000
0301
1000
0001
0000
0021
0000
0000
0000
0031
1000
0001
0000
2010
0000
,  // measure 172
0000
0000
3001
0100
0010
0000
0100
0001
0100
0000
0020
0030
0100
0000
0102
0000
,  // measure 173
0000
0000
1003
0100
0010
0000
0100
1000
0001
0000
0200
0300
0001
0000
0020
0000
,  // measure 174
0000
0000
0031
0010
0001
0000
1000
0000
0001
0000
0020
0030
0100
0000
1100
0000
,  // measure 175
0000
0110
0100
1100
1000
1001
0001
0201
,  // measure 176
0000
0000
0310
0100
0101
0100
0010
2000
,  // measure 177
0000
3001
1000
0100
0110
0100
1000
0002
,  // measure 178
0000
0103
0001
0100
0110
0100
0001
0020
,  // measure 179
0000
0000
0000
0000
0000
0000
0000
0030
0110
0000
0000
0000
0000
0000
0000
0000
0000
0000
0000
0000
0000
0000
0000
0000
1000
0000
0000
0000
0000
0000
0000
0000
1001
0000
0000
0000
0000
0000
0000
0000
0000
0000
0000
0000
0000
0000
0000
0000
0001
0000
0000
0000
0000
0000
0000
0000
0201
0000
0000
0000
0000
0000
0000
0000
,  // measure 180
0000
0000
0310
0100
0101
0100
0010
2000
,  // measure 181
0000
3001
1000
0100
1100
0100
0020
0230
,  // measure 182
0302
0103
0010
0100
1100
1000
1001
0001
,  // measure 183
0201
0000
0000
0300
0120
0000
0030
2002
,  // measure 184
0000
00M0
0M00
00M0
,  // measure 185
0M00
00M0
0M00
00M0
,  // measure 186
0M00
00M0
0M00
00M0
,  // measure 187
0M00
0000
00M0
3003
0M00
0000
00M0
0000
,  // measure 188
0M00
000M
M000
000M
,  // measure 189
M000
00M0
0M00
00M0
,  // measure 190
0M00
0000
0000
M000
00M0
0000
0000
0M00
0000
0000
00M0
0000
,  // measure 191
0000
0M00
0000
000M
0000
0000
0M00
0000
0000
00M0
0000
0000
,  // measure 192
0M00
000M
M000
000M
,  // measure 193
M000
00M0
0M00
00M0
,  // measure 194
0M00
000M
00M0
0M00
,  // measure 195
M000
000M
00M0
0M00
,  // measure 196
M000
0000
000M
0000
0000
00M0
0000
0000
0M00
0000
0000
M000
,  // measure 197
000M
00M0
0M00
M000
,  // measure 198
000M
0M00
00M0
0000
,  // measure 199
M000
00M0
0M00
000M
,  // measure 200
M000
0000
0000
0000
0000
0000
000M
0000
0000
0000
00M0
0000
0000
0000
0000
0000
0000
0000
0000
M000
0000
0000
0000
0000
,  // measure 201
00M0
0M00
000M
00M0
,  // measure 202
0M00
M000
00M0
0M00
,  // measure 203
000M
00M0
0M00
M000
,  // measure 204
0000
000M
0000
0000
0000
0000
0MM0
0000
,  // measure 205
0000
0000
0000
0000
,  // measure 206
0000
0000
0000
0000
,  // measure 207
0000
00M0
0000
00M0
,  // measure 208
0000
00M0
0000
00M0
,  // measure 209
0000
00M0
00M0
00M0
,  // measure 210
00M0
0000
0000
0000
00M0
0000
00M0
0000
00M0
0000
00M0
0000
00M0
00M0
00M0
00M0
,  // measure 211
00M0
0000
0000
0000
0000
0000
0000
0000
00M0
0000
0000
0000
0000
0000
0000
0000
00M0
0000
0000
0000
0000
0000
0000
0000
00M0
0000
0000
0000
0000
0000
0000
0000
00M0
0000
0000
0000
0000
0000
0000
0000
00M0
0000
0000
0000
0000
0000
0000
0000
00M0
0000
0000
0000
0000
0000
00M0
0000
0000
0000
0000
0000
00M0
0000
0000
0000
0000
0000
00M0
0000
0000
0000
0000
0000
00MM
0000
0000
0000
0000
0000
0000
0000
0000
0000
0000
0000
M000
0000
0000
0000
0000
0000
0000
0000
0000
0000
0000
0000
0000
0000
0000
0000
0000
0000
0000
0000
0000
0000
0000
0000
0000
0000
0000
0000
0000
0000
0000
0000
0000
0000
0000
0000
0000
0000
0000
0000
0000
0000
0000
0000
0000
0000
0000
0000
0000
0000
0000
0000
0000
0000
0000
0000
0000
0000
0000
0000
0000
0000
0000
0000
0000
0000
0000
0000
0000
0000
0000
0000
0000
0000
0000
0000
0000
0000
0000
0000
0000
0000
0000
0000
0000
0000
0000
0000
0000
0000
0000
0000
0000
0000
0000
0000
0000
0000
0000
0000
0000
0000
0000
0000
0000
0000
0000
0000
;
