#TITLE:Aha!;
#SUBTITLE:;
#ARTIST:Imogen Heap;
#TITLETRANSLIT:;
#SUBTITLETRANSLIT:;
#ARTISTTRANSLIT:;
#GENRE:;
#CREDIT:Telperion;
#BANNER:Aha-bn.png;
#BACKGROUND:Aha-bg.png;
#LYRICSPATH:Aha.lrc;
#CDTITLE:;
#MUSIC:Aha.ogg;
#OFFSET:-0.116;
#SAMPLESTART:34.145;
#SAMPLELENGTH:20.207;
#SELECTABLE:YES;
#DISPLAYBPM:126.000:177.000;
#BPMS:0.000=177.000,30.000=88.500,31.000=177.000,67.000=44.250,68.000=177.000,96.000=44.250,97.000=177.000,127.000=88.500,128.000=177.000,140.000=147.953,141.000=132.751,142.000=120.377,143.000=177.000,163.000=44.250,164.000=177.000,192.000=44.250,193.000=177.000,265.000=125.900,289.000=100.000,289.500=95.000,290.000=90.000,290.500=85.000,291.000=80.000,291.500=75.000,292.000=70.000,292.500=65.000,293.000=50.000,293.500=39.900,294.000=42.950,295.000=177.000,326.000=531.000,338.000=177.000;
#STOPS:;
#BGCHANGES:;
#KEYSOUNDS:;

//---------------dance-single - Telperion----------------
#NOTES:
     dance-single:
     Telperion:
     Easy:
     3:
     0.186,0.199,0.098,0.065,0.000:
0000
0000
0000
0000
,
0000
0000
0000
0000
,
0000
0000
0000
0000
,
0000
0000
0000
0000
,
1000
0000
0100
0000
,
0001
0000
0100
0000
,
1000
0000
0100
0000
,
0010
0100
0100
1000
,
0000
1000
0000
0001
,
0000
0001
0000
0100
,
0000
0010
0000
0110
,
0000
0000
0000
0010
,
0000
0010
0000
1000
,
0000
1000
0000
0100
,
0000
0010
0000
0001
,
0000
0010
0000
0200
,
0000
0000
0000
0300
,
0110
0000
0000
0000
,
0001
0000
0000
0000
,
0101
0000
0000
0000
,
1000
0000
0000
0000
,
1100
0000
0000
0000
,
0110
0000
0000
0000
,
2002
0000
0000
0000
,
3003
0001
0000
1000
,
0000
0100
0000
0001
,
0000
0100
0000
0010
,
0000
0100
0000
0000
,
0000
1000
0000
0001
,
0000
0100
0000
0001
,
0000
1000
0000
0100
,
0000
1000
0000
1001
,
0001
0000
0100
0000
,
0010
0000
0100
0000
,
1000
0000
0100
0000
,
0002
0000
0000
1003
,
0000
0100
0000
0010
,
0000
0100
0000
1000
,
0000
0001
0000
0010
,
0000
0100
0000
1000
,
0000
1000
0000
0001
,
0101
0000
0000
0000
,
1010
0000
0000
0000
,
1100
0000
0000
0000
,
0011
0000
0000
0000
,
0001
0000
0100
0000
,
1000
0000
0010
0000
,
0002
0000
0000
0000
,
0003
0001
0000
1000
,
0000
0001
0000
0100
,
0000
1000
0000
0100
,
0000
1000
0000
0100
,
0000
0001
0000
1000
,
0000
0010
0000
1000
,
0000
0001
0000
0010
,
0000
0001
0000
1000
,
0000
0010
0010
0010
,
0000
0100
0100
0100
,
0000
0001
0000
0001
,
0000
1000
0000
0100
,
0000
0010
0010
0010
,
0000
0100
0100
0100
,
0000
1000
0000
0100
,
0000
0001
0000
0100
,
0000
1000
0000
0000
,
0000
0002
0000
0000
,
0000
1003
0000
0000
,
0000
0100
0000
0000
,
0000
0001
0000
0000
,
0000
0010
0000
0000
,
0000
1000
0000
0010
,
0000
0001
0000
0100
,
0000
2000
0000
0000
,
0000
0000
3000
1001
,
0000
0010
0000
0100
,
0000
1000
0000
0001
,
0000
1000
0000
0001
,
0000
0000
0000
0100
,
0100
0100
0000
0010
,
0010
0010
0000
1000
,
1000
1000
0000
0001
,
1000
0002
0003
0000
;

//---------------dance-single - Telperion----------------
#NOTES:
     dance-single:
     Telperion:
     Medium:
     7:
     0.395,0.465,0.057,0.204,0.000:
0000
0000
0000
0000
,
0000
0000
0000
0000
,
0000
0000
0000
0000
,
0000
0000
0000
0000
,
1000
0000
0000
0001
1000
0000
0000
1000
,
0001
0000
0000
0100
0000
0100
0000
0100
,
0010
0000
0000
0010
0100
0000
0000
0100
,
0001
0010
0100
1000
0001
0000
1000
0000
,
1000
0001
0001
0100
,
0010
0100
0000
0100
0010
0000
1000
0000
,
0010
0100
0001
0010
,
0000
0000
0000
0110
,
0010
0000
0100
0000
0100
1000
0000
1000
,
0100
0010
0010
0100
,
1000
0001
0100
0001
,
1000
0000
0100
0010
0100
0010
0001
0000
,
0001
1000
1000
0001
,
1001
0000
1000
0001
0000
0001
0000
0000
,
1000
0000
0001
1000
0000
1000
0000
0000
,
0100
0000
0010
0001
0000
0001
0000
0000
,
0100
0000
0010
1000
0000
1000
0000
0000
,
0001
0000
0100
0001
0000
1000
0000
0000
,
0100
0000
1000
0001
0000
0100
0000
0002
,
2000
0000
0000
0000
,
3003
0000
0001
1000
0001
0000
1000
0001
,
1000
0000
0100
1000
0100
0010
1000
0000
,
0000
0000
0010
0001
0010
0000
0001
1000
,
0001
0000
1000
0010
0000
0010
0000
0000
,
0000
0000
0100
0001
0100
0000
0001
1000
,
0001
0000
1000
0100
1000
0000
0001
1000
,
0001
0000
1000
0001
1000
0001
1000
0001
,
1000
0001
1000
0010
0100
0001
1000
0000
,
0100
0000
0000
0100
0010
0000
0000
0010
,
0001
0000
0000
0001
0100
0001
0000
0000
,
0010
0000
0000
0010
0100
0000
0000
0100
,
2000
0000
3000
1000
,
0000
1000
0001
0000
0000
0001
0100
0000
,
0000
0100
1000
0000
0100
0000
0001
0000
,
0000
1000
0001
0000
0000
0010
0100
0000
,
0000
1000
0010
0000
0000
0100
0001
0000
,
0001
1000
1000
0001
,
1001
0000
0001
0100
0000
0100
0000
0000
,
0001
0000
1000
0100
0000
0100
0000
0000
,
1000
0000
0010
0100
0000
1000
0000
0000
,
0100
0000
0001
0010
0000
0100
0000
0000
,
0010
0000
0100
0001
0000
0100
0000
0000
,
1000
0010
0001
0010
,
2000
0000
0000
0000
,
3000
0000
1002
0000
0000
1003
0200
0000
,
0000
0310
0002
0000
0000
0103
1000
0100
,
1000
0000
0200
0000
0000
0301
0020
0000
,
0000
0130
2000
0000
0000
3100
0010
0001
,
0010
0000
0001
1000
0001
0000
1000
0010
,
1000
0000
0001
1000
0001
0000
0010
0001
,
0010
0000
0001
0100
0001
0000
1000
0100
,
1000
0001
0100
1100
,
0000
1000
1000
0001
,
0001
0100
0100
0010
,
0100
0001
0000
1000
,
0100
1000
0000
0001
,
0100
0001
0001
0010
,
0010
0100
1000
0100
,
0010
0001
0100
0010
,
0100
1000
0100
0010
,
1000
0002
0000
0000
,
0000
2000
0000
0000
,
3003
0220
0000
0000
,
0000
0000
0000
0330
,
0000
0002
0000
0203
,
0000
0020
0000
0330
,
0000
2000
0000
3200
,
0000
0302
0000
0023
,
0000
2030
0000
0000
,
0000
0000
0000
0000
3000
0000
1000
0001
,
1000
0000
0100
1000
0100
0000
1000
0001
,
0010
0001
0000
0001
0000
0000
2000
0000
,
0000
3100
0020
0000
0000
0130
0002
0000
,
0000
0103
0000
0100
0000
0000
0010
0100
,
0010
0000
0100
1000
0100
0000
1000
0010
,
1000
0000
0010
0100
0010
0000
0100
0001
,
0100
0000
0001
0010
0001
0000
0010
0100
,
1000
0001
0100
0000
1001
0000
0000
0000
;

//---------------dance-single - Easy----------------
#NOTES:
     dance-single:
     Easy:
     Hard:
     9:
     0.502,0.531,0.122,0.130,0.000:
0000
0000
0000
0000
,
0000
0000
0000
0000
,
0000
0000
0000
0000
,
0000
0000
0000
0000
,
1000
0100
1000
0100
0001
0100
0001
0100
,
0010
0001
0100
0010
0001
0010
0100
0000
,
0001
0100
0001
0100
1000
0100
1000
0100
,
0010
1000
0100
0010
0001
0000
1100
0000
,
0001
0000
0101
0000
1000
0000
0100
0010
,
0001
0100
0000
0100
0001
0000
1000
0000
,
0100
0000
0001
0000
0100
0000
1000
0100
,
1000
0100
0010
0100
1000
0000
0001
0000
,
0101
0000
1000
0100
1000
0001
0000
0001
,
0000
0001
0100
0000
0110
0000
1000
0000
,
0100
0000
0010
0001
0100
0001
0000
0100
,
0010
0100
0000
0010
0100
1000
0100
0000
,
0001
1000
0100
1001
,
0001
0000
1000
0100
0000
0100
1000
0100
,
0010
0000
0100
0010
0000
0010
0001
0100
,
0010
0000
0010
0100
0000
0100
1000
0100
,
0001
0000
0001
1000
0000
1000
0000
0000
,
1001
0000
1000
0100
0000
0100
0010
0000
,
1001
0000
0001
0100
0000
0100
0010
0000
,
0020
0000
0000
0000
,
0030
0000
0100
0001
0100
0010
0100
1000
,
0100
0010
1000
0100
0020
0001
0130
0000
,
0000
0000
1000
0010
0100
0000
0001
0010
,
0100
0000
1000
0100
0010
0002
0000
0000
,
0003
0001
0100
0001
0100
0010
0100
1000
,
0100
0010
1000
0100
0010
0001
1000
0001
,
1000
0000
0001
0100
0010
1000
0010
0100
,
0001
0010
0100
0000
1000
0000
1001
0000
,
0001
0000
0100
0001
1000
0000
0100
1000
,
0000
0100
0001
0000
0100
1000
0001
0000
,
0100
0001
1000
0000
0100
1000
0001
0000
,
0200
0000
0000
0000
0000
0000
0310
1000
,
0001
0000
0010
1000
0010
0000
0001
1000
,
0010
0001
0000
0010
1000
0100
0010
0100
,
0010
0001
0100
1000
,
0010
0001
0100
0010
,
0010
0100
0100
0110
,
0010
1000
0100
0010
0000
0100
1000
0000
,
0001
0100
0010
1000
0000
0010
0100
0000
,
0001
0010
0100
1000
0000
1000
0100
0010
,
0001
0100
0010
0100
0000
0100
0010
0000
,
1000
0000
0100
0001
0000
0001
0100
0000
,
1000
0000
0010
0001
0000
0010
1000
0000
,
0200
0000
0000
0000
,
0310
0000
0110
0010
0001
0000
0100
0001
,
1000
0000
0100
0010
0001
0000
0100
0001
,
1000
0001
0100
0010
1000
0000
0100
0001
,
0100
0000
1000
0010
0100
0000
1000
0100
,
0001
0000
1000
0100
0001
0100
1000
0100
,
0001
0000
0100
0010
0001
1000
0000
0001
,
0000
1000
0001
0100
1000
0100
0001
0100
,
1000
0000
0100
0001
1000
0001
0100
0010
,
0100
0010
0100
0000
0100
0000
0010
0000
,
0010
1000
1000
0100
,
0100
0010
0000
0010
,
0100
0001
0100
0010
,
0001
0100
0001
0100
,
0010
1000
0100
0001
,
0010
0001
0100
1000
,
0010
0001
0100
0001
,
0010
2002
0000
0000
,
0000
0000
3003
0000
0001
1000
0100
0001
,
1000
0010
0002
0000
0000
0000
0000
0000
,
0000
0203
0000
0000
,
0000
2300
0000
0000
,
0000
3020
0000
0000
,
0000
0032
0000
0023
,
0000
2030
0000
3200
,
0000
0320
0000
0000
,
0000
0000
0000
0000
0030
0000
0110
0010
,
1000
0100
0010
0100
0001
0000
0110
0001
,
0100
1000
0000
1000
0100
0001
0010
0100
,
0010
0001
0100
0010
0100
1000
0100
0001
,
0010
0100
0000
0100
0010
0001
1000
0100
,
1000
0100
0001
0100
0001
0100
1000
0010
,
0001
1000
0100
0001
1000
0100
0010
0001
,
0010
1000
0010
0001
0100
1000
0100
0001
,
0010
0100
1001
0000
0110
0000
0000
0000
;

//---------------dance-double - Telperion----------------
#NOTES:
     dance-double:
     Telperion:
     Easy:
     3:
     0.167,0.166,0.106,0.024,0.000:
00000000
00000000
00000000
00000000
,
00000000
00000000
00000000
00000000
,
00000000
00000000
00000000
00000000
,
00000000
00000000
00000000
00000000
,
10000000
00000000
01000000
00000000
,
00100000
00000000
00000000
00000000
,
00010000
00000000
01000000
00000000
,
00100000
00000000
00100000
01000000
,
00000000
01000000
00000000
00001000
,
00000000
00001000
00000000
00010000
,
00000000
00000100
00000000
00001000
,
00000000
00000000
00000000
00000100
,
00000000
00000100
00000000
00010000
,
00000000
00001000
00000000
01000000
,
00000000
00010000
00000000
10000000
,
00000000
00100000
00000000
02000000
,
00000000
00000000
00000000
03000000
,
10010000
00000000
00000000
00000000
,
00010000
00000000
00000000
00000000
,
00011000
00000000
00000000
00000000
,
00010100
00000000
00000000
00000000
,
00001000
00000000
00000000
00000000
,
00001001
00000000
00001000
00000000
,
00011000
00000000
00000000
00000000
,
00000000
00001000
00000000
00001000
,
00000000
00100000
00000000
01000000
,
00000000
00100000
00000000
00100000
,
00000000
00010000
00000000
00000000
,
00000000
10000000
00000000
01000000
,
00000000
00010000
00000000
00001000
,
00000000
00010000
00000000
00001000
,
00000000
00000100
00000000
00000001
,
00001000
00000000
00000001
00000000
,
00001000
00000000
00000010
00000000
,
00010000
00000000
00001000
00000000
,
00100000
00000000
00000000
00100000
,
00000000
00010000
00000000
00100000
,
00000000
01000000
00000000
10000000
,
00000000
01000000
00000000
00010000
,
00000000
01000000
00000000
10000000
,
00000000
10000000
00000000
00010000
,
10010000
00000000
00000000
00000000
,
00101000
00000000
00000000
00000000
,
00010100
00000000
00000000
00000000
,
00001001
00000000
00000000
00000000
,
00010010
00000000
00000000
00000000
,
00011000
00000000
01000000
00000000
,
10010000
00000000
00000000
00000000
,
00000000
01000000
00000000
10000000
,
00000000
01000000
00000000
00010000
,
00000000
00001000
00000000
00010000
,
00000000
00100000
00000000
10000000
,
00000000
01000000
00000000
00010000
,
00000000
00001000
00000000
00000100
,
00000000
00000001
00000000
00000010
,
00000000
00001000
00000000
00010000
,
00000000
00001000
00000000
00001000
,
00000000
00010000
00000000
00010000
,
00000000
00100000
00000000
00000000
,
00000000
00100000
00000000
00000000
,
00000000
00010000
00000000
00001000
,
00000000
00100000
00000000
01000000
,
00000000
10000000
00000000
00010000
,
00000000
00100000
00000000
01000000
,
00000000
00010000
00000000
00000000
,
00000000
00000010
00000000
00000000
,
00000000
00000200
00000000
00000300
,
00000000
00000000
00000000
00000000
,
00000000
00001000
00000000
00000000
,
00000000
00010000
00000000
00000000
,
00000000
01000000
00000000
00000000
,
00000000
00010000
00000000
00000000
,
00000000
00000200
00000000
00000000
,
00000000
00000000
00000300
00001000
,
00000000
00000001
00000000
00001000
,
00000000
00000100
00000000
00010000
,
00000000
00001000
00000000
00010000
,
00000000
01000000
00000000
10000000
,
00000000
00010000
00000000
00001000
,
00000000
00000100
00000000
00010000
,
00000000
01000000
00000000
10000000
,
00000000
00010000
01100000
00000000
;

//---------------dance-double - Telperion----------------
#NOTES:
     dance-double:
     Telperion:
     Medium:
     7:
     0.352,0.365,0.082,0.171,0.000:
00000000
00000000
00000000
00000000
,
00000000
00000000
00000000
00000000
,
00000000
00000000
00000000
00000000
,
00000000
00000000
00000000
00000000
,
10000000
00000000
00000000
10000000
01000000
00000000
00000000
01000000
,
00010000
00000000
00000000
00001000
00000000
00000100
00000000
00000001
,
00001000
00000000
00000000
00000001
00001000
00000000
00000000
00001000
,
00000001
00000010
00001000
00011000
,
00000000
00001100
00000000
00011000
,
00000000
00100000
00000000
00100000
00000000
01000000
00100000
00000000
,
00010000
01000000
10000000
01000000
,
00000000
00010000
00000000
00010000
00000000
00010000
10000000
00000000
,
01000000
00010000
00001000
00000100
,
00000001
00000000
00001000
00000001
00001000
00000000
00000010
00000000
,
00000010
00000100
00001000
00010000
,
01000000
00100000
00010000
10000000
,
10000000
00010000
00010000
01000000
,
01100000
00000000
00000000
00010000
00000000
00000000
00001000
00000000
,
00000100
00000000
00000000
00001000
00000000
00000000
00010000
00000000
,
01000000
00000000
00000000
10000000
00000000
00000000
00100000
00000000
,
00010000
00000000
00000000
00001000
00000000
00000000
00000000
00000000
,
00011000
00000000
00000000
00001000
00000000
00000000
00000100
00000000
,
00000001
00000000
00000000
00000010
00000000
00000000
00000100
00000000
,
00020000
00000000
00000000
00000000
,
00030000
00000000
00001000
00000000
00000000
00001000
00100000
00000000
,
00000000
00100000
01000000
00000000
01000000
00100000
10000000
00000000
,
00000000
00000000
00100000
00000000
00000000
00010000
01000000
00000000
,
00000000
01000000
00001000
00000000
00000000
00001000
00000000
00010000
,
00000000
01000000
10000000
00000000
00000000
01000000
00010000
00000000
,
00000000
00001000
00000100
00000000
00000000
00000001
00000000
00000010
,
00000000
00000100
00001000
00000000
00000000
00001000
00000001
00000000
,
00000000
00000001
00000100
00000000
00001000
00000000
00010100
00000000
,
00000100
00010000
00001000
01000000
,
00100000
00010000
00100000
10000000
,
01000000
00010000
00001000
00000010
,
00000002
00000000
00000003
00000010
,
00000100
00010000
00001000
00000100
,
00000010
00000100
00000000
00000100
00001000
00000000
00010000
00000000
,
00001000
00100000
00100000
01000000
,
01000000
10000000
00010000
01000000
,
01000000
00001000
00001000
00000100
,
00000001
00000000
00000000
00000010
00000000
00000000
00001000
00000000
,
00010000
00000000
00000000
00100000
00000000
00000000
10000000
00000000
,
01000000
00000000
00000000
00010000
00000000
00000000
00001000
00000000
,
00000100
00000000
00000000
00001000
00000000
00000000
00010000
00000000
,
01000000
00000000
00000000
00100000
00000000
00000000
00001000
00000000
,
00000010
00000000
00000000
00000001
00000000
00000000
00000100
00000000
,
00002000
00000000
00000000
00000000
,
00003000
00000000
00010200
00000000
00000300
00000100
00020000
00000000
,
00030000
00010000
00002000
00000000
00003000
00001000
01000000
00000000
,
00000000
00000000
00200000
00000000
00300000
00100000
02000000
00000000
,
03000000
01000000
20000000
00000000
30000000
01000000
00000000
00010000
,
00000000
00000000
10000000
01000000
10000000
00000000
01000000
00000000
,
00010000
00000000
00001000
00010000
00001000
00000000
00010000
00000000
,
00000100
00000000
00000010
00000100
00000010
00000000
00000001
00000000
,
00000010
00000100
00000010
00000101
,
00000000
00000001
00000001
00001000
,
00001000
00000100
00010000
00001000
,
01000000
10000000
00000000
10000000
,
01000000
00100000
01000000
00010000
,
10000000
00010000
00010000
01000000
,
01000000
00001000
00010000
00000100
,
00000010
00000001
00000100
00001000
,
00010000
00000100
00010000
01000000
,
00100000
00020000
00000000
00000000
,
00000000
20000000
00000000
00000000
,
30030000
20020000
00000000
00000000
,
00000000
00000000
00000000
30030000
,
00000000
20000000
00000000
32000000
,
00000000
03002000
00000000
00003000
,
00000000
00000200
00000000
00000320
,
00000000
00002030
00000000
00023000
,
00000000
00230000
00000000
00000000
,
00000000
00000000
00000000
00000000
00300000
00000000
00100000
01000000
,
00100000
00000000
10000000
00100000
10000000
00000000
01000000
10000000
,
00000000
00010000
00000000
10000000
00000000
00000000
01000000
00100000
,
01000000
00000000
00100000
00001000
00100000
00000000
00001000
00010000
,
00000000
00000010
00000000
00010000
00000000
00000000
00001000
00010000
,
00001000
00000000
00010000
00001000
00010000
00000000
00000100
00001000
,
00000000
00000001
00000000
00001000
00000000
00000100
00010000
00001000
,
00010000
00000000
00001000
00010000
00001000
00000000
00100000
00001000
,
00010000
00001000
00010000
00000000
00011000
00000000
00000000
00000000
;

//---------------dance-double - Telperion----------------
#NOTES:
     dance-double:
     Telperion:
     Hard:
     9:
     0.461,0.498,0.033,0.187,0.008:
00000000
00000000
00000000
00000000
,
00000000
00000000
00000000
00000000
,
00000000
00000000
00000000
00000000
,
00000000
00000000
00000000
00000000
,
10000000
01000000
10000000
00000000
00010000
10000000
00010000
00000000
,
10000000
01000000
00100000
00001000
00000000
00000100
00000000
00000001
,
00000010
00000001
00000010
00000000
00000001
00001000
00000001
00000000
,
00000010
00000100
00010000
00001000
00011000
00000000
00100000
00000000
,
00010000
00000000
10000000
00000000
00010000
00000000
00100000
01000000
,
10000000
00010000
00000000
10000000
01000000
00010000
00000000
00001000
,
00000100
00000001
00000010
00000100
00001000
00000000
00000001
00000000
,
00000001
00001000
00000000
00000001
,
00001000
00000000
00000001
00000000
00000100
00000010
00000000
00000010
,
00000000
00000010
00000100
00000001
00001000
00000010
00010000
00000000
,
00001000
00010000
00001000
00000000
00100000
00001000
00100000
00000000
,
00010000
00100000
00010000
00000000
10000000
00010000
10000000
01000000
,
00100000
01000000
00010000
00001000
00010000
00000100
00000010
00000000
,
00000001
00000000
00000000
00000100
00000000
00000000
00010000
00000000
,
01000000
00000000
00100000
01000000
00000000
01000000
00100000
00000000
,
10000000
00000000
00000000
01000000
00000000
00000000
00001000
00000000
,
00000100
00000000
00000010
00000100
00000000
00000010
00000001
00000000
,
00000100
00000000
00000001
00001000
00000000
00000100
00001000
00000000
,
00000001
00000000
00000100
00001000
00000000
00010000
00000100
00000000
,
00022000
00000000
00000000
00000000
,
00033000
00000000
00010000
00001000
00010000
00000000
00000000
00000100
,
00001000
00000000
00000000
00000100
00000020
00000000
00001000
00000000
,
00000030
00000000
00000001
00000100
00000001
00000000
00000000
00001000
,
00000100
00000000
00000000
00010000
00001000
01000000
00000000
00100000
,
00000000
01000000
00001000
00010000
01000000
00000000
00100000
01000000
,
10000000
00000000
01000000
00100000
00001000
00000000
00010000
00100000
,
01000000
00000000
00100000
00010000
00001000
00000000
00010000
00001000
,
00000100
00000000
00001000
00000100
00000001
00000010
00000100
00000000
,
00000020
00000000
00000230
00000000
,
00001300
00000000
00000000
00000001
00000000
00000000
00000100
00000000
00000001
00000000
00000100
00000000
,
00000020
00000000
00002030
00000000
,
02003000
00000000
00000000
13000000
,
00010000
00000000
01000000
00000000
00010000
00000000
10000000
01000000
,
00000000
01000000
00000000
01000000
10000000
01000000
00010000
01000000
,
00010000
00002000
00013000
00001000
,
00000100
00000000
00000001
00000000
00001000
00000100
00000010
00000100
,
00001000
00000100
00010000
00001000
00100000
00000000
01000000
00000000
,
10000000
00000000
00100000
00010000
00000000
00001000
00000100
00000000
,
00000001
00000000
00000010
00001000
00000000
00010000
01000000
00000000
,
10000000
00100000
01000000
00001000
00000000
00000100
00000001
00000000
,
00000010
00000100
00010000
00001000
00000000
00100000
01000000
00000000
,
10000000
01000000
00100000
00001000
00000000
00001000
00000100
00000000
,
00000001
00000010
00000100
00010000
00000000
00010000
00001000
00000100
,
00000020
00000000
00000000
00000000
,
00000030
00000000
00000100
00000001
00000100
00000000
00000001
00001000
,
00000001
00000000
00001000
00000100
00001000
00000100
00010000
00001000
,
00100000
00000000
01000000
10000000
01000000
00000000
10000000
00010000
,
10000000
00000000
01000000
00100000
00001000
00010000
00000000
00010000
,
00000000
00010000
00001000
00100000
00001000
00000000
00010000
00000010
,
00010000
00000000
00001000
00100000
00001000
00010000
00000000
00100000
,
00000000
01000000
00100000
00010000
00100000
00000000
10000000
01000000
,
10000000
00000000
00100000
01000000
00100000
10000000
01000000
00010000
,
00001000
00000100
00000010
00000000
00000010
00000000
00000100
00000000
,
00000100
00000001
00000001
00000010
,
00000010
00000100
00000000
00000100
,
00010000
01000000
10000000
01000000
,
00010000
00001000
00001000
01000000
,
01000000
00100000
01000000
10000000
,
01000000
00010000
00100000
01000000
,
00001000
00000010
00000100
00001000
,
00010000
00001000
00000000
00000000
,
00000000
00022000
00000000
00000000
,
00030000
00203000
00000000
00000000
,
00000000
20300000
00000000
30200000
,
00000000
00302000
00000000
00000000
,
00000000
00003200
00000000
00000302
,
00000000
00000023
00000000
00002030
,
00000000
02003000
00000000
23000000
,
00000000
30200000
00000000
00000000
,
00000000
00000000
00000000
00000000
00300000
00000000
00010000
10000000
,
01000000
10000000
01000000
00100000
00010000
00000000
00100000
00001000
,
00010000
00100000
01000000
00010000
00100000
00000000
01000000
00010000
,
01000000
00010000
00001000
00010000
00001000
00000100
00000001
00000010
,
00000100
00010000
00000000
01000000
00000000
10000000
00010000
10000000
,
00010000
01000000
00001000
00010000
00000100
00001000
00000001
00000100
,
00000001
00001000
00000100
00001000
00000001
00000000
00000001
00001000
,
00000100
00010000
00001000
01000000
00010000
10000000
01000000
00100000
,
00001000
00000100
00000010
00000000
00001001
00000000
00000000
00000000
;
