#TITLE:Viva La Vida;
#SUBTITLE:(HOUSE NATION Mix);
#ARTIST:DJ OMKT;
#TITLETRANSLIT:;
#SUBTITLETRANSLIT:;
#ARTISTTRANSLIT:;
#CREDIT:DigiMindAxel;
#BANNER:Viva La Vida (HOUSE NATION Mix).png;
#BACKGROUND:Viva La Vida (HOUSE NATION Mix)-bg.png;
#LYRICSPATH:Viva La Vida (HOUSE NATION Mix).lrc;
#CDTITLE:house nation.png;
#MUSIC:Viva La Vida (HOUSE NATION Mix).ogg;
#METERTYPE:DDR X;
#OFFSET:-8.846;
#SAMPLESTART:67.242;
#SAMPLELENGTH:12.000;
#SELECTABLE:YES;
#BPMS:0.000=131.000;
#STOPS:;
#BGCHANGES:;

//---------------dance-single - ----------------
#NOTES:
     dance-single:
     :
     Easy:
     3:
     0.162,0.215,0.080,0.000,0.000: // measure 1
0000
0000
0000
0000
,  // measure 2
0000
0000
0000
0000
,  // measure 3
0000
0000
0000
0000
,  // measure 4
0000
0000
0000
0000
,  // measure 5
0001
0000
0001
0000
,  // measure 6
0001
0000
0000
0000
,  // measure 7
1000
0000
1000
0000
,  // measure 8
1000
0000
0000
0000
,  // measure 9
0010
0000
0010
0000
,  // measure 10
0010
0000
0000
0000
,  // measure 11
0100
0000
0100
0000
,  // measure 12
0100
0000
0000
0000
,  // measure 13
0001
0010
0001
0010
,  // measure 14
0000
0100
1000
0100
,  // measure 15
1000
0100
0010
0100
,  // measure 16
0000
0000
0000
0000
,  // measure 17
1001
0000
0001
0000
,  // measure 18
0010
0000
0001
0000
,  // measure 19
1000
0000
0100
0000
,  // measure 20
1000
0000
0010
0000
,  // measure 21
0100
0000
0010
0000
,  // measure 22
0100
0000
0010
0000
,  // measure 23
1000
0000
0001
0000
,  // measure 24
1000
0000
0001
0000
,  // measure 25
0001
1000
0001
0000
,  // measure 26
0100
0010
0100
0000
,  // measure 27
0001
1000
0001
0000
,  // measure 28
0100
0010
0100
0000
,  // measure 29
0010
1000
0010
0000
,  // measure 30
0100
0001
0100
0000
,  // measure 31
0010
0000
0000
0000
,  // measure 32
0000
0000
0000
0000
,  // measure 33
1001
1000
1000
0000
,  // measure 34
0001
1000
0001
0000
,  // measure 35
1001
0001
0001
0000
,  // measure 36
1000
0001
1000
0000
,  // measure 37
1001
1000
1000
0000
,  // measure 38
0001
1000
0001
0000
,  // measure 39
1001
0001
0001
0000
,  // measure 40
0100
0010
0100
0000
,  // measure 41
1001
1000
1000
0000
,  // measure 42
0010
0100
0010
0000
,  // measure 43
1001
0001
0001
0000
,  // measure 44
0100
0010
1000
0000
,  // measure 45
0100
0010
0001
0000
,  // measure 46
0010
0001
0100
0000
,  // measure 47
0010
1000
0100
1000
,  // measure 48
0100
0000
0000
0000
,  // measure 49
1001
0000
0000
0000
;

//---------------dance-single - ----------------
#NOTES:
     dance-single:
     :
     Challenge:
     12:
     0.548,0.488,0.189,0.169,0.314:
1100
0000
1100
0000
1100
0000
2000
0010
,
0000
0010
0000
3010
0110
0000
0110
0000
,
0101
0000
0101
0000
0101
0000
0002
1000
,
0000
1000
0000
1003
1100
0000
1100
0000
,
1002
0000
1000
0000
1000
0000
1003
0010
,
0000
0100
0001
0010
0100
0000
1100
0000
,
0011
0000
0001
0100
0010
0100
0001
0100
,
0000
0010
0000
0010
1000
0100
0010
0001
,
0200
0000
0010
0000
0010
0000
0310
1000
,
0000
0010
1000
0100
0010
0000
0011
0000
,
1100
0000
1000
0010
0100
0010
1000
0010
,
0000
0100
0001
0010
0100
0000
1100
0000
,
1000
0000
0010
0100
0010
0000
0100
0000
0000
0000
0001
0100
0001
0000
1000
0000
,
0100
0000
0010
0100
0010
0000
0001
0000
0000
0000
0100
0001
0100
0000
0010
0000
,
1000
0000
0100
0010
0100
0000
1000
0000
0000
0000
0001
0100
0001
0000
0100
0000
,
0000
0100
0000
0100
0000
0100
0000
0100
,
1001
0000
0000
0001
1000
0000
0100
0000
1000
0000
0000
0010
0100
0000
0001
0000
,
0010
0000
0000
0100
0010
0000
0001
0000
0100
0000
0000
0010
1000
0000
0100
0000
,
1000
0000
0000
0001
0100
0000
0010
0000
0100
0000
0000
0010
1000
0000
0100
0000
,
0010
0000
0000
0001
1000
0000
0100
0000
1000
0000
0000
0100
0010
0000
0001
0000
,
0100
0000
0000
0010
1000
0000
0100
0000
0010
0000
0000
0100
1000
0000
0001
0000
,
0100
0000
0000
0001
1000
0000
0100
0000
1000
0000
0000
0100
0010
0000
0001
0000
,
0010
0000
0000
0100
1000
0000
0001
0000
0100
0000
0000
0010
1000
0000
0100
0000
,
0010
0000
0000
0001
0100
0000
0010
0000
0100
0000
0000
0010
1000
0000
0100
0000
,
0010
0100
1000
0020
0000
0130
0001
0020
,
0000
0130
1000
0002
0000
0103
0010
2000
,
0000
3001
0100
2000
0000
3100
0001
2000
,
0000
3001
0010
2000
0000
3010
0001
1000
,
0020
0000
0100
0000
0130
0001
0010
0100
,
2000
0000
0010
0000
3010
0100
0010
1000
,
0100
0001
0100
1000
0000
0001
0100
1000
,
0100
0000
0002
0000
0000
0000
0000
0000
0000
0000
0003
0000
0100
0010
0100
0000
,
1001
0000
0000
1000
0100
0000
0000
0100
0010
0000
0100
0000
1000
0000
0001
0000
,
0100
0000
0010
1000
0000
0010
1000
0000
0001
0000
0010
0001
0000
0010
0001
0000
,
0100
0000
0000
0100
0010
0000
0000
0010
1000
0000
0100
0000
0010
0000
0001
0000
,
1000
0000
0010
1000
0000
0010
1000
0000
0001
0000
0010
0100
0000
0010
0100
0000
,
1000
0000
0000
1000
0001
0000
0000
0001
0100
0000
0010
0000
1000
0000
0100
0000
,
0010
0000
0001
1000
0000
0001
1000
0000
0010
0000
0100
0001
0000
0100
0001
0000
,
1000
0000
0000
1000
0100
0000
0000
0100
0010
0000
0001
0000
0100
0000
0010
0000
,
1000
0000
0100
0010
0000
0100
0010
0000
0100
0000
1000
0010
0000
1000
0010
0000
,
0100
0000
0000
0100
0001
0000
0000
0001
1000
0000
0100
0000
0001
0000
0100
0000
,
1000
0000
0100
0010
0000
0100
0010
0000
0001
0000
1000
0010
0000
1000
0010
0000
,
0100
0000
0000
0100
0001
0000
0000
0001
1000
0000
0010
0000
0001
0000
0010
0000
,
1000
0000
0100
0010
0000
0100
0010
0000
0001
0000
1000
0010
0000
1000
0010
0000
,
0100
0000
0001
0000
0010
0000
0100
0000
1000
0000
0001
0100
0001
0000
1000
0000
,
0100
0010
0100
1000
0010
0000
0100
0001
,
1000
0000
0100
0000
0010
0000
0100
0000
1000
0010
1000
0000
0001
0000
0010
0000
,
0200
0000
1000
0000
0000
0000
1000
0000
0000
0000
1300
0001
1000
0001
1000
0000
,
0220
0000
0000
0000
,
0330
0000
0000
0000
;

//---------------dance-single - ----------------
#NOTES:
     dance-single:
     :
     Beginner:
     1:
     0.071,0.120,0.030,0.000,0.000: // measure 1
0000
0000
0000
0000
,  // measure 2
0000
0000
0000
0000
,  // measure 3
0000
0000
0000
0000
,  // measure 4
0000
0000
0000
0000
,  // measure 5
1000
0000
0000
0000
,  // measure 6
1000
0000
0000
0000
,  // measure 7
0001
0000
0000
0000
,  // measure 8
0001
0000
0000
0000
,  // measure 9
1000
0000
0000
0000
,  // measure 10
1000
0000
0000
0000
,  // measure 11
0001
0000
0000
0000
,  // measure 12
0001
0000
0000
0000
,  // measure 13
0100
0000
0010
0000
,  // measure 14
0100
0000
0010
0000
,  // measure 15
0100
0000
0010
0000
,  // measure 16
0100
0000
0000
0000
,  // measure 17
0110
0000
0000
0000
,  // measure 18
0100
0000
0000
0000
,  // measure 19
0100
0000
0000
0000
,  // measure 20
0010
0000
0000
0000
,  // measure 21
0010
0000
0000
0000
,  // measure 22
1000
0000
0000
0000
,  // measure 23
1000
0000
0000
0000
,  // measure 24
0001
0000
0000
0000
,  // measure 25
0001
0000
0000
0000
,  // measure 26
1000
0000
0000
0000
,  // measure 27
1000
0000
0000
0000
,  // measure 28
0010
0000
0000
0000
,  // measure 29
0010
0000
0000
0000
,  // measure 30
0100
0000
0000
0000
,  // measure 31
0100
0000
0000
0000
,  // measure 32
0000
0000
0000
0000
,  // measure 33
1001
0000
0000
0000
,  // measure 34
0001
0000
0000
0000
,  // measure 35
1000
0000
0000
0000
,  // measure 36
0001
0000
0000
0000
,  // measure 37
0010
0000
0000
0000
,  // measure 38
0100
0000
0000
0000
,  // measure 39
0010
0000
0000
0000
,  // measure 40
0100
0000
0000
0000
,  // measure 41
1000
0000
0000
0000
,  // measure 42
0001
0000
0000
0000
,  // measure 43
1000
0000
0000
0000
,  // measure 44
0001
0000
0000
0000
,  // measure 45
1000
0000
0000
0000
,  // measure 46
0010
0000
0000
0000
,  // measure 47
0100
0000
0000
0000
,  // measure 48
0010
0000
0000
0000
,  // measure 49
1001
0000
0000
0000
;

//---------------dance-single - ----------------
#NOTES:
     dance-single:
     :
     Medium:
     7:
     0.279,0.335,0.129,0.110,0.000: // measure 1
0000
0000
0000
0000
,  // measure 2
0000
0000
0000
0000
,  // measure 3
0000
0000
0000
0000
,  // measure 4
0000
0000
0000
0000
,  // measure 5
1001
0000
1000
0000
0001
0000
0001
0200
,  // measure 6
0000
0000
0000
0300
,  // measure 7
0001
0000
1000
0000
0001
0000
1000
0020
,  // measure 8
0000
0000
0000
0030
,  // measure 9
1000
0000
0001
0000
1000
0000
0001
0020
,  // measure 10
0000
0000
0000
0030
,  // measure 11
0001
0000
1000
0000
0001
0000
1000
0200
,  // measure 12
0000
0000
0000
0300
,  // measure 13
1000
0010
1000
0010
0000
0100
0001
0000
,  // measure 14
0001
0100
0001
0100
0000
0010
1000
0000
,  // measure 15
1000
0001
1000
0001
0000
0010
0100
0020
,  // measure 16
0000
0000
0000
0030
,  // measure 17
1001
0000
1000
0000
0001
0000
0001
0020
,  // measure 18
0000
0000
0031
0100
,  // measure 19
0110
0000
0001
0000
1000
0000
1000
0200
,  // measure 20
0000
0000
1300
0110
,  // measure 21
0001
0000
1000
0000
0001
0000
0001
0200
,  // measure 22
0000
0000
0301
0110
,  // measure 23
1000
0000
0001
0000
1000
0000
1000
0020
,  // measure 24
0000
0000
1030
0110
,  // measure 25
0001
1000
0001
1000
0000
0010
0100
0010
,  // measure 26
0000
1000
0001
1000
0000
0010
0100
0010
,  // measure 27
1000
0100
0010
0001
,  // measure 28
0100
0000
0001
1000
0001
0000
0010
0000
,  // measure 29
0100
0000
1000
0000
0010
1000
0000
1000
,  // measure 30
0000
0001
0000
0001
0100
0000
0100
0000
,  // measure 31
0200
0000
0000
0000
,  // measure 32
0000
0000
0000
0300
,  // measure 33
1001
0000
1000
0000
1000
0010
1000
0000
,  // measure 34
0100
0010
0001
1000
,  // measure 35
1001
0000
0001
0000
0001
0100
0001
0000
,  // measure 36
0010
0100
1000
0001
,  // measure 37
1001
0000
1000
0000
1000
0100
1000
0000
,  // measure 38
0010
0100
0001
1000
,  // measure 39
1001
0000
0001
0000
0001
0010
0001
0000
,  // measure 40
0100
0010
1000
0001
,  // measure 41
1001
0000
1000
0001
1000
0001
1000
0000
,  // measure 42
0100
0010
0001
1000
,  // measure 43
1001
0000
0001
1000
0001
1000
0001
0000
,  // measure 44
0010
0000
0100
0000
1000
0000
0010
0100
,  // measure 45
0010
0100
0010
0100
,  // measure 46
0001
0000
1000
0000
0001
0000
0100
0010
,  // measure 47
0100
0001
1000
0100
,  // measure 48
0020
0000
0000
0130
,  // measure 49
1001
0000
0000
0000
;

//---------------dance-single - ----------------
#NOTES:
     dance-single:
     :
     Hard:
     10:
     0.428,0.382,0.289,0.129,0.010: // measure 1
0010
0000
0010
0000
0010
0000
0001
1000
,  // measure 2
0000
1000
0000
0100
0010
0000
0010
0000
,  // measure 3
0001
0000
0001
0000
0001
0000
0100
0010
,  // measure 4
0000
0010
0000
1000
0100
0000
0100
0000
,  // measure 5
1001
0000
1001
0000
1001
0000
0100
1000
,  // measure 6
0000
1000
0100
1000
0001
0000
0011
0000
,  // measure 7
1001
0000
1001
0000
1001
0000
0010
0001
,  // measure 8
0000
0001
0010
0001
1000
0010
1000
0000
,  // measure 9
1001
0000
1001
0000
1001
0000
0010
1000
,  // measure 10
0000
1000
0010
0100
0010
1000
0001
0000
,  // measure 11
1001
0000
1001
0000
1001
0000
0100
0001
,  // measure 12
0000
0001
0100
0010
0100
0000
1001
0000
,  // measure 13
0001
1000
0100
0010
0000
0100
0010
0001
,  // measure 14
0000
1000
0010
0100
0000
0010
0100
0002
,  // measure 15
0000
0013
0100
2000
0000
3010
0100
0010
,  // measure 16
0000
0010
0000
0010
0000
0010
0000
0010
,  // measure 17
1001
0000
0001
0100
0010
0100
0010
0100
,  // measure 18
0001
0000
0010
0100
1000
0100
0010
0000
,  // measure 19
1001
0000
0010
0000
0100
1000
0010
0100
,  // measure 20
0001
0000
0001
0000
0010
0100
1000
0100
,  // measure 21
0010
0000
0001
0100
0010
0100
0010
0100
,  // measure 22
0001
0000
1000
0000
0100
0000
0010
0100
,  // measure 23
1000
0001
0010
0100
0000
0010
0100
1000
,  // measure 24
0010
0100
0000
0010
0100
0001
0100
0010
,  // measure 25
0100
0001
0010
0100
0000
0100
1000
0010
,  // measure 26
0000
0010
0100
0001
0000
0001
0000
0000
,  // measure 27
1000
0100
0010
0001
0000
0001
0100
0010
,  // measure 28
0000
0010
1000
0100
0000
0100
0010
0001
,  // measure 29
0200
0000
0010
0000
0310
1000
0100
0000
,  // measure 30
0020
0000
0001
0000
0031
1000
0100
0000
,  // measure 31
0010
0001
0000
0100
0000
0010
0000
1000
,  // measure 32
0000
0000
0100
0000
0000
0000
0010
0000
0000
0000
0001
0000
0100
0010
0100
0000
,  // measure 33
1001
0000
1001
0000
0001
1000
0100
1000
,  // measure 34
0002
0000
0000
0100
0000
0103
0000
0000
,  // measure 35
1001
0000
1001
0000
1000
0001
0010
0001
,  // measure 36
2000
0000
0000
0010
0000
3010
0000
0000
,  // measure 37
1001
0000
1001
0000
0001
1000
0010
1000
,  // measure 38
0002
0000
0000
0010
0000
0013
0000
0000
,  // measure 39
1001
0000
1001
0000
1000
0001
0100
0001
,  // measure 40
2000
0000
0000
0100
0000
3100
0000
0000
,  // measure 41
1001
0000
0110
0000
0001
0010
0100
0020
,  // measure 42
0000
0001
0000
0031
0000
0000
0100
0000
,  // measure 43
1001
0000
0110
0000
1000
0100
0010
0200
,  // measure 44
0000
1000
0000
1300
0000
0001
0010
0100
,  // measure 45
2000
0000
0010
0000
3010
0100
0010
0100
,  // measure 46
0002
0000
1000
0000
1003
0100
0010
0100
,  // measure 47
0010
0000
0001
0010
1000
0010
0001
1000
,  // measure 48
0020
0000
0000
0000
0000
0000
0000
0000
0000
0000
0000
0000
0130
0010
0100
0000
,  // measure 49
1001
0000
0000
0000
;
