#TITLE:Sprite Digital;
#SUBTITLE:;
#ARTIST:Serph;
#TITLETRANSLIT:;
#SUBTITLETRANSLIT:;
#ARTISTTRANSLIT:;
#CREDIT:DigiMindAxel;
#BANNER:Sprite Digital.png;
#BACKGROUND:Sprite Digital-bg.png;
#LYRICSPATH:;
#CDTITLE:pop'n music.png;
#MUSIC:Sprite Digital.ogg;
#METERTYPE:DDR X;
#OFFSET:-11.739;
#SAMPLESTART:62.534;
#SAMPLELENGTH:12.000;
#SELECTABLE:YES;
#BPMS:0.000=170.000;
#STOPS:;
#BGCHANGES:;

//---------------dance-single - ----------------
#NOTES:
     dance-single:
     :
     Easy:
     5:
     0.218,0.278,0.106,0.229,0.000:
0000
0002
0000
0000
,
0103
0000
0010
0000
,
0200
0000
0302
0000
,
0023
0000
0230
0000
,
1300
0000
0001
0000
,
0200
0000
0320
0000
,
0230
0000
0000
0302
0000
0000
0000
0003
,
0000
0000
0000
0000
,
1001
0000
0001
0000
,
1000
0000
0100
0000
,
0110
0000
0100
0000
,
0010
0000
0000
0000
,
1001
0000
1000
0000
,
0100
0000
0010
0000
,
0110
0000
0000
0000
,
1001
0000
0000
0000
,
0001
0000
1000
0000
,
0100
0000
1000
0000
,
0001
0000
0100
0000
,
0010
0000
0000
0000
,
1000
0001
1000
0000
,
0100
0000
0010
0000
,
0001
0100
0001
0000
,
0010
0000
0100
0000
,
2002
0000
0000
0000
,
3003
0000
0000
0000
,
0220
0000
0000
0000
,
0330
0000
0000
0000
,
2002
0000
0000
0000
,
3003
0000
0000
0000
,
1001
0000
0100
0010
,
0001
0000
0010
0100
,
1000
0000
0100
0010
,
0001
0000
0010
0100
,
1000
0000
0010
0100
,
0001
0000
0100
0010
,
1000
1000
1000
0001
,
1000
0000
0100
0000
,
0010
0010
0010
0001
,
1000
0000
0010
0000
,
0100
0100
0100
0001
,
0010
0000
0100
0000
,
1000
1000
1000
0100
,
0010
0000
0001
0000
,
0100
0100
0100
0001
,
0010
0000
0100
0000
,
1000
1000
1000
0001
,
0100
0000
0010
0000
,
0100
0100
0100
0001
,
1000
0000
0100
0000
,
0010
0010
0010
0001
,
0010
0000
0100
0000
,
2000
0000
0001
0000
,
0100
0000
3001
0000
,
1001
0000
0000
0000
,
1000
0000
0001
0000
,
1002
0000
0000
0000
,
2003
0000
0000
0000
,
3002
0000
0000
0000
,
0023
0000
0000
0000
,
0032
0000
1000
0000
,
0100
0000
1003
0000
,
1001
0000
0000
0000
,
0001
0000
1000
0000
,
0200
0000
0000
0000
,
0320
0000
0000
0000
,
0230
0000
0000
0000
,
0320
0000
0000
0000
,
0032
0000
0000
0000
,
0000
0000
0000
0000
,
0003
0000
0000
0000
;

//---------------dance-single - ----------------
#NOTES:
     dance-single:
     :
     Medium:
     8:
     0.457,0.494,0.317,0.494,0.004: // measure 1
0000
1000
0100
1000
,  // measure 2
0100
0000
0000
0000
0000
0000
0010
0000
0100
0000
0000
0000
0000
1000
0000
0000
,  // measure 3
0002
0000
0000
0013
0200
0000
0000
1300
,  // measure 4
0020
0000
0000
0130
0002
0000
1003
0000
,  // measure 5
0001
0010
0001
0010
,  // measure 6
0200
0000
0000
1300
0020
0000
0000
0130
,  // measure 7
0002
0000
0000
0023
0000
0000
0000
0030
,  // measure 8
0000
0000
0000
0000
,  // measure 9
1020
0000
0230
0000
,  // measure 10
0302
0000
0000
0000
1003
0001
1000
0000
,  // measure 11
1002
0000
0023
0000
,  // measure 12
0230
0000
0000
0000
0310
0001
0010
0000
,  // measure 13
2001
0000
3100
0010
,  // measure 14
0201
0000
0000
0010
0000
0000
0310
0000
,  // measure 15
2001
0000
3100
0000
,  // measure 16
1002
0000
0103
0010
,  // measure 17
1001
0000
1000
0010
0100
0010
1000
0000
,  // measure 18
0001
0000
0010
0001
0100
0010
0100
0000
,  // measure 19
0010
0000
1000
0100
1000
0001
0100
0000
,  // measure 20
0001
0000
0010
0001
0100
0010
0100
0000
,  // measure 21
0010
0000
1000
0100
1000
0001
1000
0000
,  // measure 22
0100
0000
0010
0001
0010
0100
0010
0000
,  // measure 23
0001
0000
0010
0001
1000
0010
1000
0000
,  // measure 24
0010
0000
0100
0001
0010
0100
1000
0000
,  // measure 25
1100
0000
0000
1100
0000
0000
2002
0000
,  // measure 26
0000
0000
0000
3003
,  // measure 27
0101
0000
0000
0101
0000
0000
2002
0000
,  // measure 28
0000
0000
0000
3003
,  // measure 29
0110
0000
0000
0110
0000
0000
2002
0000
,  // measure 30
0000
0000
0000
3003
,  // measure 31
0001
0100
0001
0000
1000
0100
1000
0000
,  // measure 32
1001
0000
0001
0000
0010
0100
1000
0000
,  // measure 33
1001
0000
0001
0000
0100
0001
0010
0000
,  // measure 34
0100
0010
0100
0000
1000
0010
1000
0000
,  // measure 35
1001
0000
0001
0000
0010
0100
1000
0000
,  // measure 36
0100
1000
0100
1000
0010
0100
0010
0100
,  // measure 37
0001
1000
0010
0000
1000
0001
1000
0000
,  // measure 38
0100
0010
0001
0000
0100
0010
0100
0000
,  // measure 39
0001
1000
0001
1000
0100
1000
0100
0000
,  // measure 40
1000
0001
1000
0001
0100
0010
1000
0000
,  // measure 41
0100
1000
0100
0000
0010
0001
0010
0000
,  // measure 42
0100
0010
0100
0000
1000
0010
0100
0000
,  // measure 43
0001
1000
0001
1000
0100
0010
0100
0000
,  // measure 44
1000
0001
1000
0001
1000
0010
0100
0000
,  // measure 45
0010
0100
0010
0000
1000
0100
0010
0000
,  // measure 46
0001
0100
0010
0000
1000
0010
1000
0000
,  // measure 47
0010
0100
0010
0100
0010
1000
0001
0000
,  // measure 48
0100
0010
0100
0010
0100
0001
1000
0000
,  // measure 49
0100
1000
0100
1000
0010
0100
0001
0000
,  // measure 50
0100
0001
0100
0001
1000
0100
0010
0000
,  // measure 51
0001
1000
0001
1000
0010
0100
0001
0000
,  // measure 52
0010
0100
0010
0100
1000
0010
0100
0000
,  // measure 53
1001
0000
0022
0033
,  // measure 54
0220
0330
2200
3300
,  // measure 55
0120
0000
0000
0000
0000
0100
0000
0000
,  // measure 56
0130
0000
2002
3003
,  // measure 57
0202
0000
0000
0303
,  // measure 58
0220
0000
0000
0330
,  // measure 59
2020
0000
0000
3030
,  // measure 60
2002
0000
0000
3003
,  // measure 61
0011
0000
0220
0330
,  // measure 62
2200
3300
0022
0033
,  // measure 63
0210
0000
0000
0000
0000
0010
0000
0000
,  // measure 64
0310
0000
0220
0330
,  // measure 65
2002
0000
0000
3000
,  // measure 66
0200
0000
0000
0300
,  // measure 67
0020
0000
0000
0030
,  // measure 68
2000
0000
0000
3003
,  // measure 69
0020
0000
0000
0000
,  // measure 70
0000
0000
0000
0000
,  // measure 71
0030
0000
0000
0000
;

//---------------dance-single - ----------------
#NOTES:
     dance-single:
     :
     Hard:
     12:
     0.579,0.648,0.256,0.485,0.141: // measure 1
0000
0000
1000
0000
1000
0000
1000
0000
1000
0000
0001
0100
0000
0010
0000
0000
,  // measure 2
0200
0000
0000
0000
0000
0000
0301
1000
0002
0000
0000
0000
0000
0013
0000
0000
,  // measure 3
0100
0000
0000
1000
0000
0000
0001
0000
0100
0000
0000
0001
0000
0000
1000
0000
,  // measure 4
0100
0000
0000
0010
0000
0000
0001
0000
0200
0000
0000
0000
0301
0000
0000
0000
,  // measure 5
0000
0000
1000
0000
0100
0000
0001
0000
0100
0000
0000
1000
0000
0000
0001
0000
,  // measure 6
0100
0000
0000
0100
0000
0000
0100
0000
0010
0000
0000
0010
0000
0000
0010
0000
,  // measure 7
2000
0000
0000
3020
0000
0000
0000
0030
,  // measure 8
0000
0000
0000
0000
,  // measure 9
1001
0000
0010
1000
0010
1000
0001
0000
,  // measure 10
0010
0100
1000
0010
0000
1000
0001
0000
,  // measure 11
0101
0000
0100
0001
0100
0001
1000
0000
,  // measure 12
0100
0010
0001
1000
0000
0100
0010
0000
,  // measure 13
1100
0000
0100
1000
0100
1000
0010
0000
,  // measure 14
0100
0001
0010
0100
0000
1000
0010
0000
,  // measure 15
1001
0000
0001
1000
0001
1000
0100
0000
,  // measure 16
0010
0001
0100
0010
0000
1000
0100
0000
,  // measure 17
1001
0000
0001
0100
0020
0000
0130
0010
,  // measure 18
2000
0000
3001
0010
0200
0000
0310
0100
,  // measure 19
2000
0000
3100
0000
0010
0001
0010
0001
,  // measure 20
0200
0000
0310
0000
1000
0100
0010
0001
,  // measure 21
2000
0000
3001
1000
0100
0020
0000
0030
,  // measure 22
1001
0000
0001
0100
0010
0200
0000
0301
,  // measure 23
1000
0000
0100
0010
0100
0010
0001
0000
,  // measure 24
0100
0010
0100
0010
1000
0001
0010
0000
,  // measure 25
1200
0000
1300
0020
0000
0130
0002
0000
,  // measure 26
1000
1000
0100
0103
,  // measure 27
1020
0000
0130
0002
0000
0013
0200
0000
,  // measure 28
0010
0010
1000
1300
,  // measure 29
1002
0000
0013
0200
0000
1300
0020
0000
,  // measure 30
1000
1000
0100
0130
,  // measure 31
0001
1000
0100
0001
0100
1000
0010
0100
,  // measure 32
0001
1000
0010
0001
0010
1000
0100
0010
,  // measure 33
0001
1000
0100
0001
0100
1000
0100
0010
,  // measure 34
0001
1000
0010
0001
0010
1000
0010
0100
,  // measure 35
0001
1000
0001
0000
1000
0001
1000
0000
0100
0000
0010
0000
0001
0000
0100
0000
,  // measure 36
0010
0100
0010
0000
0100
0010
0100
0000
0001
0000
0010
0000
0100
0000
1000
0000
,  // measure 37
0001
0000
1000
0000
1000
0000
1000
0000
1000
0000
0001
1000
0000
0010
0000
0000
,  // measure 38
1001
0000
0000
0000
1000
0000
0001
0000
0010
0000
0000
1000
0000
0000
0010
0000
,  // measure 39
0002
0000
0000
0100
0000
0000
0103
0000
0020
0000
0000
1000
0000
0000
1030
0000
,  // measure 40
0002
0000
0000
0010
0000
0000
0013
0000
0100
0000
0000
0000
1000
0000
0001
0000
,  // measure 41
0200
0000
0000
0010
0000
0000
0310
0000
1000
0000
0001
0000
0010
0000
1000
0000
,  // measure 42
0010
0001
0100
1000
0100
0010
1000
0000
,  // measure 43
0001
0010
0100
2000
0000
0010
0000
3010
,  // measure 44
0200
0000
0000
0010
0000
0000
0310
0000
1000
0000
0100
0000
0010
0000
0000
0000
,  // measure 45
0001
0000
1000
0000
1000
0000
1000
0000
1000
0000
0001
1000
0000
0100
0000
0000
,  // measure 46
1001
0000
0000
0000
0001
0000
0100
0010
0200
0000
0000
0000
0000
0310
0000
0000
,  // measure 47
2000
0000
0000
0100
0000
0000
3100
0000
0020
0000
0000
0001
0000
0000
0031
0000
,  // measure 48
2000
0000
0000
0010
0000
0000
3010
0000
1000
0000
0100
0000
0010
0000
0000
0000
,  // measure 49
0001
0000
0010
0000
1000
0000
0010
0000
0002
0000
0000
0100
0000
0000
0103
0000
,  // measure 50
0020
0000
0000
1000
0000
0000
1030
0000
0002
0000
0000
0010
0000
0000
0013
0000
,  // measure 51
0100
1000
0001
0100
0001
1000
0100
0000
,  // measure 52
0010
0100
1000
0001
0010
1000
0010
0000
,  // measure 53
0101
0100
1020
0130
,  // measure 54
0201
0310
2100
3001
,  // measure 55
0012
0000
1003
0000
0001
0010
0000
0001
,  // measure 56
1000
0100
0021
0130
,  // measure 57
2001
3010
0100
0001
,  // measure 58
0021
0000
0130
0010
0000
0001
0100
0000
,  // measure 59
2001
3100
0010
0001
,  // measure 60
0201
0310
1000
0100
,  // measure 61
1001
0100
0021
0130
,  // measure 62
1200
0310
0201
0310
,  // measure 63
1020
0000
0130
0000
0001
0010
0000
0100
,  // measure 64
0010
0001
2001
3010
,  // measure 65
0210
0000
0000
0000
0000
0010
0000
0000
,  // measure 66
0320
0000
0000
0000
0000
0031
0000
0100
,  // measure 67
0020
0000
0000
0030
,  // measure 68
2020
0000
0000
3030
,  // measure 69
0020
0000
0000
0000
,  // measure 70
0000
0000
0000
0000
,  // measure 71
0030
0000
0000
0000
;

//---------------dance-single - ----------------
#NOTES:
     dance-single:
     :
     Beginner:
     1:
     0.079,0.120,0.000,0.000,0.000:
0001
0000
0000
0000
,
0000
0000
0000
0000
,
0010
0000
0000
0000
,
0000
0000
0000
0000
,
0100
0000
0000
0000
,
1000
0000
0000
0000
,
0001
0000
0000
0000
,
0000
0000
0000
0000
,
0100
0000
0000
0000
,
0100
0000
0000
0000
,
0010
0000
0000
0000
,
0010
0000
0000
0000
,
0100
0000
0000
0000
,
0100
0000
0000
0000
,
0010
0000
0000
0000
,
0010
0000
0000
0000
,
1000
0000
0000
0000
,
0100
0000
0000
0000
,
0010
0000
0000
0000
,
0001
0000
0000
0000
,
1000
0000
0000
0000
,
0100
0000
0000
0000
,
0010
0000
0000
0000
,
0001
0000
0000
0000
,
1000
0000
0000
0000
,
0000
0000
0000
0000
,
1000
0000
0000
0000
,
0000
0000
0000
0000
,
0001
0000
0000
0000
,
0000
0000
0000
0000
,
0001
0000
0000
0000
,
0100
0000
0000
0000
,
0010
0000
0000
0000
,
0000
0000
0000
0000
,
0100
0000
0000
0000
,
0010
0000
0000
0000
,
1000
0000
1000
0000
,
1000
0000
0000
0000
,
0001
0000
0001
0000
,
0001
0000
0000
0000
,
1000
0000
1000
0000
,
1000
0000
0000
0000
,
0001
0000
0001
0000
,
0001
0000
0000
0000
,
0010
0000
0010
0000
,
0010
0000
0000
0000
,
0100
0000
0100
0000
,
0100
0000
0000
0000
,
1000
0000
1000
0000
,
1000
0000
0000
0000
,
0001
0000
0001
0000
,
0001
0000
0000
0000
,
0100
0000
0000
0000
,
0000
0000
0000
0000
,
0010
0000
0000
0000
,
0000
0000
0000
0000
,
1000
0000
0000
0000
,
0000
0000
0000
0000
,
0100
0000
0000
0000
,
0000
0000
0000
0000
,
0010
0000
0000
0000
,
0000
0000
0000
0000
,
0001
0000
0000
0000
,
0000
0000
0000
0000
,
1000
0000
0000
0000
,
1000
0000
0000
0000
,
1000
0000
0000
0000
,
0000
0000
0000
0000
,
0010
0000
0000
0000
;
