#TITLE:Plutoをジャズちっくにしてみた;
#SUBTITLE:;
#ARTIST:かめりあ;
#TITLETRANSLIT:Pluto WO JAZZ CHIKKU NI SHITEMITA;
#SUBTITLETRANSLIT:;
#ARTISTTRANSLIT:Camellia;
#CREDIT:DigiMindAxel;
#BANNER:Pluto WO JAZZ CHIKKU NI SHITEMITA.png;
#BACKGROUND:Pluto WO JAZZ CHIKKU NI SHITEMITA-bg.png;
#LYRICSPATH:;
#CDTITLE:BEMANI game remix.png;
#MUSIC:Pluto WO JAZZ CHIKKU NI SHITEMITA.ogg;
#METERTYPE:DDR X;
#OFFSET:-6.379;
#SAMPLESTART:11.666;
#SAMPLELENGTH:12.000;
#SELECTABLE:YES;
#BPMS:0.000=162.000;
#STOPS:;
#BGCHANGES:;

//---------------dance-single - ----------------
#NOTES:
     dance-single:
     :
     Easy:
     6:
     0.354,0.340,0.199,0.076,0.000:
1001
0001
2000
0000
,
0000
0001
0000
0000
3002
0000
0000
0000
,
0203
0000
0000
0000
,
0000
0000
0310
0000
,
0100
0010
0100
0010
,
0100
0010
1000
0100
,
0010
0100
1000
0001
,
1000
0001
0010
0100
,
1000
0001
1000
0001
,
1000
0001
0100
0010
,
1000
0001
1000
0001
,
1000
0001
0010
0100
,
1000
1000
1000
1000
,
0010
0010
0010
0010
,
0100
0100
0100
0100
,
0001
0001
0001
0001
,
1000
0001
0000
0000
1000
0000
0100
0000
,
0010
0001
1000
0001
,
0001
1000
0000
0000
0001
0000
0010
0000
,
0100
1000
0001
1000
,
0100
1001
0010
0010
,
0010
0001
0010
0100
,
1000
0001
1000
0100
,
0010
0100
1000
0220
,
0000
0000
0000
0000
0000
0330
0000
0000
,
0100
0010
0001
0010
,
0100
1000
0100
0010
,
0001
0010
0100
0010
,
0001
1000
0001
1000
,
0100
0010
0100
1000
,
0010
0100
0010
1000
,
0010
0100
0010
1000
,
0001
0010
0001
0100
,
0000
1001
0000
1001
0000
0000
0000
0110
,
0000
0100
0000
0100
0000
0010
0000
0010
,
0000
1001
0000
1001
0000
0000
0000
0000
,
0000
0110
0000
0010
0000
0010
0100
0000
,
0001
1000
0000
0010
0100
0010
0000
1000
,
0000
0001
0000
2000
0000
0000
3001
0000
,
0010
0100
0010
0001
,
1000
0110
0100
1001
,
1000
0100
0010
0100
,
1000
0110
0010
1001
,
0001
0010
0100
0010
,
0001
0110
0100
1001
,
1000
0100
0010
0100
,
0000
0000
0000
1001
,
1000
0100
0010
0001
,
0100
0010
0100
0001
,
0010
0001
1000
0100
,
1000
0010
0100
0001
,
0010
0100
1000
0010
,
0100
0001
0100
0001
,
0010
0100
0010
0001
,
0100
0001
0000
0000
,
0010
0100
1000
0001
,
1000
0100
0010
0000
,
1001
0001
1000
0010
,
0100
0010
1000
0000
,
1001
1000
0001
0010
,
0100
1000
0010
0100
,
0010
1000
0100
0010
,
0001
0010
0100
0000
,
0110
0001
1001
0220
,
0000
0000
0000
0000
,
0000
0330
0000
0000
;

//---------------dance-single - ----------------
#NOTES:
     dance-single:
     :
     Medium:
     10:
     0.511,0.463,0.341,0.057,0.137: // measure 1
0001
0100
0010
0100
0000
0100
0000
0100
,  // measure 2
0000
0010
0000
0010
0000
1000
0000
1000
,  // measure 3
0001
0100
0000
0100
0000
0100
0000
0010
,  // measure 4
0000
0010
0000
0010
1000
0010
1000
0001
,  // measure 5
0010
0100
0010
0000
0001
0000
1000
0000
,  // measure 6
0001
1000
0110
0100
,  // measure 7
1001
0100
0010
1000
,  // measure 8
0001
0100
0110
0010
,  // measure 9
1001
0010
0100
0001
,  // measure 10
1000
0010
0110
0100
,  // measure 11
1001
0100
0010
1000
,  // measure 12
0001
0000
0100
0010
0100
0000
0110
0000
,  // measure 13
1000
0100
0001
0000
0100
0000
1000
0000
,  // measure 14
0001
0010
1000
0000
0010
0000
0001
0000
,  // measure 15
1000
0100
0001
0000
0100
0000
1000
0000
,  // measure 16
0001
0010
1000
0000
0010
0000
0001
1000
,  // measure 17
0010
0000
0010
0000
0000
1000
0000
0000
1000
0000
0000
0001
0000
0000
0001
0000
,  // measure 18
0100
0000
0100
0000
0000
0001
0000
0000
0001
0000
0000
1000
0000
0000
1000
0000
,  // measure 19
0010
0000
0010
0000
0000
1000
0000
0000
1000
0000
0000
0001
0000
0000
0001
0000
,  // measure 20
0100
0000
0100
0000
0000
0001
0000
0000
0001
0000
0000
1000
0000
0000
1000
0000
,  // measure 21
0010
0000
0000
1001
0000
0000
0000
0000
0100
0000
1000
0000
0100
0000
1000
0000
,  // measure 22
0001
0000
0001
0000
1000
0000
1000
0001
,  // measure 23
0100
0001
0100
0001
1000
0100
0000
0010
,  // measure 24
0100
0000
1000
0000
0010
0000
0000
0000
0010
0000
0000
0000
0000
0110
0000
0000
,  // measure 25
0000
0110
0000
0000
0000
0110
0000
0000
2002
0000
0000
0000
0000
0000
3003
0000
,  // measure 26
1000
0010
0100
0001
1000
0000
0001
0000
,  // measure 27
0100
0010
0100
0001
1000
0000
0001
0000
,  // measure 28
0010
0100
0010
0001
1000
0000
0001
0000
,  // measure 29
0010
0100
0010
0001
1000
0000
0001
0000
,  // measure 30
1000
0100
1000
0001
0100
0000
0001
0000
,  // measure 31
1000
0100
1000
0001
0100
0000
0001
0000
,  // measure 32
1000
0010
1000
0001
0010
0000
0001
0000
,  // measure 33
1000
0010
1000
0001
0010
0000
0011
0000
,  // measure 34
0000
0110
0000
0110
0000
0000
0000
1100
,  // measure 35
0000
1001
0000
1100
0000
0100
0010
0100
,  // measure 36
0001
1000
0000
0001
1000
0000
0000
0000
,  // measure 37
0000
1100
0000
1001
0000
0001
0100
0010
,  // measure 38
1000
1000
0000
0001
0001
0100
0000
0101
,  // measure 39
0000
1001
0000
0102
0000
0000
1003
0100
,  // measure 40
1000
0000
0010
0100
0010
0000
1000
0100
,  // measure 41
1000
1010
0010
1001
,  // measure 42
0001
0000
0100
0010
0100
0000
0001
0100
,  // measure 43
0001
0101
0100
1001
,  // measure 44
1000
0000
0010
0100
0010
0000
1000
0010
,  // measure 45
1000
1100
0100
1001
,  // measure 46
0001
0000
0100
0010
0100
0001
2000
0000
,  // measure 47
0000
0000
3000
1001
,  // measure 48
0001
0010
0100
1000
0010
0000
0010
0000
,  // measure 49
1000
0100
0010
0001
0100
0000
0100
0000
,  // measure 50
0001
0100
0010
1000
0010
0000
0010
0000
,  // measure 51
1000
0010
0100
0001
0100
0000
1001
0000
,  // measure 52
0100
0010
0001
0010
0100
0000
1000
0000
,  // measure 53
0100
0010
0001
0010
0100
0000
1000
0000
,  // measure 54
0010
0100
0001
1000
0100
0000
0010
0000
,  // measure 55
0001
0000
0010
0000
0001
0000
1000
0000
0010
0000
0000
0000
0000
0000
0000
0100
,  // measure 56
0000
0000
0010
0000
0100
0000
0000
0001
0000
0000
1000
0000
0001
0000
1000
0000
,  // measure 57
0000
0100
0000
0000
0010
0000
0000
0100
0000
0000
1000
0000
0000
0000
0000
1001
,  // measure 58
0000
0000
0001
0000
1000
0000
0000
0010
0000
0000
0100
0000
0010
0000
0100
0000
,  // measure 59
0000
0001
0000
0000
0010
0000
0000
0100
0000
0000
0010
0000
0000
0000
0000
1001
,  // measure 60
0000
0000
1000
0000
0001
0000
0000
0100
0000
0000
0010
0000
1000
0000
0010
0000
,  // measure 61
0000
0100
0000
0000
0001
0000
0000
1000
0000
0000
0001
0000
0010
0000
0000
0001
,  // measure 62
0000
0000
1000
0000
0001
0000
0000
1000
0000
0000
0010
0000
0100
0000
0010
0000
,  // measure 63
0000
1000
0000
0000
0001
0000
0000
0010
0000
0000
0001
0000
0000
0000
0000
0000
,  // measure 64
0011
0000
0000
0000
0011
0000
0000
0000
0100
0010
0100
0000
2002
0000
0000
0000
,  // measure 65
0000
0000
0000
0000
,  // measure 66
0000
3003
0000
0000
;

//---------------dance-single - ----------------
#NOTES:
     dance-single:
     :
     Hard:
     15:
     0.765,0.803,0.625,0.133,0.492: // measure 1
0001
0000
0001
0000
0100
0010
0100
0000
0000
0000
0100
0000
0000
0000
0100
0000
,  // measure 2
0000
0110
0000
1001
0000
1000
0010
0100
,  // measure 3
0000
0100
0000
0001
0000
0001
0000
1000
,  // measure 4
0000
0000
1000
0000
0000
0000
1000
0000
0010
0000
0100
0010
0100
0010
0100
0010
,  // measure 5
0100
0001
1000
0010
1000
0100
0010
0001
,  // measure 6
0010
0100
0010
0000
1002
0000
0010
0000
,  // measure 7
1003
0000
0001
0100
0001
0010
0100
1000
,  // measure 8
0100
0010
0100
0000
2001
0000
0100
0000
,  // measure 9
3001
0000
1000
0100
0010
1000
0010
0100
,  // measure 10
1000
0001
0010
0000
2001
0000
0010
0000
,  // measure 11
3001
0000
1000
0100
0010
1000
0010
0100
,  // measure 12
1000
0001
0100
0010
1010
0000
1001
0000
,  // measure 13
0001
0000
0010
0000
1000
0000
0010
0000
0001
0000
0100
0000
0010
0000
1000
0010
,  // measure 14
1000
0000
0100
0000
0001
0000
0100
0000
1000
0000
0100
0000
0010
0000
0001
0100
,  // measure 15
0001
0000
0010
0000
1000
0000
0010
0000
0001
0000
0010
0000
0100
0000
1000
0010
,  // measure 16
1000
0000
0100
0000
0001
0000
0100
0000
1000
0000
0001
0000
0100
0010
0100
0010
,  // measure 17
1000
0000
1000
0000
0000
0100
0000
0000
0010
0000
0000
0001
0000
0000
1000
0000
,  // measure 18
0010
0000
0110
0000
0000
0100
0000
0000
1001
0000
0000
1001
0000
0000
0001
0000
,  // measure 19
0010
0000
1100
0000
0000
0010
0000
0000
0001
0000
0000
1000
0000
0000
0010
0000
,  // measure 20
0100
0000
0101
0000
0000
0001
0000
0000
1000
0000
0000
0100
0000
0000
0010
0000
,  // measure 21
0001
0100
0001
0100
0000
0000
0000
0001
1000
0001
1000
0000
0010
0000
0100
0000
,  // measure 22
0010
1000
0100
0010
0001
0010
0100
1000
,  // measure 23
0001
0100
0001
0100
0000
0001
1000
0001
1000
0100
1000
0100
0000
0010
0001
1000
,  // measure 24
0001
0000
1000
0000
0001
0000
0010
0000
0100
1000
0100
1000
0000
2002
0000
3003
,  // measure 25
0000
0220
0000
0330
0000
2002
0000
3003
2002
0000
0000
0000
0000
0000
3003
0000
,  // measure 26
1000
0100
1000
0000
0001
0010
0001
0000
0010
0000
0100
0000
1000
0000
0010
0000
,  // measure 27
0100
0010
0100
0000
0001
0100
0001
0000
0010
0000
0100
0000
0010
0000
0001
0000
,  // measure 28
0100
0010
0100
0000
0010
1000
0010
0000
1000
0000
0100
0000
0010
0000
0100
0000
,  // measure 29
1000
0001
1000
0000
0010
0100
0010
0000
1000
0000
0100
0000
0010
0001
0010
0001
,  // measure 30
1000
0010
1000
0000
0001
0100
0001
0000
1000
0000
0100
0000
0010
0000
0100
1000
,  // measure 31
0010
0100
0010
0000
1000
0010
1000
0000
0100
0000
0010
0000
0001
0000
0100
0010
,  // measure 32
1000
0010
1000
0000
0001
0010
0001
0000
0100
0000
0010
0000
0100
0000
0010
1000
,  // measure 33
0001
0010
0001
0000
1000
0100
1000
0000
0100
0000
0010
0000
1001
0000
0000
0000
,  // measure 34
0000
0000
0110
0000
0000
0000
0110
0000
0010
0000
1000
0001
1000
0000
1001
0000
,  // measure 35
0000
0000
0011
0000
0000
0000
0110
0000
0000
0000
1100
0000
1000
0001
1000
0000
,  // measure 36
0010
0100
0010
0000
1000
0000
0100
0000
0010
0100
0010
0000
0000
0000
0001
0000
,  // measure 37
0100
0000
0101
0000
0000
0000
0100
0010
0100
0000
0001
0000
1000
0000
0100
0000
,  // measure 38
0010
0001
0010
0001
0010
0000
0100
0000
1000
0000
0010
0100
0010
0000
0110
0000
,  // measure 39
0000
1001
0000
2001
0000
0000
3100
0010
,  // measure 40
0001
0010
0100
1000
0100
0001
0100
1000
,  // measure 41
0100
0010
0011
0000
0010
0000
1001
0000
,  // measure 42
0010
0100
1000
0100
0001
0100
1000
0001
,  // measure 43
0010
0100
1100
0000
0100
0000
1001
0000
,  // measure 44
0100
0010
0001
0010
1000
0010
0001
0010
,  // measure 45
0100
1000
1100
0000
0100
0000
1001
0000
,  // measure 46
0010
0100
1000
0100
0010
0001
0100
0000
,  // measure 47
0000
0100
0000
0000
0000
0000
1001
0000
,  // measure 48
1000
0100
1000
0100
1000
0000
0010
0000
0100
0000
0001
0100
0000
0000
0001
0000
,  // measure 49
0100
0010
0100
0010
0100
0000
0001
0000
0010
0000
0100
1000
0000
0000
0001
0000
,  // measure 50
1000
0100
1000
0100
1000
0000
0001
0000
0100
0000
0010
0100
0000
0000
0010
0000
,  // measure 51
1000
0001
1000
0001
1000
0000
0100
0000
0010
0000
0001
0100
0001
0000
0000
0000
,  // measure 52
1000
0010
1000
0010
1000
0000
0100
0000
0010
0000
0001
0100
0000
0000
0001
0000
,  // measure 53
1000
0100
1000
0100
1000
0000
0001
0000
0010
0000
0100
1000
0000
0000
0010
0000
,  // measure 54
0100
0001
0100
0001
0100
0000
0010
0000
1000
0000
0100
0010
0000
0000
0001
0000
,  // measure 55
0100
0010
0100
0010
0100
0000
0001
0000
0010
0000
0100
1000
0000
0000
0000
1010
,  // measure 56
0000
0000
0010
0000
0110
0000
0000
0101
0000
0000
0001
0000
1000
0000
0001
0000
,  // measure 57
0000
0011
0000
0000
0110
0000
0000
1100
0000
0000
1001
0000
0000
0000
0000
0101
,  // measure 58
0000
0000
0100
0000
0110
0000
0000
1010
0000
0000
1000
0000
0001
0000
1000
0000
,  // measure 59
0000
1100
0000
0000
0110
0000
0000
0011
0000
0000
1001
0000
0000
0000
0000
0101
,  // measure 60
0000
0000
0100
0000
0110
0000
0000
1010
0000
0000
1000
0000
0001
0000
1000
0000
,  // measure 61
0000
1100
0000
0000
1001
0000
0000
0011
0000
0000
1001
0000
0000
0000
0000
0011
,  // measure 62
0000
0000
0010
0000
0110
0000
0000
1100
0000
0000
1000
0000
0010
0000
0110
0000
,  // measure 63
0000
0101
0000
0000
0110
0000
0000
1010
0000
0000
1001
0000
0000
0000
0000
0000
,  // measure 64
1100
0000
0000
0000
0011
0000
0000
0000
0100
1000
0100
0000
2002
0000
0000
0000
,  // measure 65
0000
0000
0000
0000
,  // measure 66
0000
3003
0000
0000
;

//---------------dance-single - ----------------
#NOTES:
     dance-single:
     :
     Challenge:
     17:
     1.000,0.926,0.407,0.312,1.000: // measure 1
1000
0000
1001
0000
0001
0100
0001
0000
0000
0000
1000
0000
0000
0000
1000
0000
,  // measure 2
0000
0000
1010
0000
0010
0100
0010
0000
0000
0000
0100
0001
0100
0000
0001
0000
,  // measure 3
1000
0100
0000
0100
0000
0100
0000
0010
,  // measure 4
0000
0000
0010
0000
0000
0000
0010
0000
0001
0000
0100
0010
0100
0010
0100
0010
,  // measure 5
0100
0000
0001
0000
0100
0000
1000
0000
0100
0000
0001
0000
0010
0100
1000
0000
,  // measure 6
0001
0000
0100
0000
0010
1000
0100
0000
0020
0000
0001
0000
0031
0000
0100
0010
,  // measure 7
1000
0000
0010
1000
0001
0000
1000
0000
0010
0000
0001
0000
0010
0000
1000
0000
,  // measure 8
0001
0000
0100
0000
0010
0000
1000
0000
0010
0100
0010
0000
1000
0000
0001
0000
,  // measure 9
0010
0100
1000
0001
1000
0000
0100
0000
0001
0000
0100
0000
1000
0001
1000
0000
,  // measure 10
0100
0000
0010
0000
0001
0000
1000
0000
0100
1000
0010
0000
0100
0000
0001
1000
,  // measure 11
0001
0000
0010
0000
0100
0010
0100
0000
1000
0000
0100
0000
0001
0000
0100
0000
,  // measure 12
1000
0000
0010
0000
0100
0000
0010
0000
1000
0001
1000
0000
0001
0010
0001
0000
,  // measure 13
1000
0100
0010
0001
1000
0100
0010
0001
0000
0001
0000
0100
0010
0000
0100
0010
,  // measure 14
1000
0100
0010
0001
1000
0100
0010
0001
0000
0100
0000
0100
0010
0000
0100
0010
,  // measure 15
1000
0001
0010
0100
1000
0001
0010
0100
0000
0100
0000
1000
0010
0000
1000
0010
,  // measure 16
1000
0010
0100
0001
1000
0100
0010
0100
0000
0100
0000
1000
0010
0100
0001
0100
,  // measure 17
0010
0000
1010
0000
0000
1010
0000
0000
1001
0000
0000
1001
0000
0000
0001
0000
,  // measure 18
0010
0000
1100
0000
0000
1100
0000
0000
1001
0000
0000
1001
0000
0000
0001
0000
,  // measure 19
0100
0000
1010
0000
0000
1010
0000
0000
1001
0000
0000
1001
0000
0000
1000
0000
,  // measure 20
0100
0000
0011
0000
0000
0011
0000
0000
1001
0000
0000
1001
0000
0000
1000
0000
,  // measure 21
0100
0010
0001
0200
0000
0000
0300
0001
1000
0001
1000
0001
0010
0100
1000
0010
,  // measure 22
0100
0010
1000
0001
0010
0100
0010
0001
1000
0000
1000
0000
0001
0100
0001
1000
,  // measure 23
0100
0010
0001
0100
0010
0100
0001
0100
0010
1000
0100
0010
0000
0000
0001
0100
,  // measure 24
0010
0000
0010
0000
0100
0001
1000
0100
0010
0001
1000
0010
0000
2020
0000
3030
,  // measure 25
0000
0000
0000
0220
0000
0000
0000
0000
0000
0330
0000
0000
0000
0000
0000
0202
0000
0000
0000
0000
0000
0303
0000
0000
1001
0000
0000
0000
0001
0000
0000
0000
1000
0000
0000
0000
0100
0000
0000
0000
0010
0000
0000
0000
0001
0000
0000
0000
,  // measure 26
1000
0100
0010
0100
1000
0010
0100
0001
0000
0001
0000
1000
0100
0000
0010
0001
,  // measure 27
1000
0100
0010
0100
1000
0010
0100
0001
0000
0001
0000
1000
0010
0000
0100
0001
,  // measure 28
1000
0010
0100
0010
1000
0001
0010
0100
0000
0100
0000
1000
0001
0000
0010
0001
,  // measure 29
1000
0010
0100
0010
1000
0100
0010
0001
0000
0001
0000
0100
0010
1000
0010
0100
,  // measure 30
0001
0100
1000
0100
0001
0010
0100
1000
0000
1000
0000
0010
0100
0000
0010
0100
,  // measure 31
0001
0010
1000
0010
0001
1000
0100
0010
0000
0010
0000
0001
0100
0000
0010
1000
,  // measure 32
0001
0100
1000
0100
0001
0010
0100
1000
0000
1000
0000
0010
0100
0000
0010
0100
,  // measure 33
0001
0010
1000
0010
0001
1000
0100
0010
0001
0100
0010
0100
0001
1000
0100
0000
,  // measure 34
0000
0000
2002
0000
3003
0000
0201
0000
0310
0000
1000
0100
0010
0000
0202
0000
,  // measure 35
0303
0000
2002
0000
3003
0000
2200
0000
3300
0000
1001
0000
1000
0010
0100
0000
,  // measure 36
0010
0100
0002
0000
1000
0000
1003
0000
0001
0010
0100
0000
0000
0000
0010
0000
,  // measure 37
0010
2002
3003
1200
0310
0002
0103
0020
,  // measure 38
1030
0100
1000
0100
0010
0001
0010
0001
0100
0010
0100
0010
1000
0100
0020
0000
,  // measure 39
0030
0000
1002
0000
1003
0100
0010
0000
0100
0010
0001
0000
1000
0000
0010
0000
,  // measure 40
0001
0000
0010
0000
1000
0000
0001
0000
0100
0010
0100
0000
0001
0000
0100
0000
,  // measure 41
0010
0100
0010
0000
1000
0001
1000
0000
0100
0000
0010
0001
1000
0000
0100
0010
,  // measure 42
0001
0010
1000
0010
0001
0100
0010
1000
,  // measure 43
0100
0000
0010
0000
0001
0100
0001
0000
1000
0000
0100
1000
0001
0100
0010
0000
,  // measure 44
1000
0000
0100
0000
0001
0000
0100
0000
1000
0001
1000
0000
0001
0000
0010
0000
,  // measure 45
1000
0000
0010
0000
0001
0100
0001
0000
1000
0000
0100
0010
0001
0000
1000
0000
,  // measure 46
0100
0010
0100
0000
1000
0000
0010
0000
0100
0000
0001
0000
2000
0000
0000
0000
,  // measure 47
0000
0020
0000
0000
3030
0000
1001
0000
,  // measure 48
1000
0100
0010
0100
1000
0001
0100
0010
1000
0010
0001
0010
0000
0000
1000
0000
,  // measure 49
0010
0100
0001
0100
0010
1000
0100
1000
0001
0100
1000
0100
0000
0000
0001
0000
,  // measure 50
0010
0100
1000
0100
0010
0001
1000
0010
1000
0100
0001
0100
0000
0000
1000
0000
,  // measure 51
0001
0100
0010
0100
0001
1000
0100
1000
0010
0001
0010
1000
0001
0000
0000
0000
,  // measure 52
0010
0001
0010
0100
0010
0001
0100
1000
0100
0001
0010
0100
0000
0000
1000
0000
,  // measure 53
0010
1000
0100
0010
0100
1000
0010
0001
0010
1000
0100
0010
0000
0000
0100
0000
,  // measure 54
1000
0010
0100
0010
1000
0001
0100
1000
0100
0001
1000
0100
0000
0000
0010
0000
,  // measure 55
0001
1000
0100
1000
0001
1000
0100
0001
0100
1000
0001
0100
0000
0000
0000
1001
,  // measure 56
0000
0000
0001
0010
0100
1000
0001
0100
0001
1000
0100
0000
1000
0000
1001
0000
,  // measure 57
0000
0001
0100
0010
0100
0001
1000
0100
0010
0001
1000
0000
0000
0000
0000
1001
,  // measure 58
0000
0000
1000
0100
1000
0001
0100
0001
1000
0100
0010
0000
0001
0000
1001
0000
,  // measure 59
0000
0010
0001
0100
0010
0100
0001
0010
0001
0100
0010
0000
1000
0100
0001
0100
,  // measure 60
0000
1000
0010
0100
0010
1000
0100
0001
0100
1000
0100
0010
0001
0000
1001
0000
,  // measure 61
0000
0010
0001
0010
1000
0010
0001
1000
0100
0010
0001
0000
0101
0000
0000
0110
,  // measure 62
0000
0000
0010
1000
0100
0001
0100
1000
0001
0010
0100
1000
0001
0000
1001
0000
,  // measure 63
0000
0010
0001
0100
1000
0100
0001
0010
0100
1000
0001
0010
1000
0010
0001
0000
,  // measure 64
0202
0000
0303
0000
0220
0000
0330
0000
0010
1000
0001
1000
2020
0000
0000
0000
,  // measure 65
0000
0000
0000
0000
,  // measure 66
0000
3030
0000
0000
;

//---------------dance-single - ----------------
#NOTES:
     dance-single:
     :
     Beginner:
     3:
     0.131,0.181,0.095,0.000,0.000:
0000
0000
0000
0000
,
0000
0000
0000
0000
,
0000
0000
0000
0000
,
0000
0000
0000
0000
,
1001
0000
1000
0000
,
0001
0000
1000
0000
,
0010
0000
0010
0000
,
0100
0000
0010
0000
,
0010
0000
0100
0000
,
0001
0000
1000
0000
,
1000
0000
0010
0000
,
0100
0000
0001
0000
,
1000
0000
1000
0000
,
1000
0000
1000
0000
,
0001
0000
0001
0000
,
0001
0000
0001
0000
,
0100
0000
0000
0000
,
0010
0000
0000
0000
,
0100
0000
0000
0000
,
0010
0000
0000
0000
,
0000
0110
0000
0000
,
1000
0000
0000
0000
,
0001
0000
0000
0000
,
1000
0000
0000
0110
,
0000
0000
0000
0000
,
0010
0000
0000
0000
,
0010
0000
0000
0000
,
0100
0000
0000
0000
,
0100
0000
0000
0000
,
0010
0000
0000
0000
,
0100
0000
0000
0000
,
0010
0000
0000
0000
,
1000
0000
0000
0000
,
0000
1001
0000
0000
0000
0000
0000
0001
,
0000
1000
0000
0000
0000
0000
0000
1001
,
0000
0000
0000
0000
,
0000
1000
0000
0001
0000
0000
0000
0000
,
1001
0000
0000
0000
,
0010
0000
0000
1000
,
0000
0000
0000
0000
,
0000
0001
0000
0001
,
0000
0000
0000
0000
,
0000
1000
0000
1000
,
0000
0000
0000
0000
,
0000
0001
0000
0001
,
0000
0000
0000
0100
,
0000
0000
0000
0110
,
0000
0010
0000
0100
,
0000
0010
0000
0010
,
0000
1000
0000
0001
,
0000
0100
0000
0100
,
0000
0001
0000
0100
,
0000
0010
0000
0010
,
0000
1000
0000
0100
,
0000
1000
0000
0000
,
1001
0000
0000
0001
,
0000
1000
0000
0000
,
0010
0000
0100
0000
,
0010
0000
0000
1000
,
0000
0001
0000
1000
,
0000
0000
0000
0100
,
0000
0010
0000
0100
,
0000
0000
0000
0000
,
1001
0000
0000
1001
;
