#TITLE:Over Da Moon;
#SUBTITLE:;
#ARTIST:lapix;
#TITLETRANSLIT:;
#SUBTITLETRANSLIT:;
#ARTISTTRANSLIT:;
#GENRE:;
#CREDIT:DigiMindAxel;
#BANNER:Over Da Moon.png;
#BACKGROUND:Over Da Moon-bg.png;
#LYRICSPATH:;
#CDTITLE:pop'n music.png;
#MUSIC:Over Da Moon.ogg;
#OFFSET:-7.366000;
#SAMPLESTART:76.018997;
#SAMPLELENGTH:12.000000;
#SELECTABLE:YES;
#BPMS:0.000000=145.000000
;
#STOPS:
;
#BGCHANGES:;
#KEYSOUNDS:;
#ATTACKS:;

//---------------dance-single - ----------------
#NOTES:
     dance-single:
     :
     Easy:
     5:
     0.241338,0.277803,0.287029,0.180418,0.004100,206.000000,171.000000,35.000000,22.000000,0.000000,0.000000,0.241338,0.277803,0.287029,0.180418,0.004100,206.000000,171.000000,35.000000,22.000000,0.000000,0.000000:
// measure 0
2002
0000
0000
3003
,  // measure 1
2002
0000
0000
3003
,  // measure 2
0220
0000
0000
0330
,  // measure 3
0110
0010
0010
0000
,  // measure 4
2002
0000
0000
3003
,  // measure 5
2002
0000
0000
3003
,  // measure 6
0001
0100
0001
1000
,  // measure 7
0100
1000
0100
0010
,  // measure 8
0001
0100
0001
1000
,  // measure 9
0100
0010
0002
0000
,  // measure 10
1003
0100
1000
0001
,  // measure 11
1000
0100
1000
0001
,  // measure 12
0100
0010
0100
0001
,  // measure 13
1000
0100
0020
0000
,  // measure 14
0031
0000
0000
0000
,  // measure 15
0000
0000
0000
0000
,  // measure 16
1001
0000
0110
0000
,  // measure 17
1001
0000
0110
0000
,  // measure 18
1001
0000
0001
0000
,  // measure 19
1000
0000
0100
0010
,  // measure 20
0001
0100
0001
1000
,  // measure 21
0100
0000
0020
0000
,  // measure 22
0031
0100
0001
0100
,  // measure 23
0010
1000
0010
1000
,  // measure 24
0100
0010
0100
0010
,  // measure 25
0002
0000
1000
0000
,  // measure 26
1003
0000
0000
1000
0000
0000
1001
0000
,  // measure 27
0000
0001
0000
0000
1001
0000
0000
0000
,  // measure 28
0120
0000
0000
0000
,  // measure 29
0230
0000
0000
0000
,  // measure 30
0320
0000
0000
0000
,  // measure 31
0130
0000
0000
0100
0000
0000
0100
0000
,  // measure 32
0110
0000
0000
0000
,  // measure 33
1001
0000
0000
0000
,  // measure 34
0110
0000
0000
0000
,  // measure 35
1001
0001
0001
0000
,  // measure 36
1000
0100
1000
0100
,  // measure 37
0010
0001
0010
0001
,  // measure 38
0100
0100
0010
0010
,  // measure 39
0100
0100
0100
0000
,  // measure 40
1001
0000
0000
0000
,  // measure 41
0010
0010
0110
0000
,  // measure 42
0100
0000
1001
0000
,  // measure 43
0100
0010
0100
1000
,  // measure 44
1001
0000
0110
0000
,  // measure 45
0010
0100
0010
0000
,  // measure 46
0100
0000
1001
0000
,  // measure 47
0100
0010
1000
0001
,  // measure 48
1001
0000
0110
0000
,  // measure 49
0001
1000
0100
0000
,  // measure 50
0010
0010
0001
0001
,  // measure 51
0100
0100
0010
0000
,  // measure 52
1000
1000
0100
0100
,  // measure 53
0010
0001
1000
0000
,  // measure 54
0010
0010
0100
0100
,  // measure 55
0001
0001
0010
0000
,  // measure 56
0001
0001
1000
1000
,  // measure 57
0100
0010
0001
0000
,  // measure 58
1001
0000
0000
1000
0000
0000
1001
0000
,  // measure 59
0002
0000
0000
0003
,  // measure 60
1001
0000
0000
1000
0000
0000
1001
0000
,  // measure 61
0002
0000
0000
0003
,  // measure 62
1001
0000
0000
0000
,  // measure 63
0110
0000
0000
0000
,  // measure 64
1001
0000
0000
0000
,  // measure 65
0010
0100
0010
0000
,  // measure 66
1002
0000
0000
0000
,  // measure 67
1003
0000
0000
0000
0000
0000
0000
2002
0000
0000
0000
0000
3003
0000
0000
0000
;

//---------------dance-single - ----------------
#NOTES:
     dance-single:
     :
     Medium:
     10:
     0.393639,0.444485,0.270627,0.451045,0.032803,336.000000,303.000000,33.000000,55.000000,0.000000,0.000000,0.393639,0.444485,0.270627,0.451045,0.032803,336.000000,303.000000,33.000000,55.000000,0.000000,0.000000:
// measure 0
2002
0000
0000
0000
0000
0000
3003
2000
,  // measure 1
0200
0000
0000
0000
0000
0000
3300
0020
,  // measure 2
0002
0000
0000
0033
2002
0000
3003
0001
,  // measure 3
0100
0000
0100
0000
0100
0010
0100
0000
,  // measure 4
2002
0000
0000
3003
,  // measure 5
1001
0000
0000
0000
1100
0000
0000
1100
0000
0000
0000
0000
0010
0000
0000
0000
,  // measure 6
0001
0100
0001
0000
1000
0100
0010
0000
,  // measure 7
0001
0100
0001
0000
0100
0010
1000
0000
,  // measure 8
0100
1000
0100
0000
0010
0001
0100
0000
,  // measure 9
0001
1000
0001
1000
0100
0000
1100
0000
,  // measure 10
0010
0100
0010
0000
0001
0100
0010
0000
,  // measure 11
1000
0001
1000
0000
0100
0010
0001
0000
,  // measure 12
0100
0010
0100
0000
0010
1000
0100
1000
,  // measure 13
0001
1000
0100
0010
0002
0000
0010
0000
,  // measure 14
0013
0000
0000
0000
,  // measure 15
0000
0000
0000
0000
,  // measure 16
0110
0000
0010
0100
0001
0000
0100
0010
,  // measure 17
1000
0000
0010
0100
0001
0100
0010
1000
,  // measure 18
0100
0000
0100
1000
0100
0000
0010
0001
,  // measure 19
0010
0000
0010
0001
1000
0100
0010
0000
,  // measure 20
0002
0203
0320
2030
,  // measure 21
3002
0000
0000
1000
1003
0000
0000
0000
,  // measure 22
0011
0000
0100
1000
0010
1000
0100
0000
,  // measure 23
0010
0000
0001
1000
0010
1000
0001
0000
,  // measure 24
0020
0230
2300
3002
,  // measure 25
0203
0000
0301
0010
,  // measure 26
1100
0000
0000
1100
0000
0000
1001
0000
,  // measure 27
0000
1001
0000
0000
0011
0000
0011
0000
,  // measure 28
1001
0000
1000
0000
,  // measure 29
0001
0000
0001
0000
,  // measure 30
1000
0000
1000
0000
,  // measure 31
0010
0010
0000
0100
0100
0000
0110
0000
,  // measure 32
2002
0000
0000
3003
,  // measure 33
0022
0000
0000
0033
,  // measure 34
2200
0000
0000
3300
,  // measure 35
0110
0000
0000
0000
0010
0000
0000
0010
0000
0000
0010
0000
0010
0000
0010
0000
,  // measure 36
1000
0100
0010
0000
0100
1000
0100
0000
,  // measure 37
0010
0001
0010
0000
0001
0010
0100
0000
,  // measure 38
0010
0000
0001
0000
1000
0000
0001
0000
0010
0000
0001
0000
1000
0000
0000
0100
,  // measure 39
0000
0010
0000
0100
0000
0010
0000
0001
0000
0000
0000
0000
0000
0000
0000
0000
,  // measure 40
2002
0000
0000
3003
,  // measure 41
0110
0110
1001
0000
,  // measure 42
0001
0010
0100
0000
0010
0001
0100
0000
,  // measure 43
0002
0203
0320
2030
,  // measure 44
3001
0010
0100
0000
0010
0001
0100
0000
,  // measure 45
0020
2030
3200
0300
,  // measure 46
1000
0010
0100
0000
0010
1000
0100
0000
,  // measure 47
0020
0032
0203
0320
,  // measure 48
0130
0001
0010
0000
0001
0010
0100
0000
,  // measure 49
0010
0001
0100
0001
0020
0000
0030
0000
,  // measure 50
0001
1000
0100
1000
0100
1000
0001
0000
,  // measure 51
1000
0001
0010
0001
0010
0001
1000
0000
,  // measure 52
0010
0100
0010
1000
0010
0100
0010
0000
,  // measure 53
0100
0010
0100
0001
0100
0010
0100
0000
,  // measure 54
0001
1000
0100
1000
0100
1000
0001
0000
,  // measure 55
1000
0001
0010
0001
0010
0001
1000
0000
,  // measure 56
0100
1000
0001
1000
0100
1000
0001
0000
,  // measure 57
0010
0001
1000
0001
0010
0001
1000
0000
,  // measure 58
0010
0010
0000
0100
0100
0000
0110
0000
,  // measure 59
2002
0000
0000
3003
,  // measure 60
0100
0100
0000
0010
0010
0000
0110
0000
,  // measure 61
2002
0000
0000
3003
,  // measure 62
0202
0000
0000
0000
0000
0000
0303
0002
,  // measure 63
2000
0000
0000
0000
0000
3003
0000
2000
,  // measure 64
0200
0000
3300
0000
2002
0000
3003
0001
,  // measure 65
0100
0000
0100
0000
0100
0010
0100
0000
,  // measure 66
0001
0010
0100
1000
0001
0010
0100
1000
,  // measure 67
0001
0000
0000
0000
0101
0000
0000
0202
0000
0000
0000
0000
0303
0000
0000
0000
;

//---------------dance-single - ----------------
#NOTES:
     dance-single:
     :
     Hard:
     13:
     0.598660,0.638946,0.377238,0.229623,0.311631,511.000000,465.000000,46.000000,28.000000,0.000000,0.000000,0.598660,0.638946,0.377238,0.229623,0.311631,511.000000,465.000000,46.000000,28.000000,0.000000,0.000000:
// measure 0
2002
0000
0000
0000
0000
0000
3003
1001
,  // measure 1
0202
0000
0000
0000
0000
0000
0303
0101
,  // measure 2
0220
0000
0300
0000
2000
0000
3030
1010
,  // measure 3
1100
0000
0010
0001
1000
0010
0110
0000
,  // measure 4
1001
0100
0010
0001
1000
0100
0010
0001
,  // measure 5
0110
0000
0000
0000
1000
0001
0000
1001
0000
0000
0000
0000
2000
0000
0000
0000
,  // measure 6
3001
0000
0010
0000
1000
0000
0010
0000
0001
1000
0001
1000
0100
0000
0000
0000
,  // measure 7
1000
0000
0010
0000
0001
0000
0010
0000
1000
0001
1000
0000
0001
0100
0001
0000
,  // measure 8
1000
0000
0100
0000
0001
0000
0100
0000
1000
0001
1000
0001
0010
0000
0000
0000
,  // measure 9
0001
0010
0001
0000
1000
0001
1000
0000
0010
0000
0001
0000
0010
0000
1000
0000
,  // measure 10
0001
0000
0100
0000
1000
0000
0100
0000
0001
1000
0001
1000
0010
0000
0000
0000
,  // measure 11
1000
0000
0010
0000
0001
0000
0010
0000
1000
0100
1000
0000
0001
1000
0001
0000
,  // measure 12
1000
0000
0010
0000
0001
0000
0010
0000
1000
0001
1000
0000
0100
1000
0100
0000
,  // measure 13
0010
0000
0001
0000
1000
0010
0100
0001
2000
0000
0000
0000
0001
0000
0000
0000
,  // measure 14
3001
0000
0000
0000
,  // measure 15
0001
0000
1000
1000
,  // measure 16
1001
0000
0000
0001
0100
0000
0001
0000
1000
0000
0000
0001
0100
0000
0001
0000
,  // measure 17
1000
0000
0000
0001
0100
0000
0001
0000
1000
0000
0100
0000
0010
0000
0001
0000
,  // measure 18
1000
0000
0000
0100
0010
0000
0001
0000
1000
0000
0000
0100
0010
0000
0001
0000
,  // measure 19
1000
0000
0000
0100
0010
0000
0001
0000
1000
0000
0010
0000
0100
0000
0001
0000
,  // measure 20
0011
1100
0011
1100
,  // measure 21
0120
0000
0000
0000
0000
0000
0100
0000
0130
0000
0000
0100
0000
0000
0100
0000
,  // measure 22
1001
1000
0001
0100
1000
0100
0001
0010
,  // measure 23
0100
0010
0001
0100
1000
0100
0010
1000
,  // measure 24
1001
0101
1010
0101
,  // measure 25
1020
0000
1000
0000
1030
0001
0010
0100
,  // measure 26
1100
0000
0000
2002
0000
3003
0011
0000
,  // measure 27
0000
0000
2002
0000
0000
0000
3003
0000
0001
0000
0001
0000
0010
0001
0010
0001
,  // measure 28
1000
0010
0200
0000
0000
0301
2000
0000
,  // measure 29
3001
0010
0100
0010
0001
0010
0100
0000
,  // measure 30
0010
0001
0200
0000
0000
0310
1000
0000
,  // measure 31
0001
1000
0001
0000
0000
0000
1000
0001
1000
0000
0000
0000
1001
0000
0000
0000
,  // measure 32
1001
0100
0000
0100
0000
0100
0100
0100
,  // measure 33
1001
0010
0000
0010
0000
0010
0010
0010
,  // measure 34
1001
0100
0000
0100
0000
0100
0100
0100
,  // measure 35
1001
0000
0000
0000
0110
0000
0000
0110
0000
0000
0110
0000
1000
0000
0010
0000
,  // measure 36
0100
0001
1000
0001
0100
1000
0100
0010
,  // measure 37
1000
0001
0010
0001
0100
1000
0100
0010
,  // measure 38
1000
0000
0010
0000
0100
0001
0000
0001
0000
0100
0001
0000
1000
0000
0001
1000
,  // measure 39
0000
0100
0000
0010
0000
0001
0000
1000
0010
0000
0100
0000
0010
0000
1000
0000
,  // measure 40
0202
0000
0000
0303
,  // measure 41
0001
1000
0001
1000
0010
0100
0010
0000
0000
1001
0000
0000
,  // measure 42
1000
0010
0001
0010
1000
0100
0001
0100
,  // measure 43
1000
0000
0000
1000
0100
0000
0000
0100
0010
0000
0000
0010
0001
0000
0000
0001
,  // measure 44
1000
0100
0001
0100
1000
0010
0001
0010
,  // measure 45
1000
0000
0000
1000
0010
0000
0000
0010
0100
0000
0001
0000
0010
0000
0001
0000
,  // measure 46
1000
0100
0001
1000
0100
0010
1000
0001
,  // measure 47
0010
0000
0000
0010
0100
0000
0000
0100
1000
0000
0000
1000
0010
0000
0100
0000
,  // measure 48
0001
0010
1000
0001
0010
0100
0001
1000
,  // measure 49
0100
0000
0000
0100
0010
0000
0001
0000
1000
0000
0010
0000
1000
0000
0000
0000
,  // measure 50
0100
0000
0010
0000
0001
0000
1000
0000
0010
1000
0010
1000
0001
0000
0000
0000
,  // measure 51
0010
0000
0100
0000
1000
0000
0001
0000
0100
0001
0100
0001
1000
0100
1000
0000
,  // measure 52
0010
0000
0100
0000
0001
0000
1000
0000
0100
1000
0100
1000
0001
0000
0000
0000
,  // measure 53
0100
0001
0100
0000
0001
1000
0001
0000
0010
0000
0100
0000
1000
0000
1000
0000
,  // measure 54
0010
0000
0100
0000
0001
0000
1000
0000
0100
1000
0100
1000
0001
0000
0000
0000
,  // measure 55
0100
0000
0010
0000
1000
0000
0001
0000
0010
0001
0010
0001
1000
0010
1000
0000
,  // measure 56
0100
0000
0010
0000
0001
0000
1000
0000
0010
1000
0010
1000
0001
0000
0000
0000
,  // measure 57
0010
0000
0100
1000
0001
1000
0100
0000
0010
0000
0001
0000
1000
0000
0000
0000
,  // measure 58
0010
0110
0000
0001
0101
0000
1001
0010
,  // measure 59
0200
0000
1000
1000
1300
0000
0000
1000
,  // measure 60
0001
0101
0000
0100
0110
0000
1001
0100
,  // measure 61
0020
0000
0000
0000
0001
0000
0001
0000
0031
0000
0000
0000
0000
0000
0100
0010
,  // measure 62
2000
0000
0000
0000
0000
0000
0000
0000
0000
0000
0000
0000
3000
0000
0010
0100
,  // measure 63
0002
0000
0000
0000
0000
0000
0000
0000
0000
0000
0000
0000
0003
0000
1000
0100
,  // measure 64
0020
0000
0000
0000
0000
0000
0000
0000
0032
0000
0000
0000
0003
0000
0010
0100
,  // measure 65
1000
0001
0100
0001
1000
0010
0110
0000
,  // measure 66
1000
0100
0010
0001
1000
0100
0010
0001
,  // measure 67
1001
0000
0000
0000
0100
0001
0000
0202
0000
0000
0000
0000
0303
0000
0000
0000
;

//---------------dance-single - ----------------
#NOTES:
     dance-single:
     :
     Challenge:
     16:
     0.847028,0.888969,0.483848,0.205021,0.984099,723.000000,664.000000,59.000000,25.000000,0.000000,0.000000,0.847028,0.888969,0.483848,0.205021,0.984099,723.000000,664.000000,59.000000,25.000000,0.000000,0.000000:
// measure 0
1001
0000
1000
0000
0100
0010
0001
0010
0100
0000
1000
0010
0100
0000
0001
0000
,  // measure 1
1001
0000
1000
0000
0100
0010
0001
0010
0100
0000
1000
0001
0100
0000
0001
0000
,  // measure 2
1001
0000
1000
0000
0010
0100
0001
0100
0010
0000
1000
0100
0010
0000
0001
1000
,  // measure 3
0010
0000
1000
0000
0010
1000
0001
0010
0100
0000
1001
0000
1001
0000
0000
0000
,  // measure 4
0001
0010
0100
0010
0001
0010
0100
1000
0010
0100
0010
1000
0010
0100
0010
1000
,  // measure 5
0001
0000
0000
0000
0010
0010
0000
0011
0000
0000
0100
0000
0110
0000
0100
0000
,  // measure 6
1001
0000
1000
0010
0100
0010
1000
0001
0010
1000
0010
0001
1000
0000
0000
0000
,  // measure 7
0001
0000
1000
0010
0100
0010
1000
0001
0100
1000
0100
0001
0010
1000
0010
0001
,  // measure 8
1000
0000
0001
0100
0010
0100
0001
1000
0100
0001
0100
1000
0001
0000
0000
0000
,  // measure 9
0100
0001
0010
0001
0100
0010
0100
0001
1000
0100
0010
0001
0010
0100
1000
0000
,  // measure 10
1001
0000
1000
0010
0100
0010
1000
0001
0010
1000
0010
0001
1000
0000
0000
0000
,  // measure 11
0001
1000
0100
1000
0001
1000
0100
1000
0010
0001
0010
1000
0100
0001
0100
1000
,  // measure 12
0001
0000
1000
0001
0100
0001
1000
0001
0100
1000
0100
0001
0010
1000
0010
0001
,  // measure 13
1000
0000
0000
0000
0000
0000
1000
0000
0000
0000
0000
0000
0100
0000
0010
0000
0001
0000
0100
0000
0000
0010
0000
0000
0200
0000
0000
0000
0000
0000
0000
0000
0000
0000
0000
0000
0310
0000
0000
0000
0000
0000
0000
0000
0000
0000
0000
0000
,  // measure 14
2001
0000
0000
0000
,  // measure 15
3200
0000
0000
0000
0000
1000
1300
0000
,  // measure 16
1001
0000
0000
0001
0100
0000
0000
0100
0010
0000
0000
0010
1000
0000
0000
1000
,  // measure 17
0001
0000
0000
0001
0010
0000
0000
0010
0100
0000
1000
0000
0001
0000
0010
0000
,  // measure 18
1100
0000
0000
1000
0001
0000
0000
0001
0100
0000
0000
0100
0010
0000
0000
0010
,  // measure 19
1000
0000
0000
1000
0001
0000
0000
0001
0010
0000
0000
0010
0100
0000
0000
0000
,  // measure 20
1020
0230
0320
0230
,  // measure 21
0302
0000
0000
0000
1003
0000
0000
0000
1100
0000
0000
1100
0000
0000
1100
0000
,  // measure 22
1001
0001
1000
0010
0001
0010
1000
0001
,  // measure 23
1000
0100
0001
0100
1000
0001
0010
0100
,  // measure 24
1020
0000
0000
0230
0000
0000
0320
0000
0000
0130
0001
1000
,  // measure 25
0020
0000
2030
0000
3001
0010
0100
1000
,  // measure 26
2020
0000
3030
0220
0000
0330
0202
0000
,  // measure 27
0303
0000
2002
0000
0000
0000
3003
0000
1000
0000
1000
0000
1000
0010
0100
0001
,  // measure 28
0010
0000
0000
0010
0100
0000
0000
0100
1000
0000
0000
1000
0001
0000
0000
0001
,  // measure 29
0010
0000
0000
0010
0100
0000
0000
0100
1000
0000
0000
1000
0001
0000
0000
0001
,  // measure 30
0100
0000
0000
0100
0010
0000
0000
0010
1000
0000
0000
1000
0001
0000
0000
0000
,  // measure 31
0100
0001
0100
0010
0000
0000
1000
0000
0000
0010
1000
0010
0100
0000
0000
0001
0000
0000
1001
0000
0000
0000
0000
0000
,  // measure 32
0100
0000
0010
0000
0100
0001
0000
0010
0000
0100
0000
1000
0001
1000
0001
0000
,  // measure 33
0100
0000
0010
0000
0100
0001
0000
0010
0100
0000
1000
0001
0100
0001
1000
0000
,  // measure 34
0010
0000
0100
0000
0010
1000
0000
0100
0000
0010
0000
0001
1000
0001
1000
0000
,  // measure 35
1001
0000
0001
0000
0101
0000
0000
0110
0000
0000
1010
0000
0100
0000
0010
0000
,  // measure 36
1001
0000
0010
0000
0100
1000
0000
0001
0000
0100
0000
0001
1000
0100
0010
0000
,  // measure 37
1001
0000
0100
0000
0010
0001
0000
1000
0010
0000
0100
0001
0010
0100
0010
0000
,  // measure 38
0101
0000
0010
0000
0100
1000
0000
0001
0000
0010
0100
0000
1000
0000
0001
0010
,  // measure 39
0000
1000
0000
0010
0000
0001
0000
0100
0010
1000
0100
1000
0100
0010
0001
0010
,  // measure 40
0002
0000
0000
0000
,  // measure 41
1003
1000
0001
0001
1000
1000
0110
0000
0000
1001
0000
0000
,  // measure 42
0001
0010
0100
0000
0010
0000
0001
0000
1000
0100
0010
0000
0100
0000
1000
0000
,  // measure 43
0001
0100
0001
0000
0100
0010
0100
0000
0010
1000
0010
0000
1000
0001
1000
0001
,  // measure 44
1000
0010
0100
0000
0001
0000
1000
0000
0100
0010
0001
0000
1000
0000
0010
0000
,  // measure 45
0100
0010
0100
0000
0010
0100
0010
0000
1000
0001
1000
0000
0110
0000
0110
0000
,  // measure 46
1000
0010
0100
0000
0001
0000
1000
0000
0001
0100
0010
0000
1000
0000
0001
0000
,  // measure 47
1000
0100
1000
0000
0001
0010
0001
0000
0100
0010
0100
0000
0010
0100
0010
0100
,  // measure 48
0001
0010
0100
0000
1000
0000
0001
0000
1000
0010
0100
0000
0001
0000
1000
0000
,  // measure 49
0100
1000
0100
0000
1000
0001
1000
0000
0001
0100
0001
0000
0110
0000
0110
0000
,  // measure 50
0001
0010
0100
0010
0001
0010
0100
0010
0001
0010
1000
0010
0001
0000
0000
0000
,  // measure 51
0100
0010
1000
0010
0100
0010
1000
0010
1000
0100
0001
1000
0010
0001
1000
0000
,  // measure 52
0001
0010
0100
0010
0001
0010
0100
0010
0001
0010
1000
0010
0001
0000
0000
0000
,  // measure 53
1000
0010
0100
0010
1000
0001
0010
0001
1000
0100
0001
1000
0010
0001
1000
0000
,  // measure 54
0001
0100
0010
0100
0001
0100
0010
0100
0001
0100
1000
0100
0001
0000
0000
0000
,  // measure 55
0100
0010
1000
0010
0100
0010
1000
0010
1000
0100
0001
1000
0010
0001
1000
0000
,  // measure 56
0010
0100
0001
0100
0010
0100
0001
0100
0001
0100
1000
0100
0001
0010
0100
0000
,  // measure 57
1001
0000
0000
0000
0000
0000
1000
0000
0000
0000
0000
0000
0100
0000
0010
0000
0001
0000
0100
0000
0000
0010
0000
0000
0200
0000
0000
0000
0000
0000
0000
0000
0000
0000
0000
0000
0301
0000
0000
0000
0000
0000
0000
0000
0000
0000
0000
0000
,  // measure 58
1001
0011
0000
1100
1001
0000
0110
1001
,  // measure 59
0100
0010
1100
1100
1001
0000
0000
0010
,  // measure 60
0110
1010
0000
0110
0101
0000
0110
1001
,  // measure 61
0010
0000
0100
0000
1010
0000
1010
0000
1001
0000
0000
0000
0000
0000
0001
1000
,  // measure 62
0001
0000
0010
0000
0100
1000
0001
1000
0100
0000
1000
0100
0010
0000
0001
1000
,  // measure 63
0001
0000
0100
0000
0010
1000
0100
1000
0010
0000
1000
0010
0100
0000
0001
1000
,  // measure 64
0001
0000
0010
0000
0100
0010
0001
0010
0100
0000
1000
0010
0100
0000
0001
1000
,  // measure 65
0001
0000
0010
0000
0100
1000
0010
1000
0100
0000
1001
0000
1001
0000
0000
0000
,  // measure 66
0100
0010
0001
0010
0100
0010
0001
0010
0100
1000
0010
0100
0001
0100
0010
1000
,  // measure 67
0001
0000
0000
0000
1000
0101
0000
0202
0000
0000
0000
0000
0303
0000
0000
0000
;

//---------------dance-single - ----------------
#NOTES:
     dance-single:
     :
     Beginner:
     2:
     0.139414,0.192309,0.123012,0.000000,0.000000,119.000000,104.000000,15.000000,0.000000,0.000000,0.000000,0.139414,0.192309,0.123012,0.000000,0.000000,119.000000,104.000000,15.000000,0.000000,0.000000,0.000000:
// measure 0
1001
0000
0000
0000
,  // measure 1
1001
0000
0000
0000
,  // measure 2
1001
0000
0001
0000
,  // measure 3
0001
0000
1000
0000
,  // measure 4
1001
0000
0000
0000
,  // measure 5
0000
0000
0000
0000
,  // measure 6
0010
0000
0010
0000
,  // measure 7
0001
0000
0001
0000
,  // measure 8
0010
0000
0010
0000
,  // measure 9
0001
0000
0010
0000
,  // measure 10
0100
0000
0100
0000
,  // measure 11
1000
0000
1000
0000
,  // measure 12
0100
0000
0100
0000
,  // measure 13
1000
0000
0100
0000
,  // measure 14
0010
0000
0000
0000
,  // measure 15
0000
0000
0000
0000
,  // measure 16
0001
0000
0100
0000
,  // measure 17
0001
0000
0100
0000
,  // measure 18
0001
0000
1000
0000
,  // measure 19
0001
0000
1000
0000
,  // measure 20
0100
0000
0010
0000
,  // measure 21
0001
0000
0000
0000
,  // measure 22
1000
0000
0010
0000
,  // measure 23
1000
0000
0010
0000
,  // measure 24
0100
0000
0001
0000
,  // measure 25
0010
0000
0000
0000
,  // measure 26
1001
0000
0000
0000
,  // measure 27
0000
0000
0000
0000
,  // measure 28
1000
0000
0000
0000
,  // measure 29
1000
0000
0000
0000
,  // measure 30
0001
0000
0000
0000
,  // measure 31
1001
0000
0000
0000
,  // measure 32
0001
0000
0000
0000
,  // measure 33
0010
0000
0000
0000
,  // measure 34
0100
0000
0000
0000
,  // measure 35
1000
0000
0000
0000
,  // measure 36
0010
0000
0010
0000
,  // measure 37
0100
0000
0100
0000
,  // measure 38
0010
0000
0100
0000
,  // measure 39
0010
0000
0000
0000
,  // measure 40
1001
0000
0000
0000
,  // measure 41
0000
0000
0000
0000
,  // measure 42
1000
0000
0100
0000
,  // measure 43
1000
0000
1000
0000
,  // measure 44
0001
0000
0010
0000
,  // measure 45
0001
0000
0001
0000
,  // measure 46
0100
0000
0010
0000
,  // measure 47
0100
0000
0100
0000
,  // measure 48
0010
0000
0100
0000
,  // measure 49
0010
0000
0010
0000
,  // measure 50
1000
0000
0100
0000
,  // measure 51
0010
0000
0001
0000
,  // measure 52
1000
0000
0010
0000
,  // measure 53
0100
0000
0001
0000
,  // measure 54
1000
0000
0100
0000
,  // measure 55
0010
0000
0001
0000
,  // measure 56
1000
0000
0010
0000
,  // measure 57
0100
0000
0100
0000
,  // measure 58
0110
0000
0000
0000
,  // measure 59
0010
0000
0010
0000
,  // measure 60
0110
0000
0000
0000
,  // measure 61
0100
0000
0100
0000
,  // measure 62
0110
0000
0000
0000
,  // measure 63
1001
0000
0000
0000
,  // measure 64
0110
0000
0010
0000
,  // measure 65
1001
0000
0000
0000
,  // measure 66
0110
0000
0000
0000
,  // measure 67
1001
0000
0000
0000
;
