#TITLE:Atom Bomb;
#ARTIST:Fluke;
#BANNER:Atom Bomb-banner.png;
#BACKGROUND:Atom Bomb-bg.png;
#CDTITLE:.\CDTITLES\ITG.png;
#MUSIC:Atom Bomb.mp3;
#OFFSET:-0.327;
#SAMPLESTART:61.12;
#SAMPLELENGTH:11.96;
#BPMS:0=110;
#BGCHANGES:0=Atom Bomb.avi=1=0=0=1,999=-=1=0=0=0;
#NOTES:
     dance-single:
     R. McKanna:
     Hard:
     8:
     0.388,0.375,0.042,0.051,0.182:
0000
0000
0000
0000
,
0000
0000
0000
0000
,
0000
0000
0000
0000
,
0000
0000
0000
0000
,
0000
0000
0000
0000
1000
0000
0001
0000
0100
0010
0000
0000
1000
0000
0000
0000
,
0000
0000
0000
0000
0001
0000
1000
0000
0100
0010
0000
0000
0001
0000
0000
0000
,
0000
0000
0000
0000
0100
0000
0010
0000
1000
0010
0000
0000
0100
0000
0000
0000
,
0000
0000
0000
0000
0010
0000
0100
0000
0010
1000
0000
0000
0010
0000
0000
0000
,
0000
0000
0000
0000
0001
0000
1000
0000
0010
0100
0000
0000
0001
0000
0000
0000
,
0000
0000
0000
0000
1000
0000
0001
0000
0010
0100
0000
0000
1000
0000
0000
0000
,
0000
0000
0000
0000
0010
0000
0100
0000
0001
0100
0000
0000
0010
0000
0000
0000
,
0000
0000
0000
0000
0100
0000
0010
0000
0100
0001
0000
0000
0100
0000
0000
0000
,
1000
0000
0000
0000
0001
0000
1000
0100
1000
0010
0000
0000
1000
0000
0000
0000
,
0001
0000
0000
0000
1000
0000
0001
0010
0001
0100
0000
0000
0001
0000
0000
0000
,
1000
0000
0000
0000
0010
0000
0100
0010
0100
0001
0000
0000
0010
0000
0000
0000
,
0001
0000
0000
0000
0100
0000
0010
1000
0010
0100
0000
0000
0001
0000
0000
0000
,
1000
0000
0000
0001
0000
0000
0100
0000
0001
1000
0000
0000
0100
0000
0000
0000
,
1000
0000
0000
0010
0000
0000
0100
0000
0001
0010
0000
0000
0100
0000
0000
0000
,
0010
0000
0000
0100
0000
0000
1000
0000
0100
0010
0000
0000
0001
0000
0000
0000
,
0010
0000
0000
0001
0000
0000
1000
0000
0001
0100
0000
0000
0010
0000
0000
0000
,
0100
0000
0000
0001
0000
0000
0100
0000
0001
1000
0000
0000
0100
0000
0000
0000
,
1000
0000
0000
0010
0000
0000
0100
0000
0001
0010
0000
0000
0100
0000
0000
0000
,
0001
0000
0000
0010
0000
0000
0001
0000
0010
0100
0000
0000
0001
0000
0000
0000
,
0100
0000
0000
1000
0000
0000
0010
0000
1001
0000
0000
0000
1001
0000
0000
0000
,
0100
0000
0000
0100
0000
0000
0100
0000
0010
0000
0000
0010
0000
0000
0010
0000
,
1000
0000
0000
1000
0000
0000
1000
0000
0001
0000
0000
0001
0000
0000
0001
0000
,
0100
0000
0000
0100
0000
0000
0100
0000
1000
0000
0000
1000
0000
0000
1000
0000
,
0100
0000
0000
0100
0000
0000
0100
0000
0010
0000
0000
0010
0000
0000
0010
0000
,
1001
0000
0001
0010
0100
0010
1000
0100
,
0001
0010
0100
1000
0010
1000
0010
0100
,
0001
0010
0001
1000
0010
0001
0010
1000
,
0100
0001
0010
0001
0100
0001
0100
1000
,
0100
0001
1000
0010
0100
0010
0100
1000
,
0001
0100
1000
0100
0001
0010
0001
0010
,
0100
1000
0100
0010
0100
1000
0001
0100
,
0001
0100
0010
1000
0100
0010
0100
0000
,
1001
0000
0001
0010
0100
0010
1000
0100
,
0001
0010
0100
1000
0010
1000
0010
0100
,
0001
0010
0001
1000
0010
0001
0010
1000
,
0100
0001
0010
0001
0100
0001
0100
1000
,
0100
0001
1000
0010
0100
0010
0100
1000
,
0001
0100
1000
0100
0001
0010
0001
0010
,
0100
1000
0100
0010
0100
1000
0001
0100
,
0001
1000
0100
0010
1000
0100
0010
1000
,
0002
0000
0010
0000
0100
0100
0100
0100
,
0100
0000
0010
0000
1000
1000
1000
1000
,
2003
0000
0100
0000
0010
0010
0010
0010
,
0010
0000
0100
0000
0001
0001
0001
0001
,
3001
0000
0000
0100
0000
0000
0001
0000
2000
0000
0000
0000
3001
0000
0000
0000
,
1000
0000
0000
0100
0000
0000
1000
0000
0002
0000
0000
0000
1003
0000
0000
0000
,
0010
0000
0000
1000
0000
0000
0100
0000
0020
0000
0000
0000
0031
0000
0000
0000
,
0001
0000
0000
0010
0000
0000
0100
0000
2000
0000
0000
0000
3010
0000
0000
0000
,
1001
0000
0000
0000
;
#NOTES:
     dance-single:
     R. McKanna:
     Medium:
     6:
     0.317,0.309,0.144,0,0:
0000
0000
0000
0000
,
0000
0000
0000
0000
,
0000
0000
0000
0000
,
0000
0000
0000
0000
,
1000
0000
1000
0100
1000
0000
0100
0000
,
0001
0000
0001
0010
0001
0000
0010
0000
,
1000
0000
0100
0010
0100
0000
0001
0000
,
1000
0000
0010
0100
0010
0000
0001
0000
,
0010
0000
0010
1000
0010
0000
1000
0000
,
0100
0000
0100
0001
0100
0000
0001
0000
,
0001
0000
0010
0100
0010
0000
1000
0000
,
0001
0000
0100
0010
0100
0000
1000
0000
,
0010
0000
1000
0001
0001
0000
0001
0000
,
0100
0000
0001
1000
1000
0000
1000
0000
,
0010
0000
0100
1000
1000
0000
1000
0000
,
0010
0000
0100
0001
0001
0000
0001
0000
,
1001
0000
0100
0010
1000
0000
0100
0000
,
1001
0000
0010
0100
0001
0000
0100
0000
,
1001
0000
0100
0010
1000
0000
0100
0000
,
0011
0000
0100
0010
1000
0000
0100
0000
,
1100
0000
0010
0100
1000
0000
0100
0000
,
0101
0000
1000
0100
0001
0000
0100
0000
,
1010
0000
0001
0010
1000
0000
0100
0000
,
0101
0000
0010
1000
0100
0000
0100
0000
,
0110
1000
0001
0100
,
1010
0100
0100
0001
,
0101
0100
0010
1000
,
1010
0100
0001
0010
,
1001
0000
0010
1000
0100
0000
0010
0001
,
0100
0000
0010
1000
0100
0000
0010
0001
,
0100
0000
1000
0100
0001
0000
0010
0100
,
1000
0000
0100
0010
0001
0000
0010
0000
,
0110
0000
1000
0100
0001
0000
1000
0010
,
0001
0000
1000
0100
0001
0000
1000
0010
,
0001
0000
0100
0001
0010
0000
1000
0001
,
0100
0000
0001
1000
0010
0000
1000
0000
,
1001
0000
0100
0001
0010
0000
0100
1000
,
0010
0000
0100
0001
0010
0000
0100
1000
,
0010
0000
0001
0010
1000
0000
0100
0010
,
0001
0000
0010
0100
1000
0000
0100
0000
,
0110
0000
0001
0010
1000
0000
0001
0100
,
1000
0000
0001
0010
1000
0000
0001
0100
,
1000
0000
0010
1000
0100
0000
0001
1000
,
0010
0000
1000
0001
0100
0000
0001
0000
,
1000
0000
0100
0000
0001
0001
0001
0000
,
0100
0000
0010
0000
1000
1000
1000
0000
,
0100
0000
0001
0000
0010
0010
0010
0000
,
1000
0000
0100
0000
0100
0100
0100
0000
,
0010
1000
0001
0001
,
0010
0100
0001
0001
,
0010
0100
1000
1000
,
0001
0010
1000
1000
,
1001
0000
0000
0000
;
#NOTES:
     dance-single:
     R. McKanna:
     Easy:
     1:
     0.121,0.154,0.042,0,0:
0000
0000
0000
0000
,
0000
0000
0000
0000
,
0000
0000
0000
0000
,
0000
0000
0000
0000
,
0000
1000
0000
0000
,
0000
0001
0000
0000
,
0000
0100
0000
0000
,
0000
0100
0000
0000
,
0000
0001
0000
0000
,
0000
1000
0000
0000
,
0000
0010
0000
0000
,
0000
0010
0000
0000
,
1000
0000
0000
0000
,
0001
0000
0000
0000
,
1000
0000
0000
0000
,
0001
0000
0000
0000
,
1000
0000
1000
0000
,
0100
0000
0100
0000
,
0001
0000
0001
0000
,
0100
0000
0100
0000
,
1000
0000
1000
0000
,
0010
0000
0010
0000
,
0001
0000
0001
0000
,
0010
0000
0010
0000
,
1001
0000
0000
0000
,
1001
0000
0000
0000
,
1001
0000
0000
0000
,
1001
0000
0000
0000
,
0001
0001
0001
0000
,
0010
0010
0010
0000
,
0100
0100
0100
0000
,
1000
1000
1000
0000
,
0010
0010
0010
0000
,
0100
0100
0100
0000
,
0001
0001
0001
0000
,
0010
0010
0010
0000
,
0001
0001
0001
0000
,
0100
0100
0100
0000
,
0010
0010
0010
0000
,
1000
1000
1000
0000
,
0100
0100
0100
0000
,
0010
0010
0010
0000
,
0001
0001
0001
0000
,
0100
0100
0100
0000
,
0010
0000
1000
0000
,
0100
0100
0100
0000
,
0010
0000
0001
0000
,
0100
0100
0100
0000
,
0001
0000
0000
0000
,
0001
0000
0000
0000
,
1000
0000
0000
0000
,
1000
0000
0000
0000
,
1001
0000
0000
0000
;
#NOTES:
     dance-single:
     M. Puls:
     Challenge:
     9:
     0.600,0.618,0.271,0.178,0.428: // measure 1
0000
0000
0000
0000
,
0000
0000
0000
0000
,
0000
0000
0000
0000
,
0000
0000
0000
0000
,
0000
0000
0000
0000
1000
0000
0001
0000
0100
0010
0000
0000
2000
0000
3002
0000
,
M000
0000
0003
0000
0001
0000
1000
0000
0100
0010
0000
0000
0001
0000
2000
0000
,
000M
0000
3000
0000
0100
0000
0010
0000
0100
1000
0010
0000
0200
0000
0302
0000
,
0M00
0000
0003
0000
0010
0000
0100
0000
1000
0001
0100
0000
0020
0000
2030
0000
,
00M0
0000
3000
0000
0001
0000
1000
0000
0100
0010
0001
0000
0002
0000
0203
0000
,
000M
0000
0300
0000
0010
0000
0100
0000
0001
0010
0100
0000
2000
0000
3020
0000
,
M000
0000
0030
0000
1000
0000
0010
0000
1000
0001
0100
0000
0020
0000
2030
0000
,
00M0
0000
3000
0000
0100
0000
0010
0000
0100
1000
0001
1000
0100
0000
0010
0000
,
1000
0000
0110
0000
0001
0000
1000
0100
1000
0010
0100
0100
0001
0000
0010
0000
,
0001
0000
0110
0000
1000
0000
0001
0010
0001
0100
0100
0000
0001
0000
0010
0000
,
0100
0000
0110
0000
0010
0000
0100
0010
0100
0001
0001
0000
0010
0000
0100
0000
,
1000
0000
0110
0000
0100
0000
0010
1000
0010
0100
0100
0000
0001
0000
0010
0000
,
0100
0000
0000
0001
1000
0100
0010
0000
0001
1000
0001
0000
0002
0000
0000
0000
,
1003
0000
0000
0010
0001
0010
0100
0000
1000
0001
0010
0000
0200
0000
0000
0000
,
0310
0000
0000
0100
0010
0001
1000
0000
0100
0010
0001
0000
1000
0000
0100
0000
,
0010
0000
0000
0001
1000
0000
1000
0000
0001
0100
0010
0000
0100
0000
0000
0000
,
0001
0000
0000
1000
0001
0010
0100
0000
0010
0100
1000
0000
2000
0000
0000
0000
,
3001
0000
0000
0100
1000
0100
0010
0000
0001
1000
0100
0000
0020
0000
0000
0000
,
0130
0000
0000
0010
0001
0100
0010
0000
1000
0100
0000
0000
0001
0000
1000
0000
,
0100
0010
0001
1000
0100
0000
0010
0000
0110
0000
M00M
0000
1MM1
0000
M00M
0000
,
0100
0000
0000
0001
0100
0000
0001
0000
0010
0000
0001
0010
0100
0000
0010
0000
,
1000
0000
0000
1000
0100
0000
1000
0000
0100
0000
1000
0100
0010
0000
0001
0000
,
0100
0000
0000
0100
0010
0000
0100
0001
0100
0000
0001
0000
0010
0100
1000
0000
,
0100
0000
0000
0100
0010
0000
0100
0010
0001
0000
0000
0010
0100
0000
0010
0000
,
1001
0000
0000
0000
0001
0100
0010
0100
0001
0000
0001
0010
0100
1000
0010
1000
,
0100
0010
0001
0100
0001
0000
0001
0010
0100
0000
1100
0000
0010
0000
1000
0100
,
0010
0000
0100
0000
1000
0010
0100
0000
0001
0000
0001
0000
0010
0000
0100
0010
,
0100
0000
0001
0000
1000
0100
0010
0000
1100
0000
0011
0000
1100
0000
0001
0000
,
0100
0010
1000
0000
1000
0000
0010
0100
0001
0000
0001
0000
1000
0001
1000
0000
,
0001
0010
0100
0000
0010
0000
0001
0000
0100
0010
0100
0000
1100
0000
0011
0000
,
0100
1010
0100
1001
0100
0110
0010
0101
,
0010
0000
1001
0000
0010
0000
0101
0000
0010
0100
0010
0000
0110
0000
0000
0000
,
1001
0000
1000
0000
0001
0010
0001
0000
0110
0000
1000
0100
0010
0000
1100
0000
,
1000
0100
1000
0000
0110
0000
0001
0010
0100
0000
0011
0000
1000
0000
0011
0000
,
0001
1100
1000
0100
0010
0001
0010
0100
,
1000
0001
0100
0010
1000
0000
1000
0001
1000
0100
0010
0000
0100
0000
1000
0000
,
0100
0000
0000
0001
1000
0000
0010
0000
0100
0000
0000
1000
0001
0000
1000
0000
,
0001
0010
0100
0000
1000
0000
0100
0010
0001
0000
0010
0000
0001
1000
0010
0000
,
0100
0000
0001
0010
0100
0000
0010
0000
0100
1000
0001
0000
1000
0000
0100
0010
,
0001
0000
1000
0000
0010
1000
0010
0000
1100
0000
0011
0000
0110
0000
1001
0000
,
0001
0000
1000
0000
0010
0010
0010
0000
1000
0000
0001
0000
0100
0010
0100
0000
,
1000
0000
0001
0000
0100
0100
0100
0000
0010
0000
0100
0000
1000
0001
1000
0000
,
0010
0000
0001
0000
0010
0010
0010
0000
1000
0000
0100
0000
0010
0100
0010
0000
,
0001
0000
1000
0000
0100
0100
0100
0000
0100
0000
0010
0000
0001
1000
0001
0000
,
0100
0000
0000
0100
0000
0000
0001
0000
2000
0000
0100
0000
3001
0010
0100
0000
,
1000
0000
0000
0100
0000
0000
1000
0000
0002
0000
0010
0000
1003
0100
0010
0000
,
0001
0000
0000
1000
0000
0000
0100
0000
0020
0000
0100
0000
0130
0001
0100
0000
,
0001
0000
0000
1000
0000
0000
0010
0000
0200
0000
0010
0000
0310
1000
0100
0000
,
1001
0000
1000
0001
0000
0000
0000
0000
,
1000
0000
0001
1000
0000
0000
0000
0000
,
0001
0000
0000
0000
;
#NOTES:
     dance-double:
     M. Emirzian:
     Easy:
     2:
     0.155,0.178,0.025,0.059,0:
00000000
00000000
00000000
00000000
,
00000000
00000000
00000000
00000000
,
00000000
00000000
00000000
00000000
,
00000000
00000000
00000000
00000000
,
10000000
00000000
00100000
00000000
,
02020000
03030000
00001000
00000000
,
00010000
00000000
00000010
00000000
,
00002002
00003003
00000100
00000000
,
00000010
00000000
00022000
00033000
,
00001000
00000000
01000000
00000000
,
00100000
00000000
10000000
01000000
,
00100000
00000000
00001000
00010000
,
00000100
00000000
00000010
00000000
,
00000001
00000000
00000100
00000000
,
00000010
00000000
00010000
00000000
,
00001000
00000000
00000000
01000000
,
00100000
00000000
00000000
10000000
,
00010000
00000000
00000000
00100000
,
00001000
00000000
00000000
00010000
,
00000100
00000000
00000000
00000010
,
00000001
00000000
00000000
00010000
,
00001000
00000000
00000000
10000000
,
00010000
00000000
00000000
00100000
,
00001000
00000000
00010000
00000100
,
00000000
00000010
00000000
00000001
,
00000000
00000100
00000000
00000010
,
00000000
00010000
00000000
00001000
,
00000000
01000000
00000000
00100000
,
10000000
01000000
00100000
00000000
,
00100000
00001000
00010000
00000000
,
00000100
00000010
00000001
00000000
,
00001000
00000100
00010000
00000000
,
00001000
01000000
00100000
00000000
,
10000000
00100000
01000000
00000000
,
00001000
00010000
00000010
00000000
,
00001000
00000100
00000010
00000001
,
00001000
00000000
00000010
00000000
,
00010000
00001000
01000000
00010000
,
10000000
00000000
01000000
00000000
,
00100000
00001000
00010000
00000000
,
00000100
00000000
00000010
00000000
,
00000001
00001000
00000100
00000000
,
00010000
00000000
00001000
00000000
,
01000000
00100000
10000000
00010000
,
01000000
00000000
00001000
00000000
,
00010000
00000000
00000010
00001000
,
00000100
00000000
00000010
00000000
,
00000001
00001000
00000010
00000100
,
00000001
00000000
00000100
00000000
,
00000010
00000000
00010000
00000000
,
00001000
00000000
01000000
00000000
,
00100000
00000000
10000000
00000000
,
02000000
00000000
03000000
00000000
;
#NOTES:
     dance-double:
     M. Emirzian:
     Medium:
     5:
     0.334,0.358,0.161,0.119,0:
00000000
00000000
00000000
00000000
,
00000000
00000000
00000000
00000000
,
00000000
00000000
00000000
00000000
,
00000000
00000000
00000000
00000000
,
10000000
00100000
01000000
00001000
,
00000000
00010000
00000100
00000010
,
00000000
00000001
00000100
00000010
,
00000000
00010000
00001000
00100000
,
00000000
01000000
10000000
20200000
,
30300000
00000000
00100000
00000000
01000000
00010000
01000000
00000000
,
00001000
00010000
00000100
00000010
,
00000000
00000001
00001000
00001002
,
00000100
00000103
00001000
00000100
,
00001000
00010000
00001000
00010000
,
00001000
00010000
01000000
00010000
,
01000000
00000000
10000000
00000000
00100000
01000000
00010000
00000000
,
10020000
00000000
00130000
00000000
01000000
10000000
00010000
00000000
,
02000000
00000000
03001000
00000000
00010000
00000100
00001000
00000000
,
00000020
00000000
00000130
00000000
00000001
00001000
00000100
00000000
,
00020000
00000000
00031000
00000000
00100000
01000000
10000000
00000000
,
00020000
00000000
01030000
00000000
00100000
10000000
01000000
00000000
,
00010000
00000000
01000000
00000000
10000000
01000000
00010000
00001000
,
00000010
00000000
00000001
00000000
00001000
00000010
00000100
00000000
,
00000001
00000100
00001000
00010000
01000000
10000000
00100000
00000000
,
10000000
00100000
00010000
00100000
,
00010000
00001000
00010000
00001000
,
00010000
00001000
00000010
00001000
,
00000010
00000000
00000001
00000000
00000100
00000010
00001000
00000000
,
00001100
00000000
00010100
00000000
00001000
01000000
00001000
00000000
,
00100000
01000000
00100000
00000000
00010000
10000000
00010000
00000000
,
01000000
00001000
01000000
00000000
00001000
00010000
00001000
00000000
,
00000010
00000001
00000100
00000010
00001000
00000001
00000100
00000000
,
00000101
00000000
00001100
00000000
00000100
00000001
00000010
00000100
,
00001000
00000000
00000001
00000100
00001000
00000000
00010000
00100000
,
10000000
00000000
01000000
00100000
01000000
10000000
00100000
00000000
,
01000000
00001000
00010000
00000000
00000100
00000010
00000001
00000000
,
00001000
00000010
00000100
00000000
00001001
00000000
00001100
00000000
,
00010000
00001000
00010000
00100000
00010000
00100000
10000000
00000000
,
11000000
00000000
00110000
00000000
01000000
10000000
00100000
00000000
,
00010000
00001000
00000010
00001000
00000010
00000001
00000100
00000000
,
00000011
00000000
00001100
00000000
00000010
00010000
00000010
00000000
,
00010000
00001000
00010000
00000000
01001000
00000000
00011000
00000000
,
00010000
00100000
10000000
00000000
00100000
01000000
00010000
00000000
,
10000000
01000000
00010000
01000000
00010000
00001000
00010000
00000100
,
00000020
00000000
00000031
00000000
00000100
00000010
00000100
00000000
,
00000002
00000000
00000103
00000000
00001000
00010000
00001000
00000000
,
00200000
00000000
01300000
00000000
10000000
00010000
10000000
00000000
,
00200000
00000000
01300000
00010000
00100000
00001000
00010000
00000000
,
00000100
00001000
00010100
00001000
,
00000001
00000000
00000100
00000000
00000010
00001000
00000010
00000000
,
00010000
00001000
00010000
00000000
00101000
00000000
00011000
00000000
,
01000000
10000000
01000000
00000000
00100000
00001000
00100000
00010000
,
00220000
00000000
00000000
00330000
;
#NOTES:
     dance-double:
     M. Emirzian:
     Hard:
     9:
     0.600,0.582,0.713,0.051,0.246:
00000000
00000000
00000000
00000000
,
00000000
00000000
00000000
00000000
,
00000000
00000000
00000000
00000000
,
00000000
00000000
00000000
00000000
,
00010020
00000000
00001030
00000100
00010000
00011000
00010010
00000000
,
02001000
00000000
03010000
00100000
00001000
00011000
01001000
00000000
,
00100000
10000000
01000000
00100000
00001000
00011000
01001000
00000000
,
00001000
00010000
00000010
00001000
00000100
00000110
00000011
00000000
,
00000120
00000000
00000130
00010000
00001000
00101000
00011000
00000000
,
01200000
00000000
01300000
00001000
00010000
01001000
01100000
00000000
,
01000000
00100000
10000000
01000000
00100000
00011000
01001000
00000000
,
00100000
00001000
00010000
00000100
00000010
00001001
00000011
00000100
,
00001010
00000000
00000010
00001000
00000100
00000010
00000001
00000110
,
00010010
00000000
00000010
00001000
00000100
00000010
00001000
00011000
,
01001000
00000000
00100000
01000000
00010000
00001000
01000000
00100000
,
01001000
00010000
01000000
00010000
00001000
00000010
00000001
00001001
,
00001100
00000000
00000000
00000011
00000000
00000000
00001001
00000000
00000010
00000000
00000100
00000000
00010000
00000000
00000010
00000000
,
00011000
00000000
00000000
01001000
00000000
00000000
10100000
00000000
01000000
00000000
00001000
00000000
00100000
00000000
00001000
00000000
,
00011000
00000000
00000000
00101000
00000000
00000000
00010010
00000000
00001000
00000000
00000100
00000000
00000010
00000000
00000001
00000000
,
00001100
00000000
00000000
00010010
00000000
00000000
00011000
00000000
00100000
00000000
01000000
00000000
10000000
00000000
00100000
00000000
,
01010000
00000000
00000000
01001000
00000000
00000000
00001000
00000000
00010100
00000000
00000000
00001010
00000000
00000000
00000100
00000000
,
00000101
00000000
00000000
00000011
00000000
00000000
00000100
00000000
00010010
00000000
00000000
00011000
00000000
00000000
00100000
00000000
,
10010000
00000000
00000000
11000000
00000000
00000000
10000000
00000000
01000000
00000000
00010000
00000000
00001000
01000000
00100000
00000000
,
00010000
00000000
00001000
00000000
00000010
00000000
00000001
00000000
00001000
00000100
00000010
00000000
00000011
00000000
00000000
00000000
,
00000100
00000001
00000010
00001000
00010000
00000010
00000100
00001000
,
00010000
00100000
00010000
00001000
00100000
01000000
00010000
01000000
,
10000000
00100000
00010000
00001000
01000000
00100000
00010000
00000100
,
00000010
00000000
00000001
00000000
00000010
00000000
00000100
00000000
00010000
00000010
00001000
00000000
00000101
00000000
00000000
00000000
,
00000010
00000000
00001000
00000000
00000100
00000000
00000010
00000000
00000001
00000100
00000010
00000000
00010000
00000000
00001000
00000000
,
00000010
00000100
00001000
00000000
00000010
00000000
00010000
00000000
00001000
01000000
00100000
00000000
10100000
00000000
11000000
00000000
,
00100000
00010000
01000000
00000000
00100000
10000000
01000000
00000000
00100000
00001000
00010000
00000000
00000010
00010000
00001000
00000000
,
00000010
00000100
00001000
00000000
00000001
00000100
00000010
00000000
00010000
00000100
00000010
00000000
00000011
00000000
00000101
00000000
,
00000010
00000000
00010000
00000000
00001000
00000000
00000100
00000000
00001000
00010000
00000010
00000000
00010000
00000000
00001000
00000000
,
00010000
01000000
00100000
00000000
00010000
10000000
00100000
00000000
01000000
00010000
00100000
00000000
11000000
00000000
10100000
00000000
,
01000000
00100000
00001000
00000000
00010000
00000000
00000100
00000000
00010000
00001000
00000010
00000000
00000100
00000000
00001000
00000000
,
00000010
00001000
00000100
00000000
00000010
00000001
00000100
00000000
00000010
00010000
00001000
00000000
01000000
00000000
00001000
00000000
,
00010000
00100000
01000000
00000000
00010000
00000000
10000000
00000000
01000000
00100000
00001000
00000000
00010000
00000000
00000010
00000000
,
00001000
00000100
00000010
00000000
00000001
00000100
00000010
00000000
00010000
00001000
00100000
00000000
01010000
00000000
00110000
00000000
,
01000000
00000000
10000000
00000000
00100000
00000000
00010000
00000000
00001000
00010000
00000010
00000000
00001100
00000000
00001010
00000000
,
00000100
00000001
00000010
00000000
00000100
00001000
00000010
00000000
00010000
00001000
00100000
00000000
01010000
00000000
00110000
00000000
,
01000000
00000000
10000000
00000000
00100000
00000000
01000000
00000000
00100000
00010000
00001000
00000000
00010000
00000000
00000010
00000000
,
00010000
00001000
00000010
00000000
00000100
00001000
00000010
00000000
00000101
00000000
00000011
00000000
00001100
00000000
00010000
00000000
,
00001000
01000000
00100000
00000000
01000000
00000000
00001000
00000000
00010000
00100000
10000000
00000000
00100000
00000000
01000000
00000000
,
00010000
00100000
01000000
00000000
00010000
00001000
00000100
00000000
00001000
00010000
00100000
00010000
00001000
00000100
00001000
00010000
,
00011000
00000000
00001000
00000000
00101000
00000000
00000000
01000000
01010000
00000000
00100000
00000000
10100000
00000000
00000000
00000000
,
01001000
00000000
00100000
00000000
00101000
00000000
00000000
00001000
00011000
00000000
00010000
00000000
00010010
00000000
00001000
00000000
,
00001001
00000000
00000000
00000100
00000010
00000000
00000001
00000000
00000101
00000000
00000100
00000000
00010010
00000000
00000100
00000000
,
00010100
00010000
00101000
00010000
00001000
01001000
01010000
10100000
,
11000000
00010000
00100000
01000000
10000000
00100000
01000000
00001000
,
00010000
00100000
00010000
00001000
00000010
00000100
00010000
00000010
,
00000100
00000001
00000100
00001000
00010000
00000100
00000010
00000001
,
00000010
00000000
00001000
00000000
00010000
00000000
00100000
00000000
01000000
00100000
01000000
00100000
10000000
00010000
00000000
10000000
,
02200000
00010000
00000000
03300000
;
#NOTES:
     dance-double:
     M. Emirzian:
     Challenge:
     10:
     0.760,0.762,0.517,0.017,0.950:
00000000
00000000
00000000
00000000
,
00000000
00000000
00000000
00000000
,
00000000
00000000
00000000
00000000
,
00000000
00000000
00000000
00000000
,
10000000
00000000
01000000
00100000
00000000
01000000
10000000
00000000
00100000
01000000
00000000
00001000
00010000
00000000
00001000
00000000
,
00100000
00000000
00010000
01000000
00000000
00100000
10000000
00000000
01000000
00010000
00000000
00001000
00010000
00000000
00000100
00000000
,
00000010
00000000
00000001
00000100
00000000
00000010
00001000
00000000
00000010
00000100
00000000
00000001
00000010
00000000
00001001
00000000
,
00000010
00001000
00000100
00000000
00000010
00000001
00000100
00000000
00000010
00001000
00000100
00010000
00001000
00000000
01001000
00000000
,
00010000
00000000
00100000
01000000
00000000
00100000
10000000
00000000
00010000
00100000
00000000
01000000
10000000
00000000
01000000
00000000
,
00100000
00000000
00001000
00010000
00000000
01000000
00100000
00000000
00010000
01000000
00000000
00001000
00010000
00000000
00000010
00000000
,
00001000
00000000
00000100
00000010
00000000
00000100
00001000
00000000
00000001
00000100
00000000
00000010
00010000
00000000
00001000
00000000
,
00000100
00000001
00000010
00000000
00000100
00001000
00000010
00000000
00000100
00000001
00000010
00000100
00001000
00000000
00001010
00000000
,
00010010
00001000
00000000
01000000
00000000
00100000
00000000
10000000
01000000
00100000
00000000
00001000
00000000
00000100
00000000
00000001
,
00000010
00000100
00000000
00001000
00000000
00000010
00000000
00010000
00001000
00100000
00000000
00001000
00010000
00000100
00000010
00000001
,
00000000
00000100
00000000
00000010
00000000
00010000
00000000
00100000
10000000
01000000
00000000
00100000
00000000
00001000
00000000
00000100
,
00000001
00000010
00000000
00000100
00000000
00001000
00000001
00000100
00000010
00001000
00000100
00000010
00000001
00001000
00000010
00010000
,
00001000
00010000
00000100
00000000
00011000
00000000
01001000
00000000
01000000
00010000
00100000
00000000
11000000
00000000
10010000
00000000
,
00100000
10000000
01000000
00000000
00110000
00000000
00101000
00000000
00010000
00000100
00001000
00000000
00001010
00000000
00001100
00000000
,
00000100
00000010
00000001
00000000
00001001
00000000
00000010
00001000
00000100
00000010
00000001
00000000
00001100
00000000
00010100
00000000
,
00000100
00001000
00000010
00001000
00000100
00010000
00100000
10000000
00010000
00100000
01000000
10000000
00010000
01000000
00100000
00000000
,
10000000
00000000
01000000
00000000
00010000
00000000
00001000
00000000
00010000
00001000
01000000
00000000
00010000
01000000
00100000
00000000
,
10100000
00000000
11000000
00000000
00100000
00010000
01000000
00000000
00001000
00010000
00000010
00000000
00010000
00001000
01000000
00000000
,
01010000
00000000
01001000
00000000
00010000
00000100
00001000
00000000
00000100
00000010
00000001
00000000
00000100
00000000
00000010
00000000
,
00001000
00000100
00000001
00000100
00001000
00000010
00000100
00001000
00010000
00000000
00101000
00000000
00011000
00000000
00010100
00000000
,
00000000
00010000
00000000
00001000
00000000
00000100
00001000
00000000
00100000
00010000
00000000
01000000
00000000
00100000
10000000
00000000
,
01000000
00100000
00000000
01000000
00000000
10000000
00010000
00000000
01000000
00100000
00000000
00010000
00000000
00001000
00010000
00000000
,
00001000
00000100
00000000
00000001
00000000
00000010
00000100
00000000
00001000
00000010
00000000
00000100
00000000
00000001
00000010
00000000
,
00000100
00010000
00000000
00100000
00000000
10000000
01000000
00000000
00100000
00010000
10000000
00000000
01000000
00100000
00010000
01000000
,
00100000
00000000
10000000
00000000
00010000
10000000
01000000
00100000
00010000
10000000
00100000
01000000
00001000
00010000
01000000
00010000
,
00001000
00010000
00000010
00001000
00000100
00000010
00000001
00001000
00000010
00000100
00000001
00000000
00000011
00000000
00000101
00000000
,
00000010
00001000
00000100
00001000
00000001
00000010
00000100
00010000
00100000
01000000
00010000
00100000
01000000
10000000
00010000
01000000
,
00100000
10000000
01000000
00000000
00100000
00010000
01000000
00000000
00100000
10000000
01000000
00000000
00110000
00000000
00101000
00000000
,
00100000
01000000
00100000
00010000
00000010
00000001
00000100
00001000
00000100
00000001
00000010
00000100
00010000
00001000
00010000
00000010
,
00001000
00000100
00000010
00000001
00000100
00000010
00010000
00100000
10000000
01000000
00100000
00000000
00110000
00000000
01010000
00000000
,
00100000
10000000
01000000
00000000
00110000
00000000
00101000
00000000
00010000
01000000
10000000
00000000
10100000
00000000
11000000
00000000
,
00100000
01000000
00010000
00100000
00001000
00000010
00000100
00001000
00000001
00000100
00000010
00001000
00000100
00000010
00000001
00000000
,
00000100
00000010
00010000
00001000
01000000
00000000
00100000
00000000
10000000
01000000
00100000
00001000
00010000
00000000
01000000
00000000
,
00100000
00001000
00010000
00000000
00001000
00000100
00000010
00000000
00001000
00000100
00000010
00000001
00000100
00000010
00010000
00001000
,
00000100
00001000
00010000
00000000
00010100
00000000
00001100
00000000
00001010
00000000
00010100
00000000
00001000
00100000
00101000
00000000
,
01000000
00000000
10000000
00000000
00100000
01000000
00010000
00100000
01000000
10000000
01000000
00100000
00001000
00010000
00000010
00000000
,
00001000
00000100
00000010
00000000
00000011
00000000
00000101
00000000
00000010
00001000
00000100
00000000
00001010
00000000
00010010
00000000
,
00010000
00001000
00010000
00000010
00001000
00000100
00000010
00000100
00001000
00000001
00000100
00001000
00100000
01000000
10000000
00100000
,
01000000
00010000
10000000
01000000
00100000
00001000
00010000
00000010
00001000
00000001
00000010
00000100
00001000
00000001
00000100
00000010
,
00010000
00001000
01000000
00001000
00010000
00100000
10000000
01000000
00100000
00010000
10000000
00100000
00010000
00001000
00100000
00001000
,
00011000
00000000
00010100
00000000
00001100
00000000
00000100
00000010
00000001
00000100
00000010
00000000
00001010
00000000
00001100
00000000
,
00010100
00000000
00010000
00001000
00010000
00000100
00000010
00000000
00000001
00000100
00000010
00010000
00001000
00000000
00010100
00000000
,
00011000
00000000
01001000
00000000
01000000
00000000
00010000
00100000
01000000
10000000
00100000
00000000
10000000
00000000
01000000
00100000
,
00001000
00010000
00000010
00000000
00010000
00001000
00010000
00000000
00000010
00010000
00000010
00000000
00001000
00000010
00000100
00000000
,
00000011
00000000
00000101
00000000
00000010
00001000
00000100
00000000
00000010
00000001
00000100
00000000
00000011
00000000
00000101
00000000
,
00000010
00001000
00000100
00000000
00010000
00001000
01000000
00000000
00001000
00010000
00100000
00000000
10100000
00000000
11000000
00000000
,
00100000
00010000
01000000
00000000
00100000
00010000
00001000
00000000
00010000
01000000
00100000
00000000
00110000
00000000
01010000
00000000
,
01000000
00001000
00010000
00000000
00001000
00000100
00000010
00000000
00001000
00000100
00000010
00000000
00000011
00000000
00001001
00000000
,
00022000
00000000
01000000
00000000
00000000
00000000
00033000
000MM000
;
