#TITLE:ALL I DO IS WIN;
#SUBTITLE:(REMIX);
#ARTIST:DJ Khaled feat. T-Pain, Diddy, Nicki Minaj, Rick Ross, Busta Rhymes, Fabolous, Jadakiss, Fat Joe, and Swizz Beatz;
#CREDIT:Juub005;
#BANNER:ALL I DO IS WIN (REMIX)-bn.png;
#BACKGROUND:ALL I DO IS WIN (REMIX)-bg.png;
#CDTITLE:.\CDTITLES\VICTORY-cdtitle.png;
#MUSIC:ALL I DO IS WIN (REMIX).mp3;
#OFFSET:-0.083;
#SAMPLESTART:5.74;
#SAMPLELENGTH:12.44;
#BPMS:0=75,20=18.75,21=75,91=37.5,92=75,112=18.75,113=75;
#BGCHANGES:-1=All I Do Is Win (Remix).avi=1=1=1=0,128.25=ALL I DO IS WIN (REMIX)-bg.png=1=1=0=1;

//---------------dance-single - ----------------
#NOTES:
     dance-single:
     :
     Hard:
     9:
     0.467,0.527,0.521,0.132,0.397: // measure 1
0000
0000
0000
0000
,  // measure 2
0000
0000
0000
0000
,  // measure 3
1010
1010
0101
1010
1100
0000
0010
0001
,  // measure 4
0010
0000
0110
0000
0110
0000
1100
0000
1001
0000
0000
0000
0010
0000
0100
0001
,  // measure 5
0100
0000
0010
1000
0001
0000
1000
0000
0010
1000
0100
0000
0010
0000
0002
0000
,  // measure 6
0013
0000
0000
0000
0011
0000
0001
1000
0010
0000
0110
0000
1001
0000
0010
0001
,  // measure 7
1000
1010
0101
0011
1100
0011
0101
0000
,  // measure 8
0010
0000
0010
0000
0020
0000
1030
0000
2000
0000
3001
0000
0020
0000
0031
1000
,  // measure 9
0001
1000
0010
0100
0001
0000
0010
0001
0100
0000
0001
1000
0010
0000
0100
0010
,  // measure 10
1000
0200
0000
0000
0310
0000
0000
0001
1000
0000
1000
0000
0010
0000
0000
1000
,  // measure 11
0001
0000
0100
0000
0010
0000
0000
1000
0100
0000
0001
0000
2000
0000
0000
0000
,  // measure 12
0000
0000
3010
0000
0101
1100
0010
0000
,  // measure 13
1100
0101
0010
1000
0100
0001
1000
0010
,  // measure 14
0200
0020
0000
0300
0030
0000
0001
0000
0110
0000
1100
0000
0001
0100
0001
0100
,  // measure 15
0001
0100
0001
0000
1000
0000
1000
0000
0110
0000
1010
0000
0010
0100
0010
0100
,  // measure 16
0010
0100
0010
0000
0000
0000
1000
0001
0010
0001
2000
0000
0000
0000
3001
1000
,  // measure 17
0010
1000
0001
0000
0100
0000
1010
0000
1100
0000
0011
0000
0101
0000
0001
1000
,  // measure 18
0001
1000
0010
0000
0000
0000
0000
0000
0000
0000
0000
0000
0001
0100
0001
0100
,  // measure 19
0001
0010
0001
0010
0100
1000
0010
0100
0001
1000
0001
0100
0010
1000
0010
0100
,  // measure 20
0010
0100
0010
0100
0010
0100
0010
0100
0000
0000
0001
0000
1000
0000
0000
0000
0000
0000
0100
0000
0010
0000
0000
0000
0100
0000
1000
0000
0010
0000
1000
0000
,  // measure 21
0100
0010
0001
0010
1000
0010
0001
0100
0001
0010
0100
1000
0010
0100
0010
1000
,  // measure 22
0001
0010
0001
0010
0001
0010
0001
0010
0000
0000
0001
0000
0100
0000
0001
0000
0010
0000
0100
0000
1000
0000
1010
0000
1000
0000
0100
0000
0010
0000
0001
0000
,  // measure 23
0100
0001
0010
0011
1000
0001
1000
0010
0100
0000
0000
0000
MMMM
0000
MMMM
0000
,  // measure 24
0110
0000
1000
0001
0100
0001
1000
0000
0011
0000
1000
0100
1000
0010
1000
0000
,  // measure 25
0011
0000
1100
0001
0100
0000
1001
0000
0110
0000
0000
0000
0000
0000
0000
0000
,  // measure 26
0101
0101
1010
0101
0011
0000
0100
1000
,  // measure 27
0001
0000
0101
0000
0101
0000
1100
0000
0101
0000
0000
0000
1000
0000
0010
0100
,  // measure 28
0010
0000
1000
0100
0010
0000
0001
0000
0100
0010
0100
0000
0001
0000
2000
0000
,  // measure 29
3010
0000
0000
0000
0101
0000
0001
1000
0010
0000
0110
0000
1001
0000
0010
0001
,  // measure 30
1000
1010
0101
0011
1100
1010
1100
0000
,  // measure 31
0010
0000
0001
0000
2001
0000
3010
0000
1020
0000
0130
0000
0102
0000
0003
0010
,  // measure 32
0001
0000
0001
0100
0001
0010
0100
1000
0010
0001
0010
1000
0001
0000
0010
0001
,  // measure 33
0200
0020
0000
0000
0330
0000
0000
0000
0000
0000
0000
0000
0000
0000
0000
0000
;

//---------------dance-single - ----------------
#NOTES:
     dance-single:
     :
     Challenge:
     10:
     0.584,0.869,0.503,0.088,0.790:
0000
0000
0000
0000
,
0000
0000
0000
0000
,
0011
0000
0011
0000
1010
0000
0011
0000
1001
0000
0010
0100
0001
1000
0001
0100
,
0010
0000
0100
0010
1000
0001
1000
0000
0100
0000
0010
0001
0010
0001
1000
0010
,
0100
0000
0001
0010
0100
0000
1100
0000
0010
0000
0001
1000
0001
0000
0200
0000
,
0310
0000
0000
0000
0011
0000
0100
0001
0010
0000
0011
0000
1010
0000
0100
1000
,
0010
0000
1010
0000
0101
0000
0011
0000
0101
0000
1010
0000
1100
0000
0010
0100
,
1000
0100
0010
0001
1000
0000
0101
0000
0010
0000
0101
0000
0001
0000
0101
0001
,
1000
0001
0010
0001
1000
0000
0100
0010
0100
0000
1000
0001
1000
0000
0010
0001
,
1000
0001
0000
0000
0011
0000
0000
1000
0010
0000
0011
0000
1100
0000
0000
0001
,
0010
0000
1010
0000
0101
0000
0000
0010
0100
0000
0110
0000
2000
0000
0000
0000
,
0000
0000
0000
0000
3010
0000
0000
0100
1000
0000
0002
0000
0013
0000
0000
0001
,
0100
0000
2000
0000
3010
0000
0100
0000
0001
0000
1000
0100
0000
1000
0001
0000
,
0020
0002
0000
0030
0003
0000
0010
0100
1000
0001
0100
0000
0001
0100
0001
0010
,
0100
1000
0001
0000
1000
0001
1000
1000
0100
0010
0001
0000
0100
0100
0100
0010
,
0100
0010
0110
0000
0010
0000
1000
0001
0100
0001
1001
0000
0010
0001
0001
1000
,
0100
0010
1100
0000
0010
0000
0110
0000
1100
0000
0101
0000
1100
0000
0010
0001
,
0000
0000
0100
0000
0010
0000
0000
0000
2000
0000
0000
0000
0000
0000
0000
0000
3000
0000
0000
0000
0000
0000
0000
0000
0001
0100
0001
0100
0001
0100
0001
0100
,
0010
1000
0010
1000
0010
0100
0010
0100
0001
1000
0001
1000
0001
1000
0001
1000
0100
1000
0100
1000
0100
0010
0100
0010
0001
0010
0001
0010
0001
0010
0001
0010
,
0100
1000
0100
1000
0001
0010
0001
0010
0000
0000
0100
0000
1000
0000
0000
0000
0000
0000
0001
0000
0010
0000
0000
0000
0100
1000
0100
1000
0010
1000
0010
0100
,
0001
0100
0001
0100
0010
1000
0010
1000
0001
0010
0001
0010
0001
1000
0001
1000
0010
1000
0010
1000
0001
0100
0001
0100
0010
1000
0001
0100
0001
1000
0100
0010
,
0001
1000
0001
1000
0001
0100
0001
0100
0000
0010
1000
0001
0010
0100
0010
0100
1000
0001
1000
0001
0100
0000
1010
0000
0001
0000
1000
0000
0001
0010
0100
1000
,
0001
0010
0100
1000
0010
0000
1001
0000
0100
0000
0100
0000
0100
0000
0100
0000
0100
0000
0000
0000
0100
0000
0000
0000
M1MM
0000
0000
0000
MMMM
0000
0000
0000
,
1100
0000
0001
0100
0001
1000
0100
0000
0110
0000
0001
0010
0100
1000
0010
1000
,
0100
1000
0001
0010
0100
0010
0001
0100
0010
0000
0100
0000
0001
0000
1000
0000
0010
0000
0000
0000
0101
0000
0000
0000
0000
0000
0000
0000
0000
0000
0000
0000
,
1010
0000
1010
0000
0011
0000
1001
0000
0110
0000
0001
0010
1000
0001
0010
0001
,
1000
0000
0100
1000
0001
0000
0101
0000
1100
0000
0010
0100
0010
1000
0100
1000
,
0010
0000
0100
0001
1000
0100
1000
0000
0001
0010
0001
1000
1010
0000
0201
0000
,
0310
0000
0000
0000
0101
0000
1000
0001
0100
0000
1100
0000
1010
0000
1000
0100
,
0010
0000
0011
0000
0101
0000
1010
0000
1100
0000
0011
0000
1100
0000
0001
1000
,
0001
0010
0100
1000
0010
0000
0110
0000
1000
0000
0110
0000
0001
0000
0110
0010
,
1000
0100
0001
0100
1000
0000
0001
0010
1000
0000
0010
0001
1000
0010
0100
0010
,
2000
0002
0000
0000
3003
0000
0000
0000
0000
0000
0000
0000
0000
0000
0000
0000
;

//---------------dance-single - ----------------
#NOTES:
     dance-single:
     :
     Beginner:
     1:
     0.097,0.099,0,0.018,0:
0000
0000
0000
0000
,
0000
0000
0000
0000
,
1000
0000
0010
0000
,
0010
0000
1000
0000
,
0001
0000
0001
0000
,
0010
0010
0010
0010
,
0000
0100
0100
0100
,
0000
1000
1000
1000
,
0000
0001
0001
0001
,
0000
0010
0000
0100
,
0000
0010
0000
0002
,
0003
0010
0000
0010
,
0000
0100
0100
0100
,
0000
1000
0000
0010
,
0000
0100
0000
0001
,
0000
1000
0000
1000
,
0000
0010
0010
0010
,
0000
0200
0000
0300
,
0000
0001
0001
0001
,
0001
0000
0000
1000
,
0000
0010
0000
0100
,
0100
0100
0000
0010
,
0000
1000
0000
0000
,
0001
0000
0010
0000
,
0100
0100
0100
0000
,
1000
1000
1000
0000
,
0001
0001
0001
0000
,
0100
0000
0100
0000
,
0010
0010
0000
0010
,
0000
0100
0100
0100
,
0000
0001
0001
0001
,
0000
0010
0010
0010
,
0010
0000
0000
0000
;

//---------------dance-single - ----------------
#NOTES:
     dance-single:
     :
     Easy:
     1:
     0.135,0.155,0.053,0.026,0:
0000
0000
0000
0000
,
0000
0000
0000
0000
,
1000
0001
0001
0000
,
0100
0100
0100
0000
,
0010
0000
1000
0100
,
0010
0001
0001
1000
,
0010
0100
0010
0100
,
0000
1001
1001
0110
,
0001
0010
0010
0010
,
0000
0100
0000
0010
,
0000
0001
0000
0200
,
0000
0310
1000
0010
,
0100
0010
1000
0100
,
0020
0030
0000
0001
,
0001
1000
0000
0100
,
0100
1000
0000
0010
,
0000
0100
0100
0100
,
0000
0020
0000
0130
,
0001
1000
0100
1000
,
0001
0010
0000
0100
,
0100
0001
1000
0010
,
0100
0001
0001
1000
,
1000
0010
1000
0001
,
1001
0000
0110
0000
,
0010
1000
0100
0000
,
0010
0010
0001
0000
,
0100
0100
0100
0000
,
0010
1000
0001
0100
,
0010
0010
0010
0010
,
0010
0100
0010
0100
,
0000
0001
0010
0010
,
0001
1000
0100
0010
,
1001
0000
0000
0000
;

//---------------dance-single - ----------------
#NOTES:
     dance-single:
     :
     Medium:
     6:
     0.304,0.327,0.247,0.035,0.071:
0000
0000
0000
0000
,
0000
0000
0000
0000
,
1000
1000
1000
1000
1000
0000
0010
1000
,
0001
0000
0011
0001
1000
0000
0010
0100
,
0010
1000
0100
0010
0001
0100
0010
1000
,
0110
0000
1010
0010
1010
0000
0101
0100
,
0001
0010
0100
0010
0100
0010
0100
0000
,
1000
0001
0101
0101
0101
0101
0101
0000
,
0010
1000
0001
0010
0010
0010
0001
1000
,
0001
0100
0000
0000
0010
0000
0000
0000
1000
0000
0100
0000
0010
0000
0000
0000
,
0001
1000
0010
0000
1010
0001
0200
0000
,
0000
0000
0310
0000
1001
0100
0010
0000
,
1001
0100
0010
1000
0001
0010
0001
0000
,
1000
0002
0000
0000
0003
0000
0010
0000
0010
0000
0100
0000
0010
0001
0100
0000
,
0010
0000
0010
0000
0100
0000
0100
0000
0100
0000
0010
0000
0010
1000
0100
0000
,
0010
0001
1000
0001
0101
0000
1001
0100
,
1000
0010
0100
0010
,
0100
0000
0000
0000
0001
0000
0000
0000
0000
0000
0000
0000
1000
0001
1000
0000
,
0001
0000
0001
0000
0010
0001
0010
0000
0100
0000
0100
0000
1000
0010
1000
0000
,
0001
0100
0001
0100
0000
0000
0000
0000
0000
0000
0000
0000
0010
1000
0010
0000
,
0100
0000
0100
0000
0001
0010
0001
0000
1000
0010
1000
0000
0010
0100
0010
0000
,
0100
0100
0000
0000
0001
1000
0100
0000
,
0010
0001
0100
0010
1001
0100
0010
0000
,
0100
0000
0010
0101
1000
0000
0100
1001
,
0010
0001
0100
1000
0010
0000
0000
0000
,
0100
0100
0100
0100
0100
0000
0001
1000
,
0100
0000
1100
0010
0100
0000
0001
0010
,
0100
0000
0010
0000
0001
0000
0100
0000
0010
1000
0010
0000
0100
0000
0001
0000
,
0010
0000
1001
0100
1001
0000
0110
0001
,
1000
0100
0010
0100
0010
0100
0010
0000
,
0001
0100
1010
1010
1010
1010
1010
0000
,
0100
0000
0001
0000
0010
0000
0100
0000
1000
0000
0001
0000
1001
0000
0010
0100
,
0020
0200
0030
0300
0000
0000
0000
0000
0000
0000
0000
0000
0000
0000
0000
0000
;

//---------------dance-double - ----------------
#NOTES:
     dance-double:
     :
     Hard:
     9:
     0.453,0.527,0.433,0.088,0.411: // measure 1
00000000
00000000
00000000
00000000
,  // measure 2
00000000
00000000
00000000
00000000
,  // measure 3
00011000
00000000
00101000
00000000
00011000
00000000
00000010
00000000
00001000
00000000
00000000
00000000
00000010
00000000
00000100
00001000
,  // measure 4
00000100
00000000
00010000
00000000
01000000
00000000
01100000
00000000
01100000
00000000
00000000
00000000
00100000
00000000
10000000
00010000
,  // measure 5
00100000
00000000
00010000
01000000
00001000
00000000
00010000
00000000
00001000
00100000
00001000
00000000
00010000
00000000
00000200
00000000
,  // measure 6
00000310
00000000
00000000
00000000
00000011
00000000
00001000
00000010
00001000
00000000
00001100
00000000
00011000
00000000
00001000
00100000
,  // measure 7
00001000
00110000
11000000
10100000
11000000
00101000
01010000
00000000
,  // measure 8
00100000
00000000
00001000
00000000
00011000
00000000
00000010
00000000
00001010
00000000
00000001
00000000
00000101
00000000
00000000
00000010
,  // measure 9
00001000
00000000
00000010
00000100
00000001
00000000
00000010
00000001
00001000
00000000
00000100
00001000
00000010
00000000
00000100
00001000
,  // measure 10
00010000
00002000
00000000
00000000
00013000
00000000
00000000
01000000
10000000
00000000
00010000
00000000
01000000
00000000
00000000
01000000
,  // measure 11
00100000
00000000
00010000
00000000
00001000
00000000
00000000
00001000
00100000
00000000
00100000
00000000
02000000
00000000
00000000
00000000
,  // measure 12
00000000
00000000
03100000
00000000
00110000
00011000
00000010
00000000
,  // measure 13
00001010
00011000
00100000
00001000
01000000
00001000
00100000
01000000
,  // measure 14
20000000
00020000
00000000
30000000
00130000
00001000
00010000
00001000
00100000
00000000
00110000
00000000
00010000
01000000
00001000
00010000
,  // measure 15
00001000
00000000
00011000
00000000
00000010
00001000
00000010
00000100
00001000
00000000
00000110
00000000
00000001
00000100
00000001
00000000
,  // measure 16
00000001
00000000
00000001
00000000
00000000
00000000
00001000
00000010
00000100
00000010
00002000
00000000
00000000
00000000
00003010
00010000
,  // measure 17
00001000
00010000
00001000
00000000
00100000
00000000
00011000
00000000
00001000
00000000
00011000
00000000
01000000
00000000
00100000
01000000
,  // measure 18
00010000
10000000
02000000
00000000
00000000
00000000
03000000
00000000
00000000
00000000
00000000
00000000
00100000
00010000
00100000
00010000
,  // measure 19
01000000
00001000
01000000
00001000
00010000
00001000
00010000
00001000
00010000
00001000
00010000
00001000
00010000
00001000
00010000
00001000
,  // measure 20
00001000
00010000
00001000
00010000
00001000
00010000
00001000
00010000
00000000
00000000
00000010
00000000
00000100
00000000
00000000
00000000
00000000
00000000
00000001
00000000
00001000
00000000
00000000
00000000
00000100
00000000
00000010
00000000
00000001
00000000
00000100
00000000
,  // measure 21
00000010
00001000
00000001
00000100
00001000
00010000
00001000
00100000
00010000
01000000
00100000
10000000
00010000
00100000
01000000
10000000
,  // measure 22
00100000
01000000
00100000
01000000
00100000
01000000
00100000
01000000
00000000
00000000
00010000
00000000
00100000
00000000
00010000
00000000
01000000
00000000
00001000
00000000
00010000
00000000
00011000
00000000
00001000
00000000
00010000
00000000
00000010
00000000
00000100
00000000
,  // measure 23
00000010
00001000
00000100
00000110
00000001
00001000
00000001
00000010
00000100
00000000
00000000
00000000
00000000
00000000
00000000
00000000
,  // measure 24
00011000
00000000
00001000
00100000
00010000
01000000
00100000
00000000
10010000
00000000
00100000
01000000
10000000
00100000
01000000
00000000
,  // measure 25
00010000
00000000
00100000
00001000
00010000
00000000
01001000
00000000
00011000
00000000
00000000
00000000
00000000
00000000
00000000
00000000
,  // measure 26
00011000
00000000
00010100
00000000
00011000
00000000
01000000
00000000
00010000
00000000
00000000
00000000
01000000
00000000
00100000
00010000
,  // measure 27
00100000
00000000
00001000
00000000
00000010
00000000
00000110
00000000
00000110
00000000
00000000
00000000
00000100
00000000
00000001
00001000
,  // measure 28
00000010
00000000
00001000
00000100
00000010
00000000
00001000
00000000
00010000
00001000
01000000
00000000
10000000
00000000
00020000
00000000
,  // measure 29
00130000
00000000
00000000
00000000
01100000
00000000
00010000
10000000
00010000
00000000
00110000
00000000
01010000
00000000
00001000
00010000
,  // measure 30
00001000
00010010
00001100
00001010
00001100
00001010
00000101
00000000
,  // measure 31
00000010
00000000
00001000
00000000
00001001
00000000
00010000
00000000
00011000
00000000
00100000
00000000
10010000
00000000
00100000
10000000
,  // measure 32
00010000
00000000
00100000
00010000
00100000
01000000
00010000
00001000
00000100
00000001
00000010
00000100
00001000
00000010
00000100
00001000
,  // measure 33
00020000
02000000
00000000
00000000
03030000
00000000
00000000
00000000
00000000
00000000
00000000
00000000
00000000
00000000
00000000
00000000
;
