#TITLE:KILL THE NOISE;
#SUBTITLE:Part I;
#ARTIST:KILL THE NOISE;
#BANNER:KTN-bn.png;
#BACKGROUND:KTN-bg.png;
#MUSIC:KILL THE NOISE Part I.ogg;
#OFFSET:-0.023;
#SAMPLESTART:27.43;
#SAMPLELENGTH:12;
#BPMS:0=70,30=140,146=70,172=140;
#BGCHANGES:0.25=Kill The Noise - Kill the Noise Pt. I.avi=1=1=0=1,82=Kill The Noise - Kill the Noise Pt. I.avi=1.6=0=0=1,83=Kill The Noise - Kill the Noise Pt. I.avi=1=0=0=1,999=-=1=1=0=1;

//---------------dance-single - ----------------
#NOTES:
     dance-single:
     :
     Hard:
     9:
     0.405,0.568,0.344,0.308,0.172: // measure 1
0000
0000
0000
0000
,  // measure 2
0000
0000
0000
0000
,  // measure 3
0000
0000
0000
0000
,  // measure 4
0000
0000
0000
0000
,  // measure 5
0001
1000
0001
1000
0001
1000
0001
1000
0001
1000
0001
1000
0001
1000
0001
1000
0001
0000
0000
0000
0000
0000
0000
0000
0000
0000
0000
0000
1000
0000
0100
1000
,  // measure 6
0100
0000
0000
0000
0000
0000
0000
0000
0000
0000
0000
0000
0010
0000
0001
0100
0001
0100
0001
0100
0001
0000
0000
0000
0000
0000
0000
0000
0000
0000
0000
0000
,  // measure 7
0001
0000
0000
0000
0000
0000
0000
0000
1000
0001
1000
0001
1000
0001
1000
0001
1000
0000
0000
0000
0000
0000
0000
0000
0000
0000
0000
0000
0000
0000
0000
0000
,  // measure 8
0010
0000
0000
0000
0000
0000
0000
0000
0000
0000
0000
0000
0100
0010
0100
0010
0000
0000
0000
0000
0000
0000
0000
0000
0000
0000
0000
0000
0000
0000
0000
0000
,  // measure 9
0000
0110
2002
3003
,  // measure 10
1001
0000
0000
0000
0110
0000
0000
0000
1000
0001
1000
0001
1000
0000
0000
0000
,  // measure 11
0010
0100
0000
0100
0002
0000
0013
0000
,  // measure 12
1000
1100
0000
0001
0101
0000
1000
1010
,  // measure 13
0010
0001
0010
0010
1000
0000
1100
0000
,  // measure 14
0011
1000
0000
1010
0001
0000
0101
1000
,  // measure 15
0000
1100
0001
0001
0020
0000
0130
0000
,  // measure 16
0001
0002
0003
1000
2000
3000
0010
0020
,  // measure 17
0030
0100
0100
0000
0220
0000
0330
0000
,  // measure 18
0101
0110
0000
0110
1010
0000
1010
1001
,  // measure 19
0000
1001
0011
0000
0110
1000
0002
0000
,  // measure 20
1003
0100
0000
0001
0010
0000
0001
0100
,  // measure 21
0000
1000
0010
0000
0220
0000
0330
0000
,  // measure 22
1000
2000
0000
3001
0002
0000
0013
0020
,  // measure 23
0000
0130
0100
0100
2001
0000
3010
0000
,  // measure 24
0001
0100
1000
0100
0001
0000
0011
0000
,  // measure 25
1000
0100
1000
0000
1010
0000
0000
0000
0202
0000
0000
0000
0300
0000
0000
0000
,  // measure 26
1003
0100
0010
0001
0100
1000
0100
0010
,  // measure 27
1000
0100
0001
0100
0010
0010
0110
0000
,  // measure 28
2002
0000
0000
0000
3003
0000
0000
0000
0010
0000
1000
0000
0000
0001
0100
0001
,  // measure 29
0100
0100
0010
0000
2200
0000
0300
0000
,  // measure 30
3001
0010
1000
0010
0100
1000
0001
0100
,  // measure 31
0010
0001
0010
0100
0001
0001
1002
0000
,  // measure 32
0013
0000
0001
0000
0000
0000
1000
0100
1000
0001
1000
0010
1000
0100
1000
0001
,  // measure 33
1000
1000
1001
0000
0220
0000
0030
0000
,  // measure 34
0301
0100
1000
0001
0010
0001
1000
0010
,  // measure 35
0100
1000
0100
0001
1000
1000
1001
0000
,  // measure 36
0220
0000
0000
0000
0330
0000
0000
0000
0010
0000
0010
0000
0001
0000
1000
0010
,  // measure 37
1000
0010
0100
0000
2020
0000
0000
3030
,  // measure 38
0022
0000
0000
0033
2002
0000
0000
0000
,  // measure 39
0000
0000
0000
3003
0110
1000
0010
0001
,  // measure 40
0010
1000
0010
0001
0010
1000
0010
0001
,  // measure 41
0010
1000
0010
0100
0001
0010
1000
0010
,  // measure 42
0001
0010
1000
0010
0100
1000
0010
0100
,  // measure 43
0001
0010
0100
2000
0002
0000
0000
0000
,  // measure 44
3003
0000
0000
0000
;

//---------------dance-single - ----------------
#NOTES:
     dance-single:
     :
     Medium:
     6:
     0.256,0.322,0.097,0.344,0:
0000
0000
0000
0000
,
0000
0000
0000
0000
,
0200
0000
0300
0000
,
0020
0000
0030
0000
,
2002
0000
3003
0000
,
0200
0300
0020
0030
,
0002
0000
0003
0000
,
2000
0000
0000
3000
0000
0000
0000
0000
,
0000
0000
0110
0000
,
1001
0000
1100
0000
0001
1000
0100
0000
,
0001
1000
0100
0000
0010
0000
0001
0000
,
0100
0000
0000
1000
0000
0000
0010
0000
,
0000
0001
0000
0000
1000
0000
1000
0000
,
0001
0100
0000
0100
0001
0000
0001
0010
,
0000
0010
0001
0000
1000
0000
0100
0000
,
0010
0001
0100
0000
0010
0001
0100
0000
,
0010
0001
0100
0000
2002
0000
3003
0000
,
0010
1000
0000
1000
0100
0000
0100
1000
,
0000
1000
0001
0000
0110
0000
2002
0000
,
3003
0010
0000
0000
0001
0000
0000
0100
,
0000
1000
0220
0330
,
1000
0100
0000
0001
0100
0000
1000
0100
,
0000
0001
0100
0000
2002
0000
3003
0000
,
0010
0100
0000
0100
0020
0000
2030
0000
,
3002
0023
0230
0000
,
1300
0100
0001
0010
,
0001
0000
0100
0000
0010
0010
0100
0000
,
2000
3000
0002
0003
,
0020
0030
2002
0003
,
3001
0010
0100
1000
,
0010
0001
2000
3000
,
0020
0000
0030
0000
0100
0100
0100
0100
,
0100
0100
0200
0000
0320
0000
0000
0000
,
1030
0100
0001
0010
,
0001
1000
0200
0300
,
0020
0000
0030
0000
0002
1000
1003
0000
,
0220
0330
0002
0003
,
2000
3000
0200
0000
,
0000
0000
0000
0000
0310
0001
0010
0001
,
0010
0001
0010
0001
1000
0010
1000
0010
,
1000
0010
1000
0010
0100
0001
0100
0001
,
0100
0001
0100
0001
1000
0100
0010
0001
,
1000
0010
0100
0001
0020
0000
0000
0000
,
0030
0000
0000
0000
;

//---------------dance-single - ----------------
#NOTES:
     dance-single:
     :
     Easy:
     3:
     0.200,0.303,0.141,0.185,0:
0000
0000
0000
0000
,
0000
0000
0000
0000
,
0000
0000
0000
0000
,
0000
0000
0000
0000
,
0020
0000
0030
0000
,
0001
0000
1000
0000
,
0020
0000
0030
0000
,
0100
0000
0000
0000
,
0000
0000
1001
0000
,
0110
0011
1000
0100
,
1000
0100
0001
0100
,
1000
0010
1000
0010
,
1000
0010
0110
0110
,
0001
0100
1000
0100
,
0001
0010
0220
0330
,
2002
3003
1001
1001
,
2002
3003
0220
0330
,
0010
1000
0001
0100
,
0001
0010
0100
0100
,
1000
0001
0010
1000
,
0010
0001
0200
0300
,
0100
0010
1000
0100
,
0001
0010
0100
0100
,
1000
0010
0001
0100
,
1000
0001
2002
0000
,
3003
0000
1000
0010
,
0100
0001
0010
0010
,
0100
0100
1000
0001
,
0010
1000
2002
0000
,
3003
0000
0010
0100
,
0001
1000
0100
0100
,
0010
0010
0001
0100
,
0001
1000
0220
0000
,
0330
0000
1000
0010
,
0100
0001
0010
0010
,
0001
1000
0100
1100
,
0100
1100
0002
0003
,
2000
3000
0020
0000
,
0000
0000
0130
0100
,
0100
0100
0010
0010
,
0010
0010
1000
0001
,
0010
0100
1000
1000
,
0001
0001
0200
0000
,
0300
0000
0000
0000
;

//---------------dance-single - Copied from----------------
#NOTES:
     dance-single:
     :
     Beginner:
     1:
     0.099,0.133,0.062,0.167,0:
0000
0000
0000
0000
,
0000
0000
0000
0000
,
0000
0000
0000
0000
,
0000
0000
0000
0000
,
0200
0000
0300
0000
,
0000
0000
0000
0000
,
2002
0000
0000
0000
,
3003
0000
0000
0000
,
0000
0100
0010
0000
,
1000
0000
1000
0000
,
1000
0000
0001
0000
,
0001
0000
0010
0000
,
1000
0000
0001
0000
,
0110
0000
0001
0000
,
0100
0000
0010
0000
,
0010
0000
1000
0000
,
1000
0000
0220
0000
,
0000
0030
0000
0000
0300
0000
0000
0000
,
0000
0000
0001
0000
,
0001
0000
1000
0000
,
1000
0000
0000
0000
2002
0000
0000
3000
,
0000
0003
0000
0000
,
0000
0000
1000
0000
,
1000
0000
0100
0000
,
0100
0000
2002
0000
,
3000
0003
0000
0000
,
0000
0000
1000
0000
,
1000
0000
0001
0000
,
0001
0000
0220
0000
,
0030
0300
0000
0000
,
0000
0000
0001
0000
,
0010
0000
0100
0000
,
1000
0000
0220
0000
,
0030
0300
0000
0000
,
0000
0000
0001
0000
,
0001
0000
1000
0000
,
1000
0000
0020
0030
,
0200
0300
0020
0000
,
0030
0000
2000
0000
,
0000
3000
0002
0000
,
0000
0003
0020
0000
,
0000
0000
0100
0000
,
0100
0000
0100
0000
,
0030
0000
0000
0000
;
