#TITLE:Complicated;
#ARTIST:Nancy & The Boys;
#BANNER:complicated.png;
#BACKGROUND:complicated-bg.png;
#CDTITLE:.\CDTITLES\speed.png;
#MUSIC:complicated.mp3;
#OFFSET:-1.706;
#SAMPLESTART:58.87;
#SAMPLELENGTH:12;
#BPMS:0=170.015;
#BGCHANGES:0=Complicated.AVI=0=1=1=0,0.4=Complicated.AVI=2.125=0=0=1,999=-=1=0=0=0;

//---------------dance-single - ----------------
#NOTES:
     dance-single:
     :
     Easy:
     2:
     0.172,0.207,0.010,0.030,0:
0100
0000
0000
0000
,
0000
0000
0000
0000
,
0010
0000
0000
0000
,
1000
0000
0001
0000
,
1000
0000
0000
0000
,
0100
0000
0000
0000
,
0010
0000
0000
0000
,
1000
0000
0000
0000
,
0001
0000
0000
0000
,
0010
0000
0000
0000
,
1000
0000
0000
0000
,
0100
0000
0000
0000
,
0010
0000
0000
0000
,
1000
0000
0000
0000
,
0001
0000
0000
0000
,
0010
0000
0000
0000
,
1000
0000
0001
0000
,
0100
0000
0010
0000
,
1000
0000
1000
0000
,
0001
0000
0000
0000
,
1000
0100
0001
0000
,
0010
0000
1000
0000
,
0010
0100
1000
0000
,
0001
0000
1000
0100
,
0000
0000
0000
0000
,
1000
0000
0100
0000
,
0001
0000
1000
0000
,
0010
0000
1000
1000
,
0002
0000
0000
0000
,
1003
0000
0000
0000
,
0010
0000
0000
0000
,
0100
0000
0000
0000
,
1000
0000
0001
0000
,
0010
0000
0000
0000
,
0100
0000
0000
0000
,
1000
0000
0000
0000
,
1000
0000
0100
0000
,
0001
0010
0100
0000
,
1000
0000
0001
0000
,
0100
1000
0100
0000
,
0001
0000
0010
0000
,
1000
0100
0001
0000
,
0010
0000
1000
0000
,
1000
0001
0010
0000
,
1000
0000
0100
0000
,
0001
0000
1000
0000
,
0010
0000
1000
0000
,
0100
0001
0100
0000
,
1000
0000
0010
0000
,
0100
0000
0000
0000
,
1000
0000
0000
0000
,
0001
0000
0000
0000
,
0010
0000
0000
0000
,
2002
0000
0000
0000
,
3003
0000
0000
0000
,
1000
0000
0000
0000
,
0001
0000
0000
0000
,
0010
0000
1000
0000
,
0100
0001
0100
0000
,
1000
0000
0010
0000
,
1000
0010
1000
0000
,
0001
0000
0000
0000
,
1000
0000
0100
0000
,
0001
0000
0010
0100
,
1000
0000
0001
0000
,
1000
0000
0100
0001
,
0010
0000
1000
0000
,
0100
0000
1000
0000
,
0100
0000
0001
0000
,
1000
0000
0001
0000
,
1000
0000
0000
0000
;

//---------------dance-single - ----------------
#NOTES:
     dance-single:
     :
     Medium:
     5:
     0.323,0.415,0.020,0.089,0: // measure 1
2002
0000
0000
0000
,  // measure 2
3003
0000
0000
0000
,  // measure 3
0220
0000
0000
0000
,  // measure 4
0330
0000
0000
0000
,  // measure 5
1000
0100
0001
0000
,  // measure 6
0100
0010
1000
0000
,  // measure 7
0100
0000
0001
0000
,  // measure 8
1000
0100
0001
0010
,  // measure 9
1000
0100
1000
0000
0000
0000
0000
0000
,  // measure 10
0001
0100
0001
0000
0000
0000
0000
0000
,  // measure 11
0100
0010
0100
0000
1000
0100
1000
0000
,  // measure 12
0001
0000
1000
0000
,  // measure 13
0100
0010
0100
0000
0000
0000
0000
0000
,  // measure 14
1000
0010
1000
0000
0000
0000
0000
0000
,  // measure 15
1000
0001
0100
0000
,  // measure 16
1000
0100
1000
0000
0001
0100
0001
0000
,  // measure 17
0100
1000
0100
0001
,  // measure 18
0100
0010
1000
0010
,  // measure 19
0001
0010
1000
0100
,  // measure 20
0001
0000
1000
1000
,  // measure 21
0001
0000
1000
0000
,  // measure 22
0100
0000
1000
1000
,  // measure 23
0001
0000
1000
0000
,  // measure 24
1000
0100
0001
0010
,  // measure 25
0100
0000
1000
0000
,  // measure 26
0001
0000
1000
0000
,  // measure 27
1000
0100
1000
0000
0001
0100
0001
0000
,  // measure 28
0100
1000
0001
0100
,  // measure 29
2000
0000
0000
0000
,  // measure 30
3001
0000
0000
0000
,  // measure 31
0010
0000
0000
0000
,  // measure 32
1000
0001
1000
0000
,  // measure 33
0100
0010
1000
0100
,  // measure 34
0001
1000
0100
0001
,  // measure 35
0010
1000
0100
1000
,  // measure 36
1000
0000
0001
0000
,  // measure 37
0010
0100
0010
1000
,  // measure 38
1000
0000
0001
0000
,  // measure 39
0010
0000
1000
0000
,  // measure 40
0100
0000
0001
0000
,  // measure 41
0100
1000
0100
0001
,  // measure 42
0100
0001
0100
0000
0100
1000
0100
0000
,  // measure 43
0010
0000
1000
0000
,  // measure 44
1000
0100
1000
0000
0100
0010
0100
0000
,  // measure 45
0001
0100
0001
0000
0100
0000
0000
0000
,  // measure 46
0010
1000
0001
0000
0100
0010
1000
0000
,  // measure 47
0100
0001
0010
0000
0100
0000
1000
0000
,  // measure 48
0100
0001
0010
0100
,  // measure 49
1000
0001
1000
0100
,  // measure 50
0002
0000
0000
0000
,  // measure 51
2003
0000
0000
0000
,  // measure 52
3200
0000
0000
0000
,  // measure 53
0320
0000
0000
0000
,  // measure 54
0000
0000
0000
0000
,  // measure 55
1030
0000
0000
0000
,  // measure 56
0001
0000
0000
0000
,  // measure 57
1000
0100
0001
0010
,  // measure 58
1000
0000
0100
0000
,  // measure 59
0001
0100
0001
0000
,  // measure 60
1000
0100
1000
0000
0001
0100
0001
0000
,  // measure 61
0010
0100
0010
0000
1000
0010
1000
0000
,  // measure 62
0100
0000
0000
0000
,  // measure 63
0001
0100
0001
0000
1000
0000
0100
0000
,  // measure 64
1000
0010
1000
0000
0001
0010
0100
0000
,  // measure 65
1000
0001
0010
0000
,  // measure 66
1000
0010
1000
0000
0100
0001
0100
0000
,  // measure 67
1000
0100
0001
0010
,  // measure 68
1000
0100
0001
0100
,  // measure 69
1000
0100
0001
0010
,  // measure 70
1000
0000
0001
1000
,  // measure 71
0001
0000
0000
0000
;

//---------------dance-single - ----------------
#NOTES:
     dance-single:
     :
     Hard:
     9:
     0.680,0.622,0.198,0.059,0.148:
1000
0100
0010
0000
,
0010
0100
1000
0000
,
1000
1000
0001
0001
,
1000
0100
0100
1000
,
0100
1000
0100
0000
0010
0001
0010
0000
,
0100
0010
0100
0000
1000
0001
0100
0010
,
1000
0100
0010
0000
0001
0100
0001
0000
,
0100
1000
0100
0001
0010
0100
1000
0010
,
0000
0000
1000
0000
0010
0000
0000
1000
0100
0000
1000
0100
0000
1000
0100
0000
,
0000
0000
0100
0000
1000
0000
0000
0100
1000
0000
0100
1000
0000
0100
1000
0000
,
0001
0100
0001
0000
0100
1000
0100
0000
,
0001
1000
0100
0001
0100
0010
0001
0000
,
0100
0000
0001
0000
0100
0000
0000
0100
0001
0000
0100
0001
0000
0100
0001
0000
,
0000
0000
0001
0000
0100
0000
0000
0001
0010
0000
0001
0010
0000
0001
0010
0000
,
0001
0010
0001
0000
0100
0010
0100
0000
,
1000
0100
0001
0010
0100
0010
0001
0000
,
1000
0001
0110
0000
0001
1000
0110
0000
,
1000
0100
1100
0000
0001
0100
0101
0000
,
0010
0100
0110
0000
1000
0010
1010
0000
,
0001
0100
0101
0000
0001
1000
0001
0000
,
0001
1000
0001
0100
0010
1000
0100
0010
,
0100
1000
0100
1000
0010
0100
0001
0010
,
0100
1000
0100
1000
0001
0010
0100
0100
,
1000
0100
0010
0010
0100
1000
0001
0010
,
0100
1000
0010
1000
0001
0010
0001
0010
,
0100
0010
0001
0100
0001
0010
0100
1000
,
0001
0010
0100
1000
0100
1000
0001
0100
,
0010
1000
0010
0100
0001
0000
1000
0000
,
0002
0000
0000
0000
,
1003
0000
1000
0000
0001
0000
0000
0001
0100
0000
0001
0100
0000
0001
0100
0000
,
0000
0000
0100
0000
1000
0000
0000
0100
1000
0000
0100
1000
0000
0100
1000
0000
,
0000
1000
0100
0001
0010
0100
1000
0000
,
1000
1000
1000
0000
0001
0001
0002
0000
,
0003
0000
1000
0000
0001
0000
0000
0001
0100
0000
0001
0100
0000
0001
0100
0000
,
0000
0000
0001
0000
1000
0000
0000
0001
1000
0000
0001
1000
0000
0001
1000
0000
,
0000
0001
1000
0000
0010
0010
1000
0001
,
0100
0010
1000
0000
1000
1000
1000
0000
,
0001
1000
1001
0000
0010
0100
0110
0000
,
1000
0001
1001
0000
0100
0010
0110
0000
,
1000
0010
1010
0000
0001
0100
0101
0000
,
0100
0010
0110
0000
0001
0010
0100
0000
,
1000
0100
0010
0010
0100
1000
0010
1000
,
0100
0100
0010
0100
1000
0100
1000
0100
,
0100
0010
0100
0010
0001
0010
0100
0010
,
0001
0010
0100
1000
1000
0100
0010
0001
,
0100
0010
1000
0100
0010
0001
0100
0010
,
1000
0100
0010
0001
0100
0010
1000
1000
,
1000
1000
0001
0001
0100
0010
1000
0001
,
0100
0000
0010
1000
0001
0000
1000
0000
,
2000
0000
0000
0000
,
3002
0000
0000
0000
,
0203
0000
0000
0000
,
0320
0000
0000
0000
,
1030
1000
1000
1000
,
1000
0000
0001
0000
0100
0000
0000
0001
0100
0000
0001
0100
0000
0001
0100
0000
,
0000
0000
0001
0000
1000
0000
0000
0100
1000
0000
0100
1000
0000
0100
1000
0000
,
0000
0010
0100
0001
1000
0100
0010
0001
,
0010
0100
0100
0000
1000
1000
1000
0000
,
0001
1000
1001
0000
1000
0001
1001
0000
,
0100
0010
0110
0000
0010
1000
1010
0000
,
0100
0001
0101
0000
0100
0010
0110
0000
,
0010
1000
0001
1000
0001
0100
0010
1000
,
0001
0010
0100
0010
0001
1000
0010
1000
,
1000
0001
0100
0010
1000
0100
1000
0100
,
0010
0001
0010
0001
0010
0100
1000
0010
,
1000
0001
1000
0001
0100
0001
0010
0100
,
1000
0010
1000
0100
0010
0001
0010
0100
,
0010
0001
0010
0001
0010
0100
1000
0100
,
1000
1000
0001
0001
0100
0010
1000
0100
,
1000
0010
0100
1000
0100
0000
1000
0000
,
0100
0000
0000
0000
;
