#TITLE:TIN-DON-DANCE;
#SUBTITLE:;
#ARTIST:ノーボトム!;
#TITLETRANSLIT:;
#SUBTITLETRANSLIT:;
#ARTISTTRANSLIT:NO BOTTOM!;
#GENRE:;
#CREDIT:;
#BANNER:TIN-DON-DANCE.png;
#BACKGROUND:TIN-DON-DANCE-bg.png;
#LYRICSPATH:;
#CDTITLE:cdtitle.png;
#MUSIC:TIN-DON-DANCE.ogg;
#OFFSET:0.020000;
#SAMPLESTART:18.194693;
#SAMPLELENGTH:13.241379;
#SELECTABLE:YES;
#BPMS:0.000000=145.000000
;
#STOPS:
;
#BGCHANGES:;
#KEYSOUNDS:;
#ATTACKS:;

//---------------dance-single - S-HARD----------------
#NOTES:
     dance-single:
     xRGTMx-HSP:
     Hard:
     9:
     0.611854,0.730054,0.406291,0.194681,0.321647,435.000000,48.000000,23.000000,0.000000,0.000000,0.000000,0.611854,0.730054,0.406291,0.194681,0.321647,435.000000,48.000000,23.000000,0.000000,0.000000,0.000000:
0000
0000
0000
0000
,
0000
0000
0000
0000
,
0000
0000
0000
0000
,
0000
0000
0000
0000
,
0000
0000
0000
0000
,
1000
0000
0000
0000
1000
0000
0000
0000
1000
0000
0000
1000
0010
0000
0100
0000
,
0001
0000
0000
0000
0001
0000
0000
0000
0001
0000
0000
0001
0010
0000
0100
0000
,
2000
0000
0000
0000
0010
0000
0000
0000
0001
0000
3000
0001
1000
0000
0100
0000
,
0010
0000
0000
0110
0000
0000
2002
0000
0000
0000
0000
0000
0000
0000
0000
0000
,
3003
0000
0000
0000
,
0010
0000
0010
0000
0000
0000
0010
0000
1001
0000
0001
0100
0010
0000
1000
0000
,
0001
1000
0010
1000
0200
0000
0320
0100
,
0130
0000
1000
0100
2000
0000
0000
0000
0010
0000
0010
0000
3001
0000
1000
0000
,
0001
0000
0010
0000
0000
0000
0010
0000
1000
0000
0000
0001
0010
0000
0100
0000
,
0000
1000
0010
0001
0100
0000
0010
0010
,
1001
0000
0000
0000
0101
0000
0000
0000
1100
0000
0001
0100
0001
0000
1000
0000
,
0100
0000
0010
0001
0010
0000
0100
1000
0100
0000
0000
0010
0001
0000
1000
0000
,
0001
0001
0010
0000
0100
0010
0100
0100
,
1000
0000
0010
1000
0100
0000
0010
0001
0100
0000
0010
0100
0010
0000
0000
0000
,
1000
0000
0001
0010
0001
0000
0100
0000
1000
0000
0100
0000
0001
0000
1001
0000
,
1000
0100
0100
0001
0200
0000
0300
1001
,
1000
0010
0010
0010
0110
0000
1001
0000
,
0001
0101
0001
1001
1000
1100
1000
1001
,
0002
0000
0000
0000
0010
0000
0000
0000
0103
0000
0000
0001
0010
0000
0100
0000
,
2000
0000
0010
0000
0100
0000
3001
1000
,
0001
0100
1000
0010
,
0001
0000
0010
0001
0000
1000
0010
0000
0100
0000
0000
0000
0010
0000
0100
0000
,
0002
0000
0000
0000
0100
0000
0000
0000
0013
0000
0000
0001
0100
0000
0010
0000
,
2000
0000
0100
0000
0010
0000
3001
1000
,
0001
0010
1000
0100
,
0001
0000
0100
0001
0000
1000
0100
0000
0010
0000
0000
0000
0100
0000
0000
0000
,
2001
0000
0010
0000
,
3200
0000
0001
0000
,
0320
0000
1000
0000
,
0032
0000
0100
0000
,
1003
0100
0000
0100
0000
0000
1000
0100
1000
0001
0000
0001
0000
0000
0001
0100
,
0010
0100
0000
0100
0000
0000
0001
0010
0001
1000
0000
1000
0000
0000
0001
0010
,
0100
1000
0000
1000
0001
0000
1000
0010
0100
0001
0000
0001
1000
0000
0001
0010
,
0100
1000
0001
0100
1000
0010
1000
0100
,
0001
0000
0000
0001
0010
0000
0100
1000
0100
0000
0000
1000
0001
0000
1000
0000
,
0010
1000
0000
0010
0100
0000
0001
1000
0001
0000
0000
0010
0100
0000
1000
0000
,
0001
0000
0000
0001
0100
0000
0010
1000
0010
0000
0000
1000
0001
0000
1000
0000
,
0100
1000
0000
0100
0010
0000
0001
1000
0001
0000
0000
0100
0010
0000
1000
0000
,
0001
0000
0010
0000
0100
0000
1000
0000
1100
0000
0000
0101
0000
0000
1100
0000
,
0001
0000
0100
0000
0010
0000
1000
0000
1010
0000
0000
0011
0000
0000
1010
0000
,
1000
0000
0100
0000
0010
0000
0001
0000
0101
0000
0000
1100
0000
0000
0101
0000
,
1000
0000
0010
0000
0100
0000
0001
0000
0011
0000
0000
1010
0000
0000
0011
0000
,
1001
1000
0010
0100
0001
0010
1000
0010
,
1001
0001
1000
0010
0100
1000
0100
0001
,
1000
0100
1000
0100
0010
0001
0010
0001
1000
0100
1000
0100
0010
0001
0010
0001
,
0200
0000
1000
0000
0001
0000
0310
0110
,
2002
0000
0000
0000
,
3003
0000
0000
0000
,
0100
0000
0100
0000
0000
0000
0100
0000
1001
0000
1000
0010
0100
0000
0001
0000
,
1000
0001
0100
0001
0020
0000
0230
0010
,
0310
0000
0001
0010
0002
0000
0000
0000
0100
0000
0100
0000
1003
0000
0001
0000
,
1000
0000
0100
0000
0000
0000
0100
0000
0001
0000
0000
1000
0100
0000
0010
0000
,
0000
0001
0100
1000
0010
0000
0100
0100
,
1001
0000
0000
0000
1010
0000
0000
0000
0011
0000
1000
0010
1000
0000
0001
0000
,
0010
0000
0100
1000
0100
0000
0010
0001
0010
0000
0000
0100
1000
0000
0001
0000
,
1000
1000
0100
0000
0010
0100
0010
0010
,
0001
0000
0100
0001
0010
0000
0100
1000
0010
0000
0100
0010
0100
0000
0000
0000
,
0001
0000
1000
0100
0010
0000
0001
0000
0010
0000
0100
0000
1000
0000
0001
0000
,
0001
1000
0010
0001
0100
1000
0001
1000
,
0010
1001
0000
0100
0110
0000
0010
1000
,
0001
0101
0001
1001
1000
1100
1000
1001
,
0001
0011
0001
1001
1000
1010
1000
1001
,
0001
0010
0100
1000
0010
0100
0110
0110
,
2002
0000
0000
0000
,
3003
0000
0000
0000
;

//---------------dance-single - NOVICE----------------
#NOTES:
     dance-single:
     xRGTMx-NOV:
     Beginner:
     3:
     0.151150,0.172674,0.050786,0.050786,0.000000,113.000000,6.000000,6.000000,0.000000,0.000000,0.000000,0.151150,0.172674,0.050786,0.050786,0.000000,113.000000,6.000000,6.000000,0.000000,0.000000,0.000000:
0000
0000
0000
0000
,
0000
0000
0000
0000
,
0000
0000
0000
0000
,
0000
0000
0000
0000
,
0000
0000
0000
0000
,
1000
0000
0000
0000
,
1000
0000
0000
0000
,
0001
0000
0000
0000
,
0001
0000
0000
0000
,
1001
0000
0000
0000
,
0010
0000
0000
0000
,
1000
1000
1000
0000
,
1000
0000
0000
0000
,
0001
0001
0001
0000
,
0001
0000
0000
0000
,
0100
0100
0100
0000
,
0100
0000
0000
0000
,
0010
0010
0010
0000
,
0010
0000
0000
0000
,
1000
0000
1000
0000
,
0100
0000
0100
0000
,
0010
0000
0010
0000
,
0001
0001
0001
0001
,
0001
0000
0000
0000
,
0100
0000
0000
0000
,
1000
0000
0000
0000
,
0010
0000
0000
0000
,
0001
0000
0100
0000
,
1000
0000
0010
0000
,
0001
0000
0010
0000
,
1000
0000
0100
0000
,
0002
0000
0003
0000
,
0000
0000
0000
0000
,
2000
0000
3000
0000
,
0000
0000
0000
0000
,
0020
0000
0030
0000
,
0000
0000
0000
0000
,
0200
0000
0300
0000
,
0000
0000
0000
0000
,
0001
0001
0001
0000
,
0001
0001
0001
0000
,
0001
0001
0001
0000
,
0001
0001
0001
0000
,
1000
1000
1000
0000
,
1000
1000
1000
0000
,
1000
1000
1000
0000
,
1000
1000
1000
0000
,
0010
0000
0010
0000
,
0100
0000
0100
0000
,
0110
0000
1001
0000
,
0110
0000
2002
0000
,
3003
0000
0000
0000
,
0000
0000
0000
0000
,
0010
0000
0000
0000
,
1000
1000
1000
0000
,
1000
0000
0000
0000
,
0001
0001
0001
0000
,
0001
0000
0000
0000
,
0100
0100
0100
0000
,
0100
0000
0000
0000
,
0010
0010
0010
0000
,
0010
0000
0000
0000
,
1000
0000
1000
0000
,
0100
0000
0100
0000
,
0010
0000
0010
0000
,
0001
0001
0001
0000
,
1000
1000
1000
0000
,
0001
1000
0001
0000
,
0110
0000
0000
0000
;

//---------------dance-single - S-EASY----------------
#NOTES:
     dance-single:
     xRGTMx-ESP:
     Easy:
     4:
     0.278116,0.292021,0.093108,0.118501,0.000000,205.000000,11.000000,14.000000,0.000000,0.000000,0.000000,0.278116,0.292021,0.093108,0.118501,0.000000,205.000000,11.000000,14.000000,0.000000,0.000000,0.000000:
0000
0000
0000
0000
,
0000
0000
0000
0000
,
0000
0000
0000
0000
,
0000
0000
0000
0000
,
0000
0000
0000
0000
,
1000
1000
1000
1000
,
1000
1000
1000
1000
,
0001
0001
0001
0001
,
0001
0000
0100
0000
,
0220
0000
0000
0000
,
0330
0000
1000
0001
,
1000
1000
0100
1000
,
0010
0010
0100
0100
,
0001
0100
0001
0010
,
0100
1000
0001
0000
,
1000
0010
1000
0010
,
0100
0001
1000
0100
,
0010
0001
0010
0001
,
1000
0010
2002
3003
,
0001
0010
1000
0100
,
0001
0001
1000
1000
,
0001
0100
1000
0010
,
0001
1000
0001
1000
,
0010
0000
1001
0000
,
1000
0100
0001
0000
,
0010
0000
1001
0000
,
0001
0100
1000
0000
,
0100
0000
1001
0000
,
1000
0010
0001
0000
,
0100
0000
1001
0000
,
0001
0010
1000
0000
,
0002
0000
0100
0000
,
0103
0000
0010
0000
,
0200
0000
0010
0000
,
0310
0000
1000
0000
,
0020
0000
1000
0000
,
1030
0000
0001
0000
,
2000
0100
3200
0010
,
0310
0001
1000
0000
,
0001
0100
1000
0100
,
0001
0100
1000
0000
,
1000
0100
0001
0100
,
1000
0100
0001
0000
,
0001
0010
1000
0010
,
0001
0010
1000
0000
,
1000
0010
0001
0010
,
1000
0010
0001
0000
,
1000
0010
0100
0001
,
1000
0100
0010
0001
,
0100
0100
0010
0010
,
0100
0010
0110
0110
,
2002
0000
0000
0000
,
3003
0000
0000
0000
,
0110
0000
0001
1000
,
0001
0001
0010
0001
,
0100
0100
0010
0010
,
1000
0010
1000
0100
,
0010
0001
1000
0000
,
0001
0100
0001
0100
,
0010
1000
0001
0010
,
0100
1000
0100
1000
,
0001
0100
2002
3003
,
1000
0100
0001
0010
,
1000
1000
0001
0001
,
1000
0010
0001
0100
,
1000
0001
1000
0001
,
0100
0010
0100
0010
,
1000
0100
0010
0001
,
2000
0000
0000
0000
,
3000
0000
0000
0000
;

//---------------dance-single - S-MEDIUM----------------
#NOTES:
     dance-single:
     xRGTMx-MSP:
     Medium:
     6:
     0.383316,0.467234,0.313182,0.084644,0.000000,270.000000,37.000000,10.000000,0.000000,0.000000,0.000000,0.383316,0.467234,0.313182,0.084644,0.000000,270.000000,37.000000,10.000000,0.000000,0.000000,0.000000:
// measure 0
0000
0000
0000
0000
,  // measure 1
0000
0000
0000
0000
,  // measure 2
0000
0000
0000
0000
,  // measure 3
0000
0000
0000
0000
,  // measure 4
0000
0000
0000
0000
,  // measure 5
1000
0000
0010
0000
1000
0000
1000
1000
,  // measure 6
0001
0000
0010
0000
0001
0000
0001
0001
,  // measure 7
1000
0010
0100
0001
,  // measure 8
0010
0110
2002
0000
,  // measure 9
3003
0000
0000
0000
,  // measure 10
0010
0000
0110
1001
,  // measure 11
1000
0000
0100
0000
1000
0000
1000
1000
,  // measure 12
0001
0000
0100
0000
0001
0000
0001
0001
,  // measure 13
1000
0000
0010
0000
1000
0000
1000
1000
,  // measure 14
0001
0000
0010
0000
0001
0000
0001
0001
,  // measure 15
1000
0000
0100
0000
0001
0000
0010
0010
,  // measure 16
1000
0000
0010
0000
0001
0000
0100
0100
,  // measure 17
1000
0000
0001
0000
0100
0000
0010
0100
,  // measure 18
0010
0100
0110
1001
,  // measure 19
0001
0010
0010
1000
,  // measure 20
0001
1000
0100
0100
,  // measure 21
0001
0010
0100
1000
,  // measure 22
0001
0100
0010
1000
0001
0100
0010
1000
,  // measure 23
0001
0010
0010
0100
,  // measure 24
1000
0010
1000
0100
,  // measure 25
0100
0010
0001
1000
,  // measure 26
0010
0000
0100
0000
0001
0000
1000
0001
,  // measure 27
1000
0100
0001
0010
,  // measure 28
1000
0010
0001
0100
,  // measure 29
1000
0010
0100
0001
,  // measure 30
0010
0100
0110
1001
,  // measure 31
2000
0000
0010
0000
,  // measure 32
0001
0000
0100
0000
,  // measure 33
3002
0000
0010
0000
,  // measure 34
1000
0000
0100
0000
,  // measure 35
0023
0000
1000
0000
,  // measure 36
0230
0000
0001
0000
,  // measure 37
2300
0010
0001
0100
,  // measure 38
3001
0010
0001
0010
0100
1000
0100
1000
,  // measure 39
0010
1010
1000
1100
,  // measure 40
0100
0110
0010
0011
,  // measure 41
0001
1001
1000
1010
,  // measure 42
0010
0110
0100
1001
,  // measure 43
0001
1100
0001
1010
,  // measure 44
1000
0101
1000
0011
,  // measure 45
0001
1010
0001
1100
,  // measure 46
1000
0011
1000
0101
,  // measure 47
1000
0001
1000
0001
1000
0001
1000
0000
,  // measure 48
0010
0100
0010
0100
0010
0100
0010
0000
,  // measure 49
1100
0011
1010
0101
,  // measure 50
0110
1001
1100
0101
,  // measure 51
0220
0000
0000
0000
,  // measure 52
0330
0000
0000
0000
,  // measure 53
0100
0000
0110
1001
,  // measure 54
0001
0000
0010
0000
0001
0000
0001
0001
,  // measure 55
1000
0000
0010
0000
1000
0000
1000
1000
,  // measure 56
0001
0000
0100
0000
0001
0000
0001
0001
,  // measure 57
1000
0000
0100
0000
1000
0000
1000
1000
,  // measure 58
0001
0000
0010
0000
1000
0000
0100
0100
,  // measure 59
0001
0000
0100
0000
1000
0000
0010
0010
,  // measure 60
0001
0000
1000
0000
0010
0000
0100
0010
,  // measure 61
0100
0010
0110
1001
,  // measure 62
1000
0100
0100
0001
,  // measure 63
1000
0001
0010
0010
,  // measure 64
1000
0100
0010
0001
,  // measure 65
1000
0010
0100
0001
1000
0010
0100
0001
,  // measure 66
1000
0100
0010
0001
1000
0100
0010
0001
,  // measure 67
1000
0001
1000
0001
0100
0010
0100
0010
,  // measure 68
2000
0000
0000
0000
,  // measure 69
3000
0000
0000
0000
;
