#TITLE:bbblow;
#SUBTITLE:;
#ARTIST:onoken;
#TITLETRANSLIT:;
#SUBTITLETRANSLIT:;
#ARTISTTRANSLIT:;
#GENRE:tribal euro;
#CREDIT:;
#BANNER:[Round-8] - bbblow.png;
#BACKGROUND:[Round-8] - bbblow-bg.png;
#LYRICSPATH:;
#CDTITLE:;
#MUSIC:[Round 8] - bbblow.mp3;
#OFFSET:-1.519;
#SAMPLESTART:111.014;
#SAMPLELENGTH:12.000;
#SELECTABLE:YES;
#BPMS:0.000=160.000
,80.000=80.000
,88.000=160.000
;
#STOPS:
;
#BGCHANGES:;
#KEYSOUNDS:;
#ATTACKS:;

//---------------dance-single - ----------------
#NOTES:
     dance-single:
     :
     Hard:
     9:
     0.748,0.866,0.491,0.000,0.728,609.000,63.000,0.000,0.000,0.000,0.000,0.748,0.866,0.491,0.000,0.728,609.000,63.000,0.000,0.000,0.000,0.000:
0000
0000
0000
0000
,
0000
0000
0000
0000
,
0000
0000
0000
0000
,
0000
0000
0000
0000
,
1000
0010
1000
0000
0000
0000
0001
0100
0001
0000
0000
0000
1000
0001
1000
0000
,
0000
0000
0100
0010
0100
0000
0000
0000
0000
0000
0000
0000
0000
0000
0000
0000
,
0010
0001
0010
0000
0000
0000
0100
1000
0100
0000
0000
0000
1000
0001
1000
0000
,
0000
0000
0010
0100
0010
0000
0000
0000
0000
0000
0000
0000
0000
0000
0000
0000
,
0100
0001
1000
0000
0000
0000
0001
1000
0100
0000
0000
0000
1000
0100
0010
0000
,
0000
0000
0010
0001
1000
0000
0000
0000
0000
0000
0000
0000
0000
0000
0000
0000
,
0001
0100
0010
0000
0000
0000
0100
0010
1000
0000
0000
0000
0010
1000
0001
0000
,
0000
0000
1000
0001
1000
0000
0000
0000
0000
0000
0000
0000
0000
0000
0001
1000
,
0001
0000
1000
0100
0001
0000
0100
1000
,
0001
0100
0010
1000
0001
0010
1000
0100
,
0001
0000
1000
0010
0001
0000
0010
1000
,
0001
0000
0010
0000
0100
0000
1000
0000
0001
1000
0001
0000
0100
0000
0010
1000
,
0001
0000
1000
0010
0001
0000
0001
0010
,
1000
0001
0010
0100
1000
0010
0001
0100
,
1000
0000
0001
0010
1000
0000
1000
0010
,
0001
0000
1000
0000
0010
0000
0100
0001
0100
0000
0001
0000
1000
0000
0100
0010
,
0001
0000
0000
1000
1000
0000
0001
0001
0000
0100
0000
0100
0010
0000
0010
0000
,
1000
0010
0100
0001
1000
0010
0100
0001
1000
0100
0010
0001
1000
0100
0010
0001
,
1000
0000
0000
0010
0000
0000
0001
0000
0000
0000
0010
0000
1000
0010
1000
0000
,
0001
0000
0000
0010
0000
0000
1000
0000
0001
0000
0000
0100
0000
0000
1000
0000
,
0001
0000
0000
0010
0000
0000
1000
0000
0010
0000
0001
0000
1000
0001
1000
0000
,
0001
0000
0000
0100
0000
0000
1000
0000
0001
0000
0000
0010
0000
0000
1000
0000
,
0001
0000
0000
0010
0000
0000
0100
0000
0000
1000
0000
0000
0001
0000
0001
0000
,
1000
0000
0000
0010
0000
0000
0100
0000
0000
0001
0000
0000
1000
0000
1000
0000
,
0001
0010
0001
0010
0100
1000
0100
1000
,
0001
0100
0001
0100
0010
0100
0010
0100
0010
1000
0010
1000
0001
1000
0001
1000
,
0001
0000
0000
0011
0000
0000
0110
0000
0000
0000
0100
0000
1000
0100
1000
0000
,
0001
0000
0000
0101
0000
0000
0110
0000
0010
0100
0010
0100
0010
1000
0010
1000
,
0001
0000
0000
1001
0000
0000
0011
0000
0000
0000
0001
0000
0010
0100
1000
0000
,
0001
0000
0000
0101
0000
0000
1010
0000
0010
1000
0010
1000
0001
1000
0001
1000
,
0001
0000
0000
0011
0000
0000
0110
0000
0000
1100
0000
0000
1000
0000
0001
0000
,
0100
0000
0000
0101
0000
0000
0110
0000
0000
1010
0000
0000
1000
0000
0001
0000
,
0010
0000
0000
0011
0000
0000
1001
0000
0000
1010
0000
0000
0010
0000
0100
0000
,
0001
0000
0000
0101
0000
0000
1001
0000
1100
0000
0000
0110
0000
0000
0010
0001
,
1000
0000
0000
0000
0010
0000
0000
0000
1000
0000
0000
0000
0010
0000
0000
0010
,
0100
0000
0000
0000
0001
0000
0000
0001
0100
0000
0100
0000
0101
0000
0000
0001
,
1000
0000
0000
0000
0100
0000
0000
0000
1000
0000
0000
0000
0100
0000
0000
0100
,
0010
0000
0000
0000
0001
0000
0000
0001
1000
0000
1000
0000
1001
0000
0001
1000
,
0001
0000
0100
0000
1000
0000
0100
0000
0001
0000
0000
0000
0101
0000
0000
0100
,
0001
0000
0000
0000
0101
0000
0000
0001
1000
0000
1000
0000
1001
0000
0001
1000
,
0001
0000
0010
0000
1000
0000
0010
0000
0001
0000
0000
0000
0011
0000
0000
0010
,
0100
0000
0000
0100
1000
0000
0000
1000
0001
0000
0100
0000
0010
0000
1000
0001
,
1000
0100
0001
0100
1000
0000
1100
0000
,
1000
0000
0000
0100
0000
0000
0010
0000
0001
0000
0000
0000
1001
0000
0000
0000
,
1000
0010
0001
0010
1000
0000
1010
0000
,
1000
0000
0000
0010
0000
0000
0100
0000
0001
0000
0000
0000
1001
0000
0000
0001
,
1000
0010
0001
1000
0100
0000
0101
0000
,
0001
0000
0000
0001
1000
0000
0100
0000
0010
0000
0000
0000
0011
0000
0000
0000
,
0001
0010
1000
0001
0100
0000
1100
0000
,
1000
0100
1000
0100
1000
0001
1000
0001
0100
0001
0100
0001
0100
0010
1000
0001
,
0010
0000
0100
0010
0100
0000
1000
0000
0001
0000
1000
0001
1000
0000
1000
0000
,
0001
0000
0100
0000
0010
0000
1000
0000
0001
0000
0010
0001
0010
0000
0010
0000
,
0100
0000
1000
0100
1000
0000
0001
1000
0001
0100
0001
0100
0001
0000
0001
0000
,
0100
0001
0100
0001
0100
0010
0100
0010
1000
0010
1000
0010
1000
0001
1000
0001
,
1000
0000
0001
0000
0010
0000
0100
0000
1100
0000
1000
0100
1000
0000
1000
0000
,
1001
0000
0000
0101
0000
0000
0110
0000
0110
0000
0010
0100
0010
0000
0010
1000
,
0010
0000
0000
1000
0000
0000
0001
0000
1001
0000
0000
1000
0000
0000
0100
0000
,
0110
0000
0000
0011
0000
0000
1001
0000
0001
0100
0001
0100
0010
1000
0010
1000
,
0001
0010
0100
1000
0001
0010
0100
1000
0001
0100
0010
1000
0001
0100
0010
1000
,
0001
0000
0000
0010
0000
0000
0100
0000
0000
0000
1000
0000
0001
0000
0001
0000
,
1000
0000
0000
0010
0000
0000
0100
0000
0001
0100
0001
0100
0001
1000
0001
1000
,
0100
0000
0000
0010
0000
0000
0001
0000
0000
0000
0001
0000
0000
0000
1000
0000
,
0001
0000
0000
0100
0000
0000
0010
0000
1000
0100
1000
0100
0010
0001
0010
0001
,
1000
0000
0000
0010
0000
0000
0001
0000
0000
0010
0000
0000
1000
0000
0010
0000
,
1000
0000
0000
0100
0000
0000
0001
0000
0000
0100
0000
0000
1000
0000
0100
0000
,
1000
0000
0000
0010
0000
0000
0001
0000
0000
1000
0000
0000
0100
0000
0001
0000
,
1000
0100
0010
0001
1000
0100
0010
0001
1000
0000
0000
1000
0010
0000
0100
0001
,
1000
0000
0000
1100
0000
0000
0011
0000
0001
0000
0010
0000
0001
1000
0001
0000
,
0101
0000
0000
0110
0000
0000
1010
0000
1000
0010
0100
0010
0001
0010
0100
0010
,
1000
0000
0000
1010
0000
0000
0101
0000
0001
0000
1000
0000
0100
1000
0100
0000
,
1100
0000
0000
0110
0000
0000
0011
0000
0001
0010
0100
0010
1000
0010
0100
0010
,
0001
0000
0000
0011
0000
0000
1001
0000
0000
1010
0000
0000
0010
0000
0100
0000
,
0001
0000
0000
0101
0000
0000
1001
0000
0000
1100
0000
0000
0100
0000
0010
0000
,
0001
0000
0000
0011
0000
0000
1001
0000
0000
1010
0000
0000
0010
0000
0100
0000
,
0001
0100
1000
0100
0001
0010
1000
0010
0001
0100
0010
1000
0001
0010
0100
1000
,
0001
0001
0000
1001
0000
0000
0000
0000
;

//---------------dance-single - ----------------
#NOTES:
     dance-single:
     :
     Medium:
     7:
     0.477,0.464,0.086,0.000,0.090,418.000,11.000,0.000,0.000,0.000,0.000,0.477,0.464,0.086,0.000,0.090,418.000,11.000,0.000,0.000,0.000,0.000:
0000
0000
0000
0000
,
0000
0000
0000
0000
,
0000
0000
0000
0000
,
0000
0000
0000
0000
,
0001
0001
0000
0010
0010
0000
0100
0100
,
0000
1000
1000
0000
0000
0000
0000
0000
,
0010
0010
0000
0100
0100
0000
0001
0001
,
0000
1000
1000
0000
0000
0000
0000
0000
,
0001
0001
0000
1000
1000
0000
0100
0100
,
0000
0010
0010
0000
0000
0000
0000
0000
,
0001
0001
0000
1000
1000
0000
0010
0010
,
0000
0100
0100
0000
0000
0000
0000
0000
,
0001
0000
0000
0100
0001
0000
0100
0000
,
0001
0100
0001
0100
0001
1000
0001
1000
,
0100
0000
0000
1000
0100
0000
1000
0000
,
0100
0010
0100
0010
0001
1000
0001
1000
,
0010
0000
0000
0100
0010
0000
0100
0000
,
0001
0100
0001
1000
0100
1000
0001
0100
,
0010
0000
0000
1000
0010
0000
1000
0000
,
0001
0010
0100
1000
0001
0100
0010
1000
,
0001
0000
0000
0000
0010
0000
0000
0100
0000
1000
0000
0001
1000
0000
1000
0000
,
0001
0100
0010
1000
0001
0010
0100
1000
,
0001
0000
0010
0000
0100
0000
1000
0100
,
1000
0000
0001
1000
0001
0000
0100
0001
,
0100
0000
0010
0000
1000
0000
0001
1000
,
0001
0000
0010
0100
0010
0000
0001
1000
,
0001
0000
0100
0000
0001
0000
0100
0010
,
1000
0000
0100
0000
1000
0000
0100
0010
,
0001
1000
0001
1000
,
0001
0100
0010
0100
0001
0010
0100
1000
,
0001
0000
0000
1000
0000
0000
1001
0000
0000
0000
0101
0000
0000
0000
0001
0000
,
0100
0000
0001
0100
0010
1000
0001
1000
,
0100
0000
0000
0010
0000
0000
0011
0000
0000
0000
1001
0000
0000
0000
1000
0000
,
0100
0000
0010
0100
1000
0001
0100
0001
,
1000
0000
0000
0010
0000
0000
1000
0000
0000
0010
0000
0000
1000
0000
0010
0000
,
0100
0000
0000
0001
0000
0000
0100
0000
0000
0001
0000
0000
0100
0000
0001
0000
,
0010
0000
0000
0001
0000
0000
0010
0000
0000
0001
0000
0000
0010
0000
0001
0000
,
0010
0100
1000
0001
1000
0010
0100
0001
,
1000
1000
1000
1000
,
0100
0000
0100
0000
0100
0010
0100
0000
,
0010
0010
0010
0010
,
0001
0000
0001
0000
0001
0010
0001
0000
,
1000
0010
0100
0010
0001
0000
0010
0000
,
1000
0000
0010
0000
1000
0001
1000
0000
,
0001
0010
0100
0010
1000
0000
0010
0000
,
0001
0000
0010
0000
0001
1000
0001
0000
,
0100
0001
1000
0100
0010
0000
0000
0000
,
0001
0000
0000
0010
0000
0000
0001
0000
1000
0000
0000
0000
0000
0000
0000
0000
,
0100
1000
0010
0100
0001
0000
0000
0000
,
0100
0000
0000
0001
0000
0000
1000
0000
0100
0000
0000
0000
0000
0000
0000
0000
,
0010
0001
1000
0010
0100
0000
0001
0100
,
0001
0000
1000
0001
1000
0000
0100
1000
,
0100
0010
0001
1000
0010
0000
0100
0001
,
1000
0100
0010
0001
1000
0010
0100
0001
,
1000
0000
0100
0000
0010
0010
0010
0000
,
0001
0000
1000
0000
0010
0010
0010
0000
,
0100
0000
0001
0000
1000
1000
1000
0000
,
0001
0010
1000
0010
0001
0100
1000
0100
,
0001
0000
0000
0100
0001
0000
0000
0000
,
0100
0000
0000
0001
0000
0000
1000
0000
0100
0000
0000
0000
0000
0000
1000
0000
,
0100
0000
0000
0010
0100
0000
0000
0010
,
0001
0000
0000
1000
0000
0000
0010
0000
0100
0000
0100
0000
0001
0000
0001
0000
,
1000
0100
0010
0001
1000
0010
0100
0001
,
1000
0000
0100
0000
0010
0000
0001
0010
,
1000
0000
1000
0010
0001
1000
0001
1000
,
0001
0000
0100
0000
0010
0000
1000
0010
,
0001
0000
0001
0010
1000
0001
1000
0001
,
1000
0000
0100
0000
1000
0000
0100
0010
,
0001
0000
0010
0000
0001
0000
0010
0001
,
0100
0000
0001
0000
0100
0000
0001
0100
,
0010
0000
0100
0010
1000
0000
0010
1000
,
0001
0000
0000
0010
0000
0000
0110
0000
0000
0000
1100
0000
0000
0000
1000
0000
,
0001
0000
1001
0000
1000
0010
0001
1000
,
0100
0000
0000
0001
0000
0000
0101
0000
0000
0000
1010
0000
0000
0000
0010
0000
,
1000
0000
1001
0000
0001
0010
1000
0001
,
0100
0000
0000
1000
0000
0000
0001
0000
0000
1000
0000
0000
0001
0000
0100
0000
,
0010
0000
0000
1000
0000
0000
0001
0000
0000
1000
0000
0000
0100
0000
0010
0000
,
0001
0000
0000
1000
0000
0000
0001
0000
0000
0100
0000
0000
0010
0000
1000
0000
,
0001
0000
1000
0001
0010
0000
0100
1000
,
0001
0000
0000
1001
0000
0000
0000
0000
;

//---------------dance-single - ----------------
#NOTES:
     dance-single:
     :
     Easy:
     4:
     0.241,0.277,0.000,0.016,0.000,215.000,0.000,2.000,0.000,0.000,0.000,0.241,0.277,0.000,0.016,0.000,215.000,0.000,2.000,0.000,0.000,0.000: // measure 0
0000
0000
0000
0000
,  // measure 1
0000
0000
0000
0000
,  // measure 2
0000
0000
0000
0000
,  // measure 3
0000
0000
0000
0000
,  // measure 4
1000
0000
1000
0000
,  // measure 5
1000
0000
0000
0000
,  // measure 6
0100
0000
0100
0000
,  // measure 7
0100
0000
0000
0000
,  // measure 8
0010
0000
0010
0000
,  // measure 9
0010
0000
0000
0000
,  // measure 10
0001
0000
0001
0000
,  // measure 11
0001
0000
0000
0000
,  // measure 12
1000
0000
0010
0000
,  // measure 13
0100
0100
0100
0100
,  // measure 14
0100
0000
0001
0000
,  // measure 15
1000
1000
1000
1000
,  // measure 16
1000
0000
0100
0000
,  // measure 17
0010
0010
0010
0010
,  // measure 18
0010
0000
0001
0000
,  // measure 19
1000
1000
1000
1000
,  // measure 20
1000
0000
1000
0000
0001
0000
0001
0001
,  // measure 21
2000
0000
0000
0000
0002
0000
0000
3003
,  // measure 22
1000
0000
1000
0000
,  // measure 23
0100
0000
0100
0000
,  // measure 24
0010
0000
0010
0000
,  // measure 25
0001
0000
0001
0000
,  // measure 26
1000
0000
1000
0000
,  // measure 27
0010
0000
0010
0000
,  // measure 28
0100
0000
0100
0000
,  // measure 29
0001
0000
1000
0000
,  // measure 30
0001
0010
0001
0000
,  // measure 31
1000
0000
0010
0010
,  // measure 32
0010
1000
0010
0000
,  // measure 33
0100
0000
0001
0100
,  // measure 34
0001
0001
0001
0000
,  // measure 35
1000
1000
1000
0000
,  // measure 36
0100
0100
0100
0000
,  // measure 37
0010
0010
0001
0001
,  // measure 38
1000
0000
1000
0000
,  // measure 39
1000
0000
0000
0000
,  // measure 40
0001
0000
0001
0000
,  // measure 41
0001
0000
0000
0000
,  // measure 42
0100
0010
0100
0000
,  // measure 43
0010
0000
0010
0000
,  // measure 44
1000
0010
1000
0000
,  // measure 45
0001
0000
0001
0000
,  // measure 46
0010
0100
1000
0000
,  // measure 47
0001
1000
0001
0000
,  // measure 48
1000
0010
0100
0000
,  // measure 49
0001
1000
0001
0000
,  // measure 50
1000
0100
0010
0000
,  // measure 51
0001
1000
0001
0000
,  // measure 52
1000
0010
0100
0000
,  // measure 53
0001
0100
0001
1000
,  // measure 54
0100
0000
0010
0100
,  // measure 55
0010
0000
0001
0010
,  // measure 56
0001
0000
1000
0001
,  // measure 57
1000
1000
0010
0010
,  // measure 58
0100
0000
0001
0000
,  // measure 59
1000
0001
1000
0000
,  // measure 60
0100
0000
0010
0000
,  // measure 61
0001
0010
0001
0000
,  // measure 62
1000
0010
0100
0001
,  // measure 63
1000
1000
0010
0010
,  // measure 64
0100
0001
1000
0000
,  // measure 65
0001
0001
0010
0010
,  // measure 66
0100
1000
0001
0000
,  // measure 67
1000
1000
0010
0010
,  // measure 68
1000
1000
0001
0001
,  // measure 69
0010
0010
0100
0100
,  // measure 70
1000
0001
1000
0001
,  // measure 71
1000
0100
0010
0001
,  // measure 72
1000
1000
0001
0100
,  // measure 73
0010
1000
0001
1000
,  // measure 74
0001
0001
0010
0100
,  // measure 75
1000
0100
1000
1000
,  // measure 76
0001
1000
0001
0001
,  // measure 77
0100
0001
0100
0100
,  // measure 78
0010
0010
1000
1000
,  // measure 79
0001
0000
0000
0000
;

//---------------dance-single - ----------------
#NOTES:
     dance-single:
     :
     Beginner:
     2:
     0.124,0.185,0.000,0.000,0.000,111.000,0.000,0.000,0.000,0.000,0.000,0.124,0.185,0.000,0.000,0.000,111.000,0.000,0.000,0.000,0.000,0.000:
0000
0000
0000
0000
,
0000
0000
0000
0000
,
0000
0000
0000
0000
,
0000
0000
0000
0000
,
1000
0000
0000
0000
,
0000
0000
0000
0000
,
0100
0000
0000
0000
,
0000
0000
0000
0000
,
0010
0000
0000
0000
,
0000
0000
0000
0000
,
0001
0000
0000
0000
,
0000
0000
0000
0000
,
1000
0000
1000
0000
,
1000
0000
0000
0000
,
0010
0000
0010
0000
,
0010
0000
0000
0000
,
0100
0000
0100
0000
,
0100
0000
0000
0000
,
0001
0000
0001
0000
,
0001
0000
0000
0000
,
1000
0000
0001
0000
,
0010
0010
0100
0100
,
1000
0000
0000
0000
,
0001
0000
0001
0000
,
0100
0000
0000
0000
,
0010
0000
0010
0000
,
1000
0000
0000
0000
,
0001
0000
0000
0000
,
0010
0000
0000
0000
,
0100
0000
1000
0000
,
0001
0000
0000
0000
,
0100
0000
0100
0000
,
0010
0000
0000
0000
,
1000
0000
1000
0000
,
0001
0000
0000
1000
,
1000
0000
0000
0100
,
0100
0000
0000
0010
,
0010
0000
0001
0000
,
1000
0000
0100
0000
,
1000
0000
0000
0000
,
0001
0000
1000
0000
,
0001
0000
0000
0000
,
0100
0000
0001
0000
,
0100
0000
0000
0000
,
0010
0000
1000
0000
,
0010
0000
0000
0000
,
1000
0000
0001
0000
,
1000
0000
0000
0000
,
0100
0000
0010
0000
,
0100
0000
0000
0000
,
0010
0000
0001
0000
,
0010
0000
0000
0000
,
0001
0000
1000
0000
,
0001
0000
0000
0000
,
0100
0000
0000
0000
,
0010
0000
0000
0000
,
1000
0000
0000
0000
,
0001
0000
0000
0000
,
0010
0000
0000
0000
,
0100
0000
0000
0000
,
1000
0000
0000
0000
,
0001
0000
0000
0000
,
1000
0000
0001
0000
,
1000
0000
0000
0000
,
0001
0000
0001
0000
,
0001
0000
0000
0000
,
0010
0000
0010
0000
,
0010
0000
0000
0000
,
0100
0000
0000
0000
,
1000
0000
0000
0000
,
0001
0000
1000
0000
,
0010
0010
0010
0000
,
0100
0000
0100
0000
,
0001
0001
0001
0000
,
1000
0000
1000
0000
,
0100
0000
0000
0010
,
0010
0000
0000
0001
,
0001
0000
0000
1000
,
1000
0000
0001
0000
,
0100
0000
0000
0000
;
