#TITLE:Red Lights;
#SUBTITLE:;
#ARTIST:Tiƫsto;
#TITLETRANSLIT:;
#SUBTITLETRANSLIT:;
#ARTISTTRANSLIT:Tiesto;
#GENRE:;
#CREDIT:;
#BANNER:banner.png;
#BACKGROUND:bg.png;
#LYRICSPATH:;
#CDTITLE:;
#MUSIC:Red Lights.mp3;
#OFFSET:-0.080000;
#SAMPLESTART:99.941673;
#SAMPLELENGTH:12.000000;
#SELECTABLE:YES;
#BPMS:0.000000=124.999992
,80.000000=62.499996
,112.000000=124.999992
,176.000000=62.499996
,192.000000=124.999992
;
#STOPS:
;
#BGCHANGES:;
#KEYSOUNDS:;
#ATTACKS:;

//---------------dance-single - ----------------
#NOTES:
     dance-single:
     :
     Beginner:
     1:
     0.104893,0.128161,0.033375,0.053400,0.000000,97.000000,5.000000,8.000000,0.000000,0.000000,0.000000,0.104893,0.128161,0.033375,0.053400,0.000000,97.000000,5.000000,8.000000,0.000000,0.000000,0.000000:
// measure 0
0000
0000
0000
0000
,  // measure 1
0000
0000
0000
0000
,  // measure 2
0000
0000
0000
0000
,  // measure 3
0000
0000
0000
0000
,  // measure 4
0100
0000
0000
0000
,  // measure 5
1000
0000
0000
0000
,  // measure 6
0010
0000
0000
0000
,  // measure 7
0001
0000
0000
0000
,  // measure 8
0100
0000
0000
0000
,  // measure 9
0001
0000
0000
0000
,  // measure 10
0010
0000
0000
0000
,  // measure 11
1000
0000
0000
0000
,  // measure 12
0100
0000
0000
0000
,  // measure 13
1000
0000
0000
0000
,  // measure 14
0001
0000
0000
0000
,  // measure 15
0100
0000
0000
0000
,  // measure 16
0010
0000
0000
0000
,  // measure 17
0001
0000
0000
0000
,  // measure 18
1000
0000
0000
0000
,  // measure 19
0100
0000
0000
0000
,  // measure 20
0110
0000
0002
0000
,  // measure 21
0003
0000
2000
0000
,  // measure 22
3000
0000
0020
0000
,  // measure 23
0030
0000
0200
0000
,  // measure 24
0300
0000
0001
0000
,  // measure 25
1000
0000
0100
0000
,  // measure 26
0010
0000
0001
0000
,  // measure 27
1000
0000
0010
0000
,  // measure 28
0100
0000
0100
0000
,  // measure 29
0100
0000
0100
0000
,  // measure 30
0010
0000
0010
0000
,  // measure 31
0010
0000
0010
0000
,  // measure 32
1000
0000
1000
0000
,  // measure 33
0001
0000
0001
0000
,  // measure 34
0100
0000
0100
0000
,  // measure 35
0010
0000
0110
0000
,  // measure 36
1000
0000
1000
0000
,  // measure 37
0100
0000
0100
0000
,  // measure 38
0001
0000
0001
0000
,  // measure 39
0100
0000
0100
0000
,  // measure 40
1000
0000
1000
0000
,  // measure 41
0010
0000
0010
0000
,  // measure 42
0001
0000
0001
0000
,  // measure 43
0010
0000
0010
0000
,  // measure 44
1001
0000
0200
0000
,  // measure 45
0300
0000
0020
0000
,  // measure 46
0030
0000
0002
0000
,  // measure 47
0003
0000
2000
0000
,  // measure 48
3000
0000
1000
0000
,  // measure 49
0001
0000
0001
0000
,  // measure 50
1000
0000
0100
0000
,  // measure 51
1000
0000
1000
0000
,  // measure 52
0001
0000
0001
0000
,  // measure 53
1000
0000
1000
0000
,  // measure 54
0001
0000
0100
0000
,  // measure 55
0001
0000
0110
0000
,  // measure 56
1000
0000
1000
0000
,  // measure 57
0100
0000
0100
0000
,  // measure 58
0001
0000
0001
0000
,  // measure 59
0100
0000
0100
0000
,  // measure 60
1000
0000
1000
0000
,  // measure 61
0010
0000
0010
0000
,  // measure 62
0001
0000
0001
0000
,  // measure 63
0010
0000
0010
0000
,  // measure 64
1001
0000
0000
0000
;

//---------------dance-single - ----------------
#NOTES:
     dance-single:
     :
     Hard:
     8:
     0.506349,0.765960,0.400502,0.307052,0.243639,425.000000,60.000000,46.000000,0.000000,0.000000,0.000000,0.506349,0.765960,0.400502,0.307052,0.243639,425.000000,60.000000,46.000000,0.000000,0.000000,0.000000:
// measure 0
0000
0000
0000
0000
,  // measure 1
0000
0000
0000
0000
,  // measure 2
0000
0000
0000
0000
,  // measure 3
0000
0000
0000
0000
,  // measure 4
1200
0310
0201
0310
,  // measure 5
1000
0100
0001
0200
0000
0010
0000
1300
,  // measure 6
0002
0103
1200
0310
,  // measure 7
0001
0100
1000
0200
0000
0010
0000
0301
,  // measure 8
2000
3100
0201
0310
,  // measure 9
1000
0100
0010
0001
0000
0101
0000
1000
,  // measure 10
0100
0000
0110
0000
0110
0000
0010
0001
,  // measure 11
1000
0000
1001
0000
1001
0001
1000
0000
,  // measure 12
1200
0301
1020
0031
,  // measure 13
0100
1000
0100
0002
0000
0013
0001
0000
,  // measure 14
0201
1300
0021
1030
,  // measure 15
0100
0001
0100
2000
0000
3010
0100
0000
,  // measure 16
0001
0010
0100
1000
,  // measure 17
0010
0100
0010
1000
0000
0100
0000
0010
,  // measure 18
0001
0100
0010
1000
,  // measure 19
0010
0100
0010
1000
0000
0100
0010
0000
,  // measure 20
2002
0000
0000
0000
0003
3100
1000
0020
0001
0000
0100
0000
2030
0000
0002
0000
,  // measure 21
0000
0000
0000
0000
0000
0000
3003
0000
1100
0000
0101
0000
1000
0200
0002
0000
,  // measure 22
0000
0000
0000
0303
0100
1000
0020
0030
0012
0003
0201
0300
2100
3000
2002
0000
,  // measure 23
0000
0000
3000
0000
0103
1000
0010
0000
0012
0003
0201
0300
0110
0000
1001
0000
,  // measure 24
0100
0010
0001
0100
0010
0001
1000
0100
0002
0000
1000
0000
0010
0003
0110
0000
,  // measure 25
1000
0010
0100
0001
0010
1000
0001
0100
2000
0000
0001
0000
3010
0100
0002
0000
,  // measure 26
1003
0100
1000
0100
0001
0010
1000
0000
1200
0300
0102
0003
0021
0030
2010
3000
,  // measure 27
1000
0100
0010
0001
0100
1000
0010
0000
0012
0003
0201
0300
0110
0000
1001
0000
,  // measure 28
1100
0000
0000
0100
0000
0000
0100
0000
0011
0000
0000
0100
0000
0000
0100
0000
,  // measure 29
1010
0000
0000
0100
0000
0000
0100
0000
0110
0000
0000
0001
0000
0000
0001
0000
,  // measure 30
0110
0000
0000
1000
0000
0000
1000
0000
0101
0000
0000
0001
0000
0000
0001
0000
,  // measure 31
1100
0000
0000
1000
0000
0000
1000
0000
0011
0000
0000
0001
0000
0000
0001
0000
,  // measure 32
1010
0000
0000
0001
0000
0000
1000
0000
0110
0000
0000
0001
0000
0000
1000
0000
,  // measure 33
1010
0000
0000
0100
0000
0000
0001
0000
0011
0000
0000
0100
0000
0000
1000
0000
,  // measure 34
0120
0000
0000
0031
0000
0000
1000
0000
2010
0000
0000
3100
0000
0000
0010
0000
,  // measure 35
0001
0100
0001
0100
0001
1000
0001
1000
0001
1000
0100
1000
0001
0000
0000
0000
,  // measure 36
1000
0100
0001
0100
1000
1000
0001
1000
,  // measure 37
0010
0100
0010
2000
0000
0100
0100
3100
,  // measure 38
0010
0001
0100
1000
0100
0100
0010
0100
,  // measure 39
0001
1000
0001
0020
0000
0001
0001
0031
,  // measure 40
1000
0010
0100
0010
1000
1000
0100
0100
,  // measure 41
1000
0001
0100
0020
0000
0100
0100
0130
,  // measure 42
0001
1000
0100
1000
0001
0100
1000
0000
,  // measure 43
1010
0011
1001
0110
,  // measure 44
1000
0000
0001
0100
0001
0000
1000
0000
0100
0000
1000
0001
0000
0100
0001
0000
,  // measure 45
1000
0000
0001
0010
0001
0000
1000
0000
0010
0000
1000
0001
0000
0010
0001
0000
,  // measure 46
0100
0001
1000
0100
1000
0001
0100
0000
0010
0010
1000
0100
0000
1000
0010
0000
,  // measure 47
0100
0001
1000
0100
1000
0001
0100
0000
0010
1000
0100
0010
0000
0002
0100
0000
,  // measure 48
1003
0000
0000
0001
0100
0000
0001
0000
1000
0000
0000
0100
1000
0000
0001
0000
,  // measure 49
0100
0000
0000
0010
1000
0000
0100
0000
0010
0000
0000
0001
0100
0000
0010
0000
,  // measure 50
1000
0000
0000
0001
0010
0000
0001
0000
0100
0000
0000
0001
0010
0000
0001
0000
,  // measure 51
1000
0000
0000
0010
0100
0000
0010
0000
1000
0000
0000
0100
0010
0000
0001
0000
,  // measure 52
1000
0000
0000
0010
0001
0000
0010
0000
0100
0000
0000
0001
0010
0000
1000
0000
,  // measure 53
0001
0000
0000
0100
1000
0000
0010
0000
0100
0000
0000
1000
0001
0000
0010
0000
,  // measure 54
1000
0000
0000
0100
0010
0000
0001
0000
1000
0000
0000
0010
0100
0000
0001
0000
,  // measure 55
1000
0000
0000
0100
0001
0000
0010
0000
1000
0000
0000
0000
1001
0000
0000
0000
,  // measure 56
1000
0001
0100
0001
0010
0010
0100
0010
,  // measure 57
0001
1000
0010
2000
0000
0100
0100
3100
,  // measure 58
0010
0001
0100
1000
0100
0001
0010
0000
,  // measure 59
0110
1100
1010
0110
,  // measure 60
1000
0100
0010
0001
1000
1000
0001
1000
,  // measure 61
0010
1000
0001
0020
0000
0001
0001
0031
,  // measure 62
1000
0010
0001
0010
1000
0100
0010
0000
,  // measure 63
0110
0011
0101
0110
;

//---------------dance-single - ----------------
#NOTES:
     dance-single:
     :
     Medium:
     6:
     0.400502,0.510640,0.233626,0.200251,0.026700,355.000000,35.000000,30.000000,0.000000,0.000000,0.000000,0.400502,0.510640,0.233626,0.200251,0.026700,355.000000,35.000000,30.000000,0.000000,0.000000,0.000000:
// measure 0
0000
0000
0000
0000
,  // measure 1
0000
0000
0000
0000
,  // measure 2
0000
0000
0000
0000
,  // measure 3
0000
0000
0000
0000
,  // measure 4
1000
1000
0001
0001
,  // measure 5
1000
0100
0010
0001
1000
0000
0001
0000
,  // measure 6
0100
0100
0010
0010
,  // measure 7
0100
0001
0010
0100
1000
0000
0001
0000
,  // measure 8
0010
0010
0100
0100
,  // measure 9
0010
0001
1000
0010
0100
0000
0010
0000
,  // measure 10
1000
0000
1000
0000
1000
0000
0100
0010
,  // measure 11
0001
0001
0001
1001
,  // measure 12
2000
0100
3002
0103
,  // measure 13
1000
0100
0001
0100
1000
0000
0001
0000
,  // measure 14
0200
0310
0200
0301
,  // measure 15
1000
0100
0001
0100
1000
0000
0001
0000
,  // measure 16
0100
0101
0001
0101
,  // measure 17
0100
0001
0010
0100
,  // measure 18
1000
1010
0010
1010
,  // measure 19
1000
0100
1000
0000
0001
0100
0001
0000
,  // measure 20
2002
0000
0003
0100
3020
0230
0302
0020
,  // measure 21
0000
0000
0000
0000
0000
0000
0033
0000
0011
0000
1100
0000
0010
0200
0020
0000
,  // measure 22
0000
0000
0330
0000
1000
0100
1000
0000
0001
0000
0100
0000
1000
0000
0200
0000
,  // measure 23
0000
0000
0000
0000
0301
0010
0001
0000
1000
0000
0010
0000
0001
0000
0020
0000
,  // measure 24
0130
0000
0100
0000
0100
0001
1000
0001
0010
0000
0010
0000
0100
0000
1001
0000
,  // measure 25
0010
0000
0010
0000
0010
0000
0010
1000
0001
0000
1000
0000
0100
0000
1001
0000
,  // measure 26
0100
0000
0010
0000
1000
0100
1000
0000
0001
0000
0100
0000
1000
0000
0100
0000
,  // measure 27
0001
0000
0010
0000
0001
0100
0001
0000
1000
0000
0100
0000
0001
0000
0100
0000
,  // measure 28
1000
0001
1000
0001
0100
0010
0100
0010
,  // measure 29
1000
0100
1000
0100
0010
0001
0010
0001
,  // measure 30
1000
0001
1000
0001
0010
0100
0010
0100
,  // measure 31
1000
0010
1000
0010
0100
0001
0100
0001
,  // measure 32
1000
0100
0010
0001
1000
0001
1000
0001
,  // measure 33
1000
0010
0100
0001
1000
0001
1000
0001
,  // measure 34
1000
0100
0010
0001
1000
0010
0100
0001
,  // measure 35
1000
0001
0010
0100
1000
0000
1001
0000
,  // measure 36
0010
0000
0011
0000
0100
0010
1000
0000
,  // measure 37
0100
0000
0010
0001
0000
0001
0010
0000
,  // measure 38
0100
0000
1010
0000
0100
0001
0100
0000
,  // measure 39
0001
0000
0010
0100
0000
1000
0010
0000
,  // measure 40
0100
0000
1001
0000
1000
0100
1000
0000
,  // measure 41
0001
0100
0010
1000
0000
1000
0010
0000
,  // measure 42
1000
0000
1001
0000
0001
0010
0001
0000
,  // measure 43
1000
0010
0001
0010
,  // measure 44
2000
0100
3002
0100
2003
0100
3002
0100
,  // measure 45
2003
0100
3020
0100
0032
0100
0023
0100
,  // measure 46
2030
0100
3002
0100
2003
0100
3002
0100
,  // measure 47
2003
0010
3200
0001
0320
0001
0230
1300
,  // measure 48
1001
0000
1001
0000
0001
0100
0001
0000
,  // measure 49
1001
0000
1001
0000
1000
0100
1000
0000
,  // measure 50
1001
0000
1001
0000
0010
0100
0010
0000
,  // measure 51
1001
0000
1001
0000
0100
0010
0100
0000
,  // measure 52
1001
0000
1100
0000
0010
0100
0010
0000
,  // measure 53
0011
0000
1001
0000
0001
1000
0001
0000
,  // measure 54
1001
0000
1010
0000
0100
0010
0100
0000
,  // measure 55
0101
0000
1001
0000
0001
1000
0001
0000
,  // measure 56
1000
0000
1100
0000
0001
0100
0001
0000
,  // measure 57
1000
0100
0001
0100
0000
0100
1000
0000
,  // measure 58
1000
0000
1010
0000
0001
0100
0001
0000
,  // measure 59
0010
0100
1000
0001
0000
0001
1000
0000
,  // measure 60
0010
0000
0110
0000
0001
1000
0100
0000
,  // measure 61
1000
0001
0100
0001
0000
0001
1000
0000
,  // measure 62
0010
0000
0110
0000
0001
1000
0001
0000
,  // measure 63
0001
0100
1000
0100
;

//---------------dance-single - ----------------
#NOTES:
     dance-single:
     :
     Easy:
     3:
     0.267001,0.382980,0.260326,0.173551,0.000000,215.000000,39.000000,26.000000,0.000000,0.000000,0.000000,0.267001,0.382980,0.260326,0.173551,0.000000,215.000000,39.000000,26.000000,0.000000,0.000000,0.000000:
// measure 0
0000
0000
0000
0000
,  // measure 1
0000
0000
0000
0000
,  // measure 2
0000
0000
0000
0000
,  // measure 3
0000
0000
0000
0000
,  // measure 4
1001
0000
1100
0000
,  // measure 5
0010
0100
0010
0000
,  // measure 6
1001
0000
0101
0000
,  // measure 7
0010
0100
0010
0000
,  // measure 8
1001
0000
0110
0000
,  // measure 9
1000
0100
0010
0001
,  // measure 10
2000
0001
0000
3001
,  // measure 11
0002
0100
0000
0103
,  // measure 12
0110
0000
1001
0000
,  // measure 13
1000
0100
1000
0010
,  // measure 14
0110
0000
1001
0000
,  // measure 15
0001
0010
0001
0100
,  // measure 16
0020
1000
0000
1030
,  // measure 17
1000
0100
0010
0001
,  // measure 18
0200
0010
0000
0310
,  // measure 19
1000
0001
1000
0001
,  // measure 20
2002
0000
0000
0003
0200
0000
0000
3000
,  // measure 21
0020
0000
0000
0300
0002
0000
0000
0030
,  // measure 22
0200
0303
0011
1100
,  // measure 23
2020
3030
1100
0011
,  // measure 24
2002
3003
1100
0101
,  // measure 25
2002
3003
1010
0011
,  // measure 26
2002
0000
3003
0000
1000
0100
1000
0000
,  // measure 27
2002
0000
3003
0000
0001
0100
0001
0000
,  // measure 28
1000
1000
0001
0001
,  // measure 29
0100
0100
0001
0001
,  // measure 30
0010
0010
0100
0100
,  // measure 31
1000
1000
0100
0100
,  // measure 32
1000
0001
0100
0010
,  // measure 33
1000
0100
0010
0001
,  // measure 34
1000
0010
1000
0001
,  // measure 35
0010
0001
1000
1001
,  // measure 36
1000
0010
0100
0001
,  // measure 37
1000
1000
0001
0001
,  // measure 38
1000
0100
0010
0001
,  // measure 39
1000
1000
0001
0001
,  // measure 40
1000
0010
0100
0001
,  // measure 41
1000
0001
1000
0001
,  // measure 42
1000
0100
0010
0001
,  // measure 43
1000
0001
1000
0001
,  // measure 44
0120
0000
2030
0000
3002
0003
1001
0000
,  // measure 45
0210
0000
0302
0000
2003
3000
1001
0000
,  // measure 46
1000
0100
0011
1010
,  // measure 47
0001
0100
1010
0011
,  // measure 48
1000
1000
0001
0011
,  // measure 49
1000
1000
0010
1010
,  // measure 50
0001
0001
1000
1010
,  // measure 51
0001
0001
0010
0011
,  // measure 52
1000
0100
0010
1100
,  // measure 53
0001
0100
0010
0101
,  // measure 54
1000
0100
0001
0100
,  // measure 55
1000
0010
0001
0000
,  // measure 56
1000
0010
0100
0001
,  // measure 57
1000
1000
0001
0001
,  // measure 58
1000
0100
0010
0001
,  // measure 59
1000
1000
0001
0001
,  // measure 60
1000
0010
0100
0001
,  // measure 61
1000
0001
1000
0001
,  // measure 62
1000
0100
0010
0001
,  // measure 63
1000
0001
1000
0001
;
