#TITLE:Pound the Alarm;
#SUBTITLE:;
#ARTIST:Nicki Minaj;
#TITLETRANSLIT:;
#SUBTITLETRANSLIT:;
#ARTISTTRANSLIT:;
#GENRE:;
#CREDIT:;
#BANNER:[Round 3] - Pound the Alarm.png;
#BACKGROUND:[Round 3] - Pound the Alarm-bg.png;
#LYRICSPATH:;
#CDTITLE:;
#MUSIC:[Round 3] - Pound the Alarm.ogg;
#OFFSET:-1.812;
#SAMPLESTART:67.053;
#SAMPLELENGTH:15.360;
#SELECTABLE:YES;
#BPMS:0.000=125.000
,32.000=62.500
,34.000=125.000
,130.000=62.500
,132.000=125.000
;
#STOPS:
;
#BGCHANGES:;
#KEYSOUNDS:;
#ATTACKS:;

//---------------dance-single - ----------------
#NOTES:
     dance-single:
     :
     Hard:
     8:
     0.455,0.478,0.101,0.168,0.241,260.000,9.000,15.000,0.000,0.000,0.000,0.455,0.478,0.101,0.168,0.241,260.000,9.000,15.000,0.000,0.000,0.000: // measure 0
0000
0000
0000
0000
,  // measure 1
0000
0000
0000
0000
,  // measure 2
0000
0000
0000
0000
,  // measure 3
0000
0000
0000
0000
,  // measure 4
1000
0010
1000
0001
,  // measure 5
0010
0010
0100
0100
,  // measure 6
1000
0100
1000
0100
1000
0000
0000
0000
,  // measure 7
0001
1000
0001
1000
0001
0000
0100
0000
,  // measure 8
0220
0000
0000
0000
0000
0000
0330
0000
0010
0000
0000
0000
1000
0000
0000
0001
,  // measure 9
0000
0000
0010
0000
0100
0000
1000
0000
0001
0000
0001
0000
0100
0000
0000
0010
,  // measure 10
0000
0000
1000
0000
0001
0000
0010
0000
0100
0000
0100
0000
0010
0000
0000
0001
,  // measure 11
0000
0000
1000
0000
0010
0000
0100
0000
0001
0000
0000
0000
0100
0000
0000
0010
,  // measure 12
0000
0000
1000
0000
0001
0000
0010
0000
0100
0000
1000
0000
0001
0000
1000
0010
,  // measure 13
1000
0000
0001
0100
0000
0000
0001
0010
0100
0000
0010
0000
0100
0000
1000
0000
,  // measure 14
0001
0000
0001
0100
0000
0000
0010
0100
0010
0000
1000
0000
0001
0000
0010
0000
,  // measure 15
0100
0000
0100
1000
0000
0000
0001
0100
0000
0001
1000
0000
0001
0000
0010
0000
,  // measure 16
0001
0000
0010
0001
0000
0000
0010
0100
1000
0001
0000
0000
1001
0000
0000
0000
,  // measure 17
1000
0001
0000
0000
0001
0100
0000
0000
0010
1000
0010
0000
1000
0000
0100
0000
,  // measure 18
0010
0001
0000
0000
0011
0000
0000
0000
0001
1000
0000
0000
1001
0000
0000
0000
,  // measure 19
0001
0010
0000
0000
0010
0100
0000
0000
1000
0100
1000
0000
0001
0000
0100
0000
,  // measure 20
0010
1000
0000
0000
1001
0000
0000
0000
0001
0000
0000
0000
0100
0000
0000
0000
,  // measure 21
0001
0100
0001
0100
0010
0000
1000
0000
,  // measure 22
0010
1000
0010
1000
0001
0010
0001
0010
,  // measure 23
0100
0000
0010
0000
0100
0000
0010
0000
0100
1000
0100
1000
0100
1000
0100
1000
,  // measure 24
0100
1000
0100
1000
0100
0000
0000
0000
1000
0000
0010
0000
0100
0000
0001
0000
,  // measure 25
0100
0000
0010
0000
1000
0000
0001
0000
1000
0000
0000
0100
0000
0000
0001
0000
,  // measure 26
0200
0000
2300
0000
3001
0010
0100
1000
,  // measure 27
0100
0000
0010
0000
0001
0000
1000
0000
0001
0000
0000
0100
0000
0000
1000
0000
,  // measure 28
0200
0000
0302
0000
0103
0001
0100
0010
,  // measure 29
1000
0000
0010
0000
1000
0000
0001
0000
1000
0000
0000
0100
0000
0000
0001
0000
,  // measure 30
0200
0000
2300
0000
3010
0100
0001
1000
,  // measure 31
0001
0000
0000
0000
1001
0000
0000
0000
0001
0000
0000
0010
0000
0000
0100
0000
,  // measure 32
2000
0000
3002
0000
0203
0000
0000
0300
,  // measure 33
0220
0330
1000
1001
,  // measure 34
0001
0000
0000
0010
0000
0000
1000
0000
0010
0000
0001
0000
1000
0000
0001
0000
,  // measure 35
1000
0000
0000
0010
0000
0000
0001
0000
0010
0000
1000
0000
0001
0000
1000
0000
,  // measure 36
0001
0000
0000
0100
0000
0000
1000
0000
0100
0000
0001
0000
1000
0000
0001
0000
,  // measure 37
1000
0000
0010
0000
0100
0000
0001
0000
1000
0000
0001
1000
0001
0000
0000
0000
,  // measure 38
1000
0000
0000
0100
0000
0000
0001
0000
0100
0000
1000
0000
0001
0000
1000
0000
,  // measure 39
0001
0000
0000
0010
0000
0000
1000
0000
0010
0000
0001
0000
1000
0000
0001
0000
,  // measure 40
1000
0000
0000
0010
0000
0000
0001
0000
0010
0000
1000
0000
0001
0000
1000
0000
,  // measure 41
0001
0000
0010
0000
0100
0000
1000
0000
0001
0100
0010
1000
0001
0000
0000
0000
,  // measure 42
2002
0000
0000
0000
0000
3003
0000
0000
;

//---------------dance-single - ----------------
#NOTES:
     dance-single:
     :
     Medium:
     5:
     0.303,0.328,0.101,0.236,0.000,159.000,9.000,21.000,0.000,0.000,0.000,0.303,0.328,0.101,0.236,0.000,159.000,9.000,21.000,0.000,0.000,0.000: // measure 0
0000
0000
0000
0000
,  // measure 1
0000
0000
0000
0000
,  // measure 2
0000
0000
0000
0000
,  // measure 3
0000
0000
0000
0000
,  // measure 4
1000
0000
0010
0000
,  // measure 5
1000
0000
0001
0000
,  // measure 6
0010
0010
0010
0000
,  // measure 7
0100
0100
0100
0000
,  // measure 8
0110
0000
0100
1000
,  // measure 9
0001
0000
1000
0001
1000
0000
0001
0000
,  // measure 10
0100
0000
0010
0100
0010
0000
1000
0000
,  // measure 11
0010
0010
1000
0001
,  // measure 12
1000
0000
1000
0000
0001
0010
0100
0000
,  // measure 13
0020
0000
0130
0000
0100
1000
0001
0000
,  // measure 14
2000
0000
3001
0000
0001
0100
0010
1000
,  // measure 15
0010
0000
1010
0000
1000
0100
0010
0001
,  // measure 16
0010
0011
0002
0013
,  // measure 17
0020
0000
0230
0000
2300
0000
3001
1000
,  // measure 18
0001
1001
0002
0103
,  // measure 19
0200
0000
0320
0000
1030
0010
1000
0000
,  // measure 20
0001
1001
0001
0010
,  // measure 21
0001
0001
0010
0100
,  // measure 22
0010
0010
0100
1000
,  // measure 23
0001
0000
1000
0000
0010
0100
0010
0100
,  // measure 24
0010
0100
0010
0000
0100
0000
0001
0000
,  // measure 25
1000
0100
0010
0010
,  // measure 26
0020
0030
0001
0010
,  // measure 27
0001
1000
0010
0010
,  // measure 28
0020
0030
1000
0100
,  // measure 29
1000
0001
0100
0100
,  // measure 30
0020
0000
0030
0000
1000
0010
1000
0010
,  // measure 31
1000
0000
0000
0000
0001
1000
0001
1000
,  // measure 32
0001
0000
0010
0000
0200
0000
0000
0300
,  // measure 33
0220
0330
2002
3003
,  // measure 34
1000
0000
0100
0000
1000
0100
1000
0000
,  // measure 35
0001
0000
1000
0000
0001
1000
0001
0000
,  // measure 36
0100
0000
0001
0000
0100
0001
0100
0000
,  // measure 37
0010
0100
0220
0330
,  // measure 38
0010
0000
1000
0000
0010
1000
0010
0000
,  // measure 39
1000
0000
0001
0000
1000
0001
1000
0000
,  // measure 40
0001
0000
0010
0000
0001
0010
0001
0000
,  // measure 41
0010
0100
0220
0330
;

//---------------dance-single - ----------------
#NOTES:
     dance-single:
     :
     Easy:
     3:
     0.212,0.186,0.034,0.090,0.000,121.000,3.000,8.000,0.000,0.000,0.000,0.212,0.186,0.034,0.090,0.000,121.000,3.000,8.000,0.000,0.000,0.000: // measure 0
0000
0000
0000
0000
,  // measure 1
0000
0000
0000
0000
,  // measure 2
0000
0000
0000
0000
,  // measure 3
0000
0000
0000
0000
,  // measure 4
1000
0000
0001
0000
,  // measure 5
0010
0000
0000
0000
,  // measure 6
0100
0000
0100
0000
,  // measure 7
0010
0000
0010
0000
,  // measure 8
0100
0000
1000
0100
,  // measure 9
1000
0001
0001
1000
,  // measure 10
1000
0010
0010
0100
,  // measure 11
0001
0001
0100
0001
,  // measure 12
1000
1000
0001
0010
,  // measure 13
0001
0000
1000
0001
,  // measure 14
1000
0000
0010
1000
,  // measure 15
0010
0000
0100
0010
,  // measure 16
0100
0000
0001
0001
,  // measure 17
1000
1000
0100
0100
,  // measure 18
0100
0100
0010
0010
,  // measure 19
0001
0001
1000
1000
,  // measure 20
1000
1000
0020
0030
,  // measure 21
0010
0010
0200
0300
,  // measure 22
0100
0100
0001
0001
,  // measure 23
1000
1000
0001
1000
,  // measure 24
0001
1000
0100
0010
,  // measure 25
0001
1000
0010
0010
,  // measure 26
0010
0000
0010
0100
,  // measure 27
0001
1000
0100
0100
,  // measure 28
0100
0000
0010
0100
,  // measure 29
1000
0001
0100
0010
,  // measure 30
0100
0000
0010
1000
,  // measure 31
0010
0000
1000
0001
,  // measure 32
1000
0100
0100
0000
,  // measure 33
0010
0000
0110
0000
,  // measure 34
0100
1000
0200
0300
,  // measure 35
1000
0001
2000
3000
,  // measure 36
0010
1000
0020
0030
,  // measure 37
0100
0001
1001
0000
,  // measure 38
1000
0100
2000
3000
,  // measure 39
0001
0010
0002
0003
,  // measure 40
1000
0010
2000
3000
,  // measure 41
0010
0100
0110
0000
;

//---------------dance-single - ----------------
#NOTES:
     dance-single:
     :
     Beginner:
     1:
     0.115,0.140,0.000,0.000,0.000,72.000,0.000,0.000,0.000,0.000,0.000,0.115,0.140,0.000,0.000,0.000,72.000,0.000,0.000,0.000,0.000,0.000: // measure 0
0000
0000
0000
0000
,  // measure 1
0000
0000
0000
0000
,  // measure 2
0000
0000
0000
0000
,  // measure 3
0000
0000
0000
0000
,  // measure 4
1000
0000
0000
0000
,  // measure 5
1000
0000
1000
0000
,  // measure 6
0001
0000
0000
0000
,  // measure 7
0001
0000
0001
0000
,  // measure 8
0100
0000
0010
0000
,  // measure 9
1000
1000
1000
0000
,  // measure 10
0001
0001
0001
0000
,  // measure 11
0010
0000
0100
0000
,  // measure 12
1000
0000
0001
0001
,  // measure 13
0001
0000
1000
1000
,  // measure 14
1000
0000
0010
0000
,  // measure 15
0010
0000
0100
0000
,  // measure 16
0100
0000
0001
0000
,  // measure 17
0001
0000
0010
0010
,  // measure 18
0010
0000
0100
0000
,  // measure 19
0100
0000
1000
1000
,  // measure 20
1000
0000
0001
0000
,  // measure 21
0000
0000
1000
0000
,  // measure 22
0000
0000
0001
0000
,  // measure 23
1000
0000
0001
0000
,  // measure 24
0000
0000
1000
0000
,  // measure 25
0010
0000
0100
0000
,  // measure 26
0000
0000
0010
0000
,  // measure 27
0100
0000
0001
0000
,  // measure 28
0000
0000
1000
0000
,  // measure 29
0100
0000
0010
0000
,  // measure 30
0000
0000
0001
0000
,  // measure 31
1000
0000
1000
0000
,  // measure 32
0001
0000
0100
0000
,  // measure 33
0000
0000
0000
0000
,  // measure 34
0010
0000
0010
0000
,  // measure 35
1000
0000
1000
0000
,  // measure 36
0001
0000
0001
0000
,  // measure 37
1000
0000
0001
0000
,  // measure 38
1000
0000
1000
0000
,  // measure 39
0100
0000
0100
0000
,  // measure 40
0010
0000
0010
0000
,  // measure 41
0001
0000
1000
0000
;
