#TITLE:Tell Me I'm Dreaming;
#SUBTITLE:;
#ARTIST:Sanxion7;
#TITLETRANSLIT:;
#SUBTITLETRANSLIT:;
#ARTISTTRANSLIT:;
#CREDIT:brunobg24;
#BANNER:[Round 2] - Tell Me I'm Dreaming.png;
#BACKGROUND:[Round 2] - Tell Me I'm Dreaming-bg.png;
#JACKET:[Round 2] - Tell Me I'm Dreaming-jacket.png
#LYRICSPATH:;
#CDTITLE:;
#MUSIC:[Round 2] - Tell Me I'm Dreaming.mp3;
#OFFSET:-0.045;
#SAMPLESTART:42.892;
#SAMPLELENGTH:13.714;
#SELECTABLE:YES;
#BPMS:0.000=140.000;
#STOPS:;
#BGCHANGES:;

//---------------dance-single - ----------------
#NOTES:
     dance-single:
     :
     Hard:
     10:
     0.838,1.000,0.302,1.000,0.544: // measure 1
0000
0000
0000
0000
,  // measure 2
0000
0000
0000
0000
,  // measure 3
0000
0000
0000
0000
,  // measure 4
0000
0000
0000
0000
,  // measure 5
0000
0000
0000
0000
,  // measure 6
1000
0000
0000
0000
0001
0100
0001
0100
0000
0000
0000
0000
0001
0000
0010
0000
,  // measure 7
0100
0000
0000
0000
1000
0010
1000
0010
0100
0000
0000
0000
0001
0000
1000
0000
,  // measure 8
0100
0000
0000
0000
0010
0001
0010
0001
0000
0000
0000
0000
1000
0000
0010
0000
,  // measure 9
1000
0000
0100
0000
0010
0000
0001
0000
1000
0000
0010
0000
0100
0001
0100
0001
,  // measure 10
0010
0000
0000
0000
0000
0000
0000
0000
0100
0000
0000
0000
0000
0000
0000
0000
1000
0000
0000
0000
0001
0000
0000
0000
1000
0000
0000
0000
0001
0000
0000
0000
2000
3000
0000
0000
0020
0030
0000
0000
0200
0300
0000
0000
0020
0030
0000
0000
2000
3000
0000
0000
0000
0000
0000
0000
0001
0000
0000
0000
0000
0000
0000
0000
,  // measure 11
0010
0000
0000
0000
0000
0000
0000
0000
0000
0000
0000
0000
0000
0000
0000
0000
0001
0000
0000
0000
1000
0000
0000
0000
0200
0300
0000
0000
1000
0000
0000
0000
0010
0000
0000
0000
0000
0000
0000
0000
0200
0300
0000
0000
0002
0003
0000
0000
0200
0300
0000
0000
0000
0000
0000
0000
0010
0000
0000
0000
0000
0000
0000
0000
,  // measure 12
1000
0000
0000
0000
0000
0000
0000
0000
0100
0000
0000
0000
0000
0000
0000
0000
0020
0030
0000
0000
0002
0003
0000
0000
0010
0000
0000
0000
0001
0000
0000
0000
0000
0000
0000
0000
0000
0000
0000
0000
0000
0000
0000
0000
0200
0300
0000
0000
2000
3000
0000
0000
0200
0300
0000
0000
2000
3000
0000
0000
0200
0300
0000
0000
,  // measure 13
0010
0000
0000
0000
0000
0000
0000
0000
1000
0000
0000
0000
0000
0000
0000
0000
0002
0003
0000
0000
2000
3000
0000
0000
0010
0000
0000
0000
0000
0000
0000
0000
0100
0000
0000
0000
0000
0000
0000
0000
0001
0000
0000
0000
2000
3000
0000
0000
0020
0030
0000
0000
2000
3000
0000
0000
0020
0030
0000
0000
2000
3000
0000
0000
,  // measure 14
0100
0000
0000
0000
0000
0000
0000
0000
0010
0000
0000
0000
0000
0000
0000
0000
0001
0000
0000
0000
1000
0000
0000
0000
0002
0003
0000
0000
2000
3000
0000
0000
0020
0030
0000
0000
0000
0000
0000
0000
0000
0000
0000
0000
0000
0000
0000
0000
1000
0000
0000
0000
0000
0000
0000
0000
0010
0000
0000
0000
0000
0000
0000
0000
,  // measure 15
0100
0000
0000
0000
0000
0000
0000
0000
0001
0000
0000
0000
0000
0000
0000
0000
0020
0030
0000
0000
0002
0003
0000
0000
0020
0030
0000
0000
0002
0003
0000
0000
2000
3000
0000
0000
0000
0000
0000
0000
0000
0000
0000
0000
0020
0030
0000
0000
2000
3000
0000
0000
0200
0300
0000
0000
2000
3000
0000
0000
0000
0000
0000
0000
,  // measure 16
0001
0000
0000
0000
0000
0000
0000
0000
1000
0000
0000
0000
0000
0000
0000
0000
0200
0300
0000
0000
0010
0000
0000
0000
0100
0000
0000
0000
0010
0000
0000
0000
0000
0000
0000
0000
0000
0000
0000
0000
0000
0000
0000
0000
0002
0003
0000
0000
2000
3000
0000
0000
0000
0000
0000
0000
0002
0003
0000
0000
0200
0300
0000
0000
,  // measure 17
0002
0003
0000
0000
0000
0000
0000
0000
0010
0000
0000
0000
0000
0000
0000
0000
0000
0000
0000
0000
0020
0030
0000
0000
0100
0000
0000
0000
0000
0000
0000
0000
1000
0000
0000
0000
0000
0000
0000
0000
0200
0300
0000
0000
0020
0030
0000
0000
0200
0300
0000
0000
0000
0000
0000
0000
2000
3000
0000
0000
0002
0003
0000
0000
,  // measure 18
2000
3000
0000
0000
0000
0000
0000
0000
0010
0000
0000
0000
0000
0000
0000
0000
0100
0000
0000
0000
0010
0000
0000
0000
0100
0000
0000
0000
0010
0000
0000
0000
2000
3000
0000
0000
0002
0003
0000
0000
0200
0300
0000
0000
0002
0003
0000
0000
0010
0000
0000
0000
0000
0000
0000
0000
0100
0000
0000
0000
0000
0000
0000
0000
,  // measure 19
1000
0000
0000
0000
0000
0000
0000
0000
0000
0000
0000
0000
0000
0000
0000
0000
0001
0000
0000
0000
1000
0000
0000
0000
0002
0003
0000
0000
1000
0000
0000
0000
0001
0000
0000
0000
0000
0000
0000
0000
0200
0300
0000
0000
0020
0030
0000
0000
0200
0300
0000
0000
0000
0000
0000
0000
0001
0000
0000
0000
0000
0000
0000
0000
,  // measure 20
1000
0000
0000
0000
0000
0000
0000
0000
0000
0000
0000
0000
0000
0000
0000
0000
0002
0003
0000
0000
0200
0300
0000
0000
0001
0000
0000
0000
0100
0000
0000
0000
0000
0000
0000
0000
0000
0000
0000
0000
0000
0000
0000
0000
0020
0030
0000
0000
2000
3000
0000
0000
0020
0030
0000
0000
2000
3000
0000
0000
0200
0300
0000
0000
,  // measure 21
0010
0000
0000
0000
0000
0000
0000
0000
0001
0000
0000
0000
0000
0000
0000
0000
2000
3000
0000
0000
0020
0030
0000
0000
1000
0000
0000
0000
0000
0000
0000
0000
0001
0000
0000
0000
0000
0000
0000
0000
1000
0000
0000
0000
0200
0300
0000
0000
2000
3000
0000
0000
0200
0300
0000
0000
0020
0030
0000
0000
0002
0003
0000
0000
,  // measure 22
0010
0000
0000
0000
0000
0000
0000
0000
0000
0000
0000
0000
0000
0000
0000
0000
0001
0000
0000
0000
0100
0000
0000
0000
0002
0003
0000
0000
2000
3000
0000
0000
0200
0300
0000
0000
0000
0000
0000
0000
0000
0000
0000
0000
0000
0000
0000
0000
0010
0000
0000
0000
0000
0000
0000
0000
0001
0000
0000
0000
0000
0000
0000
0000
,  // measure 23
1000
0000
0000
0000
0000
0000
0000
0000
0000
0000
0000
0000
0000
0000
0000
0000
0002
0003
0000
0000
2000
3000
0000
0000
0020
0030
0000
0000
2000
3000
0000
0000
0001
0000
0000
0000
0000
0000
0000
0000
0000
0000
0000
0000
2000
3000
0000
0000
0200
0300
0000
0000
0020
0030
0000
0000
0002
0003
0000
0000
0000
0000
0000
0000
,  // measure 24
0100
0000
0000
0000
0000
0000
0000
0000
0000
0000
0000
0000
0000
0000
0000
0000
0020
0030
0000
0000
0200
0300
0000
0000
0010
0000
0000
0000
0100
0000
0000
0000
0000
0000
0000
0000
0000
0000
0000
0000
0000
0000
0000
0000
0002
0003
0000
0000
2000
3000
0000
0000
0000
0000
0000
0000
2000
3000
0000
0000
0200
0300
0000
0000
,  // measure 25
0020
0030
0000
0000
0000
0000
0000
0000
0100
0000
0000
0000
0000
0000
0000
0000
0000
0000
0000
0000
0000
0000
0000
0000
1000
0000
0000
0000
0000
0000
0000
0000
0001
0000
0000
0000
1000
0000
0000
0000
0001
0000
0000
0000
1000
0000
0000
0000
0001
0000
0000
0000
1000
0000
0000
0000
0001
0000
0000
0000
1000
0000
0000
0000
,  // measure 26
0001
0000
0101
0000
1010
0010
1000
0100
,  // measure 27
0000
0011
0000
0001
1000
0001
0100
0010
,  // measure 28
1010
0000
0101
0000
0011
0010
0100
1000
,  // measure 29
0000
1001
0000
0110
0100
0001
0010
0000
,  // measure 30
1001
0000
0110
0000
1010
0010
0100
0001
,  // measure 31
0000
0011
0000
0010
0100
1000
0001
1000
,  // measure 32
1010
0000
0110
0000
0101
0001
0010
0100
,  // measure 33
0000
1100
0000
1001
0001
0100
0010
0000
,  // measure 34
1001
0000
0011
0000
1100
1000
0001
0010
,  // measure 35
0000
0101
0000
1010
1000
0010
0100
0001
,  // measure 36
0011
0000
1001
0000
1010
1000
0001
0100
,  // measure 37
0000
0101
0000
0011
0010
0100
1000
0000
,  // measure 38
1100
0000
0110
0000
0011
0010
0001
0100
,  // measure 39
0000
1010
0000
0101
0001
1000
0010
1000
,  // measure 40
0100
0000
0011
0001
1000
0010
0100
0001
,  // measure 41
0000
0000
0011
0000
0000
0000
1010
0000
1000
0000
0001
0000
1000
0001
1000
0001
,  // measure 42
1000
0000
0010
0000
0100
0001
0100
0010
0100
0000
0000
0000
0001
0100
0010
0100
,  // measure 43
0001
0000
1000
0000
0010
1000
0100
1000
0010
0000
1000
0000
0001
0000
0100
0000
,  // measure 44
0001
0000
0000
0000
0010
0100
1000
0100
0000
0000
0000
0000
0010
0000
0001
1000
,  // measure 45
0001
0000
0100
0000
0010
1000
0010
0000
1000
0000
0000
0100
0000
0000
0010
0000
,  // measure 46
0001
0000
1000
0000
0001
0100
0010
0100
0010
0000
0000
0000
1000
0001
0100
0001
,  // measure 47
0010
0000
0001
0000
1000
0100
0010
0100
1000
0000
0001
0000
0000
0000
0100
0000
,  // measure 48
0010
0000
0000
0000
1000
0010
0100
0001
0000
0000
0000
0000
1000
0000
0001
0100
,  // measure 49
0001
0000
0010
0000
0100
1000
0100
0000
1000
0000
0001
0010
0001
0000
1000
0001
,  // measure 50
1000
0000
0000
0000
0000
0000
0000
0000
0010
0000
0000
0000
0000
0000
0000
0000
0100
0000
0000
0000
0001
0000
0000
0000
0010
0000
0000
0000
0100
0000
0000
0000
2000
3000
0000
0000
0002
0003
0000
0000
2000
3000
0000
0000
0002
0003
0000
0000
0100
0000
0000
0000
0010
0000
0000
0000
0100
0000
0000
0000
0010
0000
0000
0000
,  // measure 51
0100
0000
0000
0000
0000
0000
0000
0000
0001
0000
0000
0000
0000
0000
0000
0000
1000
0000
0000
0000
0001
0000
0000
0000
0020
0030
0000
0000
0100
0000
0000
0000
1000
0000
0000
0000
0000
0000
0000
0000
0002
0003
0000
0000
2000
3000
0000
0000
0002
0003
0000
0000
0000
0000
0000
0000
0100
0000
0000
0000
0000
0000
0000
0000
,  // measure 52
0010
0000
0000
0000
0000
0000
0000
0000
0000
0000
0000
0000
0000
0000
0000
0000
1000
0000
0000
0000
0002
0003
0000
0000
0200
0300
0000
0000
0010
0000
0000
0000
0000
0000
0000
0000
0000
0000
0000
0000
0000
0000
0000
0000
2000
3000
0000
0000
0002
0003
0000
0000
0020
0030
0000
0000
0002
0003
0000
0000
0020
0030
0000
0000
,  // measure 53
0100
0000
0000
0000
0000
0000
0000
0000
1000
0000
0000
0000
0000
0000
0000
0000
0020
0030
0000
0000
0200
0300
0000
0000
0010
0000
0000
0000
0000
0000
0000
0000
1000
0000
0000
0000
0000
0000
0000
0000
0100
0000
0000
0000
0020
0030
0000
0000
0002
0003
0000
0000
0020
0030
0000
0000
0200
0300
0000
0000
0020
0030
0000
0000
,  // measure 54
0001
0000
0000
0000
0000
0000
0000
0000
0000
0000
0000
0000
0000
0000
0000
0000
1000
0000
0000
0000
0010
0000
0000
0000
2000
3000
0000
0000
0020
0030
0000
0000
2000
3000
0000
0000
0000
0000
0000
0000
0000
0000
0000
0000
0000
0000
0000
0000
0001
0000
0000
0000
1000
0000
0000
0000
0100
0000
0000
0000
1000
0000
0000
0000
,  // measure 55
0001
0000
0000
0000
0000
0000
0000
0000
1000
0000
0000
0000
0000
0000
0000
0000
0020
0030
0000
0000
0200
0300
0000
0000
0020
0030
0000
0000
0200
0300
0000
0000
0002
0003
0000
0000
0000
0000
0000
0000
0000
0000
0000
0000
2000
3000
0000
0000
0200
0300
0000
0000
2000
3000
0000
0000
0020
0030
0000
0000
0000
0000
0000
0000
,  // measure 56
0100
0000
0000
0000
0000
0000
0000
0000
0000
0000
0000
0000
0000
0000
0000
0000
0001
0000
0000
0000
0020
0030
0000
0000
0100
0000
0000
0000
1000
0000
0000
0000
0000
0000
0000
0000
0000
0000
0000
0000
0000
0000
0000
0000
0002
0003
0000
0000
0200
0300
0000
0000
0000
0000
0000
0000
0200
0300
0000
0000
0020
0030
0000
0000
,  // measure 57
0200
0300
0000
0000
0000
0000
0000
0000
0001
0000
0000
0000
0000
0000
0000
0000
1000
0000
0000
0000
0020
0030
0000
0000
1000
0000
0000
0000
0000
0000
0000
0000
0001
0000
0000
0000
0000
0000
0000
0000
0100
0000
0000
0000
0002
0003
0000
0000
2000
3000
0000
0000
0001
0000
0000
0000
2000
3000
0000
0000
0002
0003
0000
0000
,  // measure 58
0020
0030
0000
0000
0000
0000
0000
0000
0001
0000
0000
0000
0000
0000
0000
0000
0100
0000
0000
0000
0000
0000
0000
0000
0010
0000
0000
0000
0000
0000
0000
0000
0000
0000
0000
0000
0000
0000
0000
0000
1000
0000
0000
0000
0000
0000
0000
0000
0000
0000
0000
0000
0000
0000
0000
0000
0001
0000
0000
0000
0000
0000
0000
0000
,  // measure 59
0010
0001
1000
0100
0010
0000
0000
0001
,  // measure 60
1000
0001
0100
0010
0000
1000
0000
0100
,  // measure 61
0010
0001
0010
0100
1000
0000
0000
0001
,  // measure 62
1000
0010
0100
0001
0000
0010
0000
0100
,  // measure 63
1000
0001
1000
0010
0100
0000
0000
0001
,  // measure 64
1000
0100
0010
0100
0000
1000
0000
0010
,  // measure 65
0100
0010
1000
0001
0200
0000
0000
0000
,  // measure 66
0320
0000
0000
0000
,  // measure 67
0000
0000
0000
0000
,  // measure 68
0030
0000
0000
0000
;

//---------------dance-single - ----------------
#NOTES:
     dance-single:
     :
     Medium:
     7:
     0.403,0.405,0.147,0.009,0.000:
0000
0000
0000
0000
,
0000
0000
0000
0000
,
0000
0000
0000
0000
,
0000
0000
0000
0000
,
0000
0000
0000
0000
,
1000
0000
0001
0100
0000
0100
0010
0000
,
1000
0100
1000
0001
0000
0001
0100
0000
,
0010
0000
1000
0100
0000
0100
0010
0000
,
0001
1000
0001
0100
0010
0100
0010
0100
,
0001
0000
1000
0010
0000
0010
0100
0000
,
0001
0000
1000
0001
0000
1000
0100
0000
,
1000
0000
0010
0100
0000
0100
0001
0000
,
0010
0100
0000
1000
0001
1000
0010
0100
,
0001
0000
1000
0010
0000
0010
0100
0000
,
0001
0000
1000
0001
1000
0000
0010
0100
,
0010
0000
1000
0010
0000
0010
0100
0000
,
0001
0010
0000
0100
1000
0010
1000
0001
,
0100
0000
0010
1000
0000
1000
0100
0000
,
0010
0001
0000
1000
0001
0000
0100
0010
,
0100
0000
0001
0010
0000
0001
1000
0001
,
1000
0000
0010
0100
0000
0001
0100
0010
,
1000
0000
0100
0010
0000
0010
0001
1000
,
0001
0000
1000
0010
1000
0000
0001
1000
,
0001
0000
0100
0010
1000
0000
0100
0010
,
0001
1000
0000
1000
0001
0100
0010
0100
,
0001
0000
1001
0000
1000
0000
0010
0100
,
0000
0100
0000
0001
0000
1000
0000
0010
,
1000
0000
1001
0000
0101
0000
0001
0010
,
0000
0100
0000
0010
0000
0001
1000
0000
,
1100
0000
0110
0000
0011
0000
1000
0010
,
0000
0100
0000
0001
0000
1000
0000
0010
,
0100
0000
0011
0000
0001
0100
0000
0110
,
0000
1000
0000
0010
0000
0100
0001
0000
,
0100
0000
0110
0000
1010
0000
0001
0100
,
0000
0010
0000
1000
0000
0100
0000
0010
,
0001
0000
0101
0000
1001
0000
0001
0100
,
0000
0010
1000
0010
0000
0100
0001
0000
,
0110
0000
1001
0000
0110
0000
0010
1000
,
0000
0001
0000
0100
0000
0010
0000
1000
,
0100
0000
0010
0001
1000
0001
0000
0100
,
0000
0110
0000
1010
0000
0001
0100
0000
,
0001
0000
0010
0100
0000
0010
0001
0000
,
1000
0000
0001
1000
0000
0010
0100
0000
,
0001
0000
1000
0100
0000
0010
0001
0000
,
1000
0000
0010
1000
0000
0001
0100
0000
,
0010
0000
1000
0010
0000
0100
0010
0000
,
1000
0000
0001
0100
0000
0010
0100
0000
,
0001
0000
1000
0010
0000
1000
0100
0000
,
0010
0000
0001
0100
0000
0001
0010
0100
,
1000
0000
0001
0100
0010
0100
0001
0000
,
1000
0100
1000
0000
0010
1000
0010
0000
,
0100
0000
0001
0010
0000
0010
0100
0000
,
1000
0001
0000
0100
0001
0100
0010
0000
,
1000
0000
0001
0100
0000
0100
0010
0000
,
1000
0000
0100
0010
0000
0010
0001
0000
,
0100
0000
0001
0010
0000
0010
0100
0000
,
1000
0001
0000
0100
0010
0100
0010
1000
,
0010
0000
0000
1000
0000
0001
0000
0010
,
0000
0100
0000
1000
0001
0000
0000
0000
,
1000
0000
0100
0010
0000
0001
0000
0100
,
0000
0010
0000
1000
0001
0000
0000
0000
,
1000
0000
0001
0010
0000
0100
0000
0010
,
0000
0001
0000
1000
0001
0000
0000
0000
,
0010
0000
0100
1000
0000
0001
0000
0100
,
0000
0010
0000
1000
0100
0000
0000
0000
,
0020
0000
0000
0000
,
0000
0000
0000
0000
,
0030
0000
0000
0000
;

//---------------dance-single - ----------------
#NOTES:
     dance-single:
     :
     Easy:
     4:
     0.190,0.260,0.000,0.009,0.000:
0000
0000
0000
0000
,
0000
0000
0000
0000
,
0000
0000
0000
0000
,
0000
0000
0000
0000
,
0000
0000
0000
0000
,
1000
0000
0000
0001
0000
0000
1000
0000
,
0010
0000
0000
0100
0000
0000
0010
0000
,
1000
0000
0000
0100
0000
0000
1000
0000
,
0001
0000
0000
0010
0000
0000
0001
0000
,
1000
0000
0000
1000
0000
0000
0000
0000
,
0001
0000
0000
0001
0000
0000
0000
0000
,
0100
0000
0000
0100
0000
0000
0000
0000
,
0010
0000
0000
0010
0000
0000
0010
0000
,
1000
0000
0000
1000
0000
0000
0000
0000
,
0010
0000
0000
0010
0000
0000
0000
0000
,
0100
0000
0000
0100
0000
0000
0000
0000
,
0001
0000
0000
0001
0000
0000
0001
0000
,
1000
0000
0010
0000
,
0100
0000
0001
0000
,
0010
0000
0100
0000
,
1000
0000
0001
0000
,
1000
0000
0010
0000
,
0100
0000
0010
0000
,
1000
0000
0001
0000
,
0100
0000
0001
0001
,
1000
0010
1000
0001
,
0100
0001
1000
0010
,
1000
0100
0010
0100
,
1000
0001
0010
0100
,
1000
0001
0100
0001
,
1000
0010
1000
0010
,
0100
0001
1000
0100
,
1000
0100
0010
0001
,
0100
0001
0010
0001
,
0100
0010
1000
0001
,
0100
0001
1000
0010
,
0100
0001
0010
0100
,
1000
0001
0100
0010
,
1000
0010
1000
0001
,
0100
0010
0100
0001
,
0010
0100
1000
0001
,
1000
0000
0000
1000
0000
0000
0000
0000
,
0010
0000
0000
0010
0000
0000
0000
0000
,
0100
0000
0000
0100
0000
0000
0000
0000
,
0001
0000
0000
0001
0000
0000
0000
0000
,
0010
0000
0000
0010
0000
0000
0000
0000
,
0100
0000
0000
0100
0000
0000
0000
0000
,
1000
0000
0000
1000
0000
0000
0000
0000
,
0001
0000
0000
0001
0000
0000
0000
0000
,
1000
0000
0010
0000
,
1000
0000
0100
0000
,
0010
0000
0001
0000
,
0100
0000
0010
0000
,
1000
0000
0001
0000
,
0100
0000
0001
0000
,
1000
0000
0010
0000
,
1000
0000
0100
0010
,
0100
0000
0000
0000
,
1000
0000
0000
0000
,
0001
0000
0000
0000
,
0100
0000
0000
0000
,
0010
0000
0000
0000
,
1000
0000
0000
0000
,
0001
0000
0000
0000
,
1000
0000
0000
0000
,
0020
0000
0000
0000
,
0000
0000
0000
0000
,
0030
0000
0000
0000
;
