#TITLE:ちゅるりちゅるりら;
#SUBTITLE:;
#ARTIST:でんぱ組.inc;
#TITLETRANSLIT:Chururi Chururi Ra;
#SUBTITLETRANSLIT:;
#ARTISTTRANSLIT:Denpagumi.inc;
#GENRE:;
#CREDIT:;
#BANNER:chururi-bn.png;
#BACKGROUND:chururi-bg.png;
#LYRICSPATH:;
#CDTITLE:loodeecdtitle.png;
#MUSIC:Chururi Chururi Ra.ogg;
#OFFSET:-0.067;
#SAMPLESTART:108.050;
#SAMPLELENGTH:14.600;
#SELECTABLE:YES;
#DISPLAYBPM:100.000:200.000;
#BPMS:0.000=200.000,22.021=-200.002,24.000=200.000,143.000=300.000,147.000=200.000,313.000=100.000,329.000=200.000;
#STOPS:22.000=0.287
,143.000=0.100
,144.000=0.100
,145.000=0.050
,145.500=0.050
,146.000=0.050
,146.500=0.050
,197.000=0.300
,200.000=0.300
,387.000=0.300
,390.000=0.300
;
#BGCHANGES:;
#KEYSOUNDS:;

//---------------dance-single - Loodee----------------
#NOTES:
     dance-single:
     Loodee:
     Challenge:
     13:
     1.000,1.000,0.775,0.850,0.589:
0000
0000
0000
0000
,
0000
0000
0000
0000
,
1100
0000
0000
0000
1100
0000
1000
0100
0010
0000
0001
0000
0100
0000
0010
0000
,
0101
0000
0000
0000
0101
0000
0000
0001
1000
0000
0100
0010
0100
0000
1000
0000
,
1001
0000
0000
0000
1001
0000
0000
0001
0100
0000
0010
0000
0100
0000
0001
0000
,
0012
0000
0000
0000
0000
0000
0000
0000
1003
0000
0000
0000
0000
0000
0000
0000
0012
0000
0000
0000
0000
0000
0000
0000
1003
0000
0000
0000
0000
0000
0000
0000
1001
0000
0000
0000
0000
0000
0000
0000
0000
0000
0000
0000
0000
0000
0000
0000
M0M0
M0M0
M0M0
0000
0000
0000
0000
0000
0000
0000
0000
0000
0000
0000
0000
0000
,
0000
0000
0000
1010
,
1010
0000
1000
0001
0010
0000
0100
0000
0010
0000
0001
0000
1100
0000
0000
0000
,
1100
0000
0100
1000
0010
0000
0100
0001
0010
0000
0100
0000
1001
0000
0000
0001
,
0010
0000
0100
0000
0110
0000
0000
0010
0001
0000
0100
0000
0101
0000
0000
0001
,
1000
0000
0100
0000
2002
0000
0000
0000
0000
0000
0000
3003
0001
0000
0000
0000
,
0001
0000
0002
0000
0000
1003
0200
0300
,
0020
0000
0030
0000
0002
0000
0003
0000
0400
0000
0000
0000
0310
0000
1000
0100
,
1000
0000
0001
0000
0010
0000
0100
0010
0100
0000
0010
0000
0001
0000
0100
0000
,
1000
0000
0100
0000
0002
0000
0000
0000
0013
0000
0100
0000
2200
0000
0000
3300
,
2002
0000
0000
3003
0010
0000
2002
0000
0000
3003
0001
0000
0101
0000
0100
0000
,
0101
0000
0001
0000
1000
0100
0010
0001
1000
0100
0010
0001
1000
0000
0100
1000
,
0001
0000
0100
0000
0001
0000
0010
0001
0010
0000
0100
0000
0020
0000
0000
0000
,
0130
0000
0010
0000
2000
0000
3020
0000
0032
0000
1003
0000
2002
0000
0000
3003
,
0022
0000
0000
0033
0010
0000
2002
0000
0000
3003
1000
0000
1010
0000
0010
0000
,
0110
0000
0100
0000
0001
0100
0010
1000
0001
0100
0010
1000
0010
0000
1000
0000
,
0100
0000
0000
0010
0000
0000
0001
0000
0000
1000
0010
1000
0010
0000
0000
0100
0000
0000
0001
0000
0000
0010
0000
0000
,
0100
0000
0000
0010
0000
0000
0001
0000
0000
1000
0100
1000
0100
0000
0000
0010
0000
0000
0100
0000
0000
1000
0000
0000
,
0010
0100
0001
0100
1000
0100
0002
0000
,
0000
0000
0023
0000
0130
0000
1000
0000
0001
0000
0100
0010
1000
0000
0100
0000
,
0010
0000
0000
0001
0000
0000
0010
0000
0000
0001
0100
0001
0100
0000
0000
0001
0000
0000
1000
0000
0000
0010
0000
0000
,
0100
0000
0000
0010
0000
0000
1000
0000
0000
0001
0010
0001
0010
0000
0000
0001
0000
0000
1001
0000
0000
0000
0000
0000
,
1000
0000
0000
0000
0000
0000
0101
0000
0000
0000
0000
0000
0100
0000
0000
0001
0000
0000
1001
0000
0000
0000
1100
0000
,
0000
0000
0110
0000
0000
0000
0022
0000
0000
0000
0000
0000
0000
0000
0000
0033
0000
0000
1000
0000
0000
0100
0000
0000
,
0010
0001
1000
0010
0100
0001
0100
0001
,
0010
0100
0010
0001
1000
0010
1000
0001
,
0010
0000
0001
0000
1000
0000
0001
0000
0100
0000
0001
0000
1000
0000
0010
0100
,
0010
0000
1000
0000
0001
0010
0100
0010
0001
1000
0010
1000
0001
0000
1000
0000
,
0010
0100
0001
0010
0001
0010
0100
0010
,
0001
0000
1000
0000
0010
0000
0100
0000
0010
0000
1000
0000
0100
0000
1000
0001
,
1000
0010
0100
0001
0001
0010
0011
0000
,
0110
0000
1001
00M0
0M00
00M0
1001
0000
,
0002
0000
0000
0000
0000
0000
0000
0000
0000
0000
0000
0000
0000
0000
0000
0003
1100
0000
0000
0000
0000
0000
0000
0000
0000
0000
0000
0000
0000
0000
0000
0000
0002
0000
0000
0000
0000
0000
0000
0000
0000
0000
0000
0000
0000
0000
0000
0003
1010
0000
0000
0000
0000
0000
0000
0000
1000
0000
0000
0000
0000
0000
0000
0000
,
1100
0000
0000
0000
0000
0000
0000
0000
0100
0000
0000
0000
0000
0000
0000
0000
0110
0000
0000
0000
0000
0000
0000
0000
0000
0000
0000
0000
0000
0000
0000
0000
0002
0000
0000
0000
0000
0000
0000
0000
0000
0000
0000
0000
0000
0000
0000
0003
1000
0000
0000
0000
0000
0000
0000
0000
0010
0000
0000
0000
0000
0000
0000
0000
,
0100
0001
0100
0001
1000
0000
0100
0000
0010
0001
0010
0001
0100
0000
0010
0000
,
0100
0000
1000
0000
0200
0000
0000
0000
0002
0000
0000
0303
0001
0000
0000
0000
,
1100
0001
1010
0101
,
0011
0000
0000
0000
1000
0100
0010
0100
1000
0010
0100
0001
0100
0000
0010
0000
,
1000
0010
0002
0000
2003
0000
3200
0010
,
0310
1000
1000
0001
0001
0100
0101
0000
,
2000
0000
0000
0000
0000
0000
0000
0000
0000
0000
0000
0000
0000
0000
0000
3000
0011
0000
0000
0000
0000
0000
0000
0000
0000
0000
0000
0000
0000
0000
0000
0000
2000
0000
0000
0000
0000
0000
0000
0000
0000
0000
0000
0000
0000
0000
0000
3000
0101
0000
0000
0000
0000
0000
0000
0000
0010
0000
0000
0000
0000
0000
0000
0000
,
1001
0000
0000
0000
0000
0000
0000
0000
0010
0000
0000
0000
0000
0000
0000
0000
1001
0000
0000
0000
0000
0000
0000
0000
0000
0000
0000
0000
0000
0000
0000
0000
2000
0000
0000
0000
0000
0000
0000
0000
0000
0000
0000
0000
0000
0000
0000
3000
0100
0000
0000
0000
0000
0000
0000
0000
0010
0000
0000
0000
0000
0000
0000
0000
,
0001
0000
0100
0000
2000
0000
0000
0000
3200
0000
0000
0000
0310
1000
0010
1000
,
0010
0000
0000
1000
0000
0000
0010
0000
0000
1000
0000
0000
0001
0000
0000
1000
0000
0000
0001
0000
0000
1000
0000
0000
0001
0000
0000
1000
0000
0000
0001
0000
0000
1000
0000
0000
0001
0000
0000
0000
0000
0000
0000
0000
0011
0000
0000
0000
,
0000
0110
0000
1001
0000
0000
1001
0000
0101
0000
0011
0000
,
1010
2100
3200
0302
,
2003
0000
0000
0000
3020
0000
0031
0010
0001
0000
0001
0000
0100
0000
0100
0000
,
0010
0010
1001
1000
0010
0010
0100
1000
,
0100
0010
0110
0100
0101
0001
1001
0000
,
0000
0000
0000
0000
0000
0000
0000
0000
0011
0000
0000
0000
0000
0000
0001
0000
1000
0000
0000
0000
0000
0000
0000
0000
0100
1000
0100
0000
0000
0000
0010
0000
,
0001
0000
0000
0000
0000
0000
0000
0000
0101
0000
0000
0000
0000
0000
0001
0000
0100
0000
0000
0000
0000
0000
0001
0000
1000
0000
0001
1000
0000
0000
0100
0000
,
0010
0000
0000
0000
0000
0000
0000
0000
1100
0000
0000
0000
0000
0000
1000
0000
0001
0000
0000
0000
0000
0000
0000
0000
0100
0001
0100
0000
0000
0000
0010
0000
,
1000
0000
0000
0000
0000
0000
0000
0000
0110
0000
0000
0000
0000
0000
0010
0000
0100
0000
0000
0000
0000
0000
0001
0000
1000
0000
0010
1000
0000
0000
0001
0000
,
0010
0000
0000
0000
0000
0000
0000
0000
1001
0000
0000
0000
0000
0000
1000
0000
0100
0000
0000
0000
0000
0000
0000
0000
0010
0100
0010
0000
0000
0000
0100
0000
,
1000
0000
0000
0000
0000
0000
0000
0000
1010
0000
0000
0000
0000
0000
0010
0000
0100
0000
0000
0000
0000
0000
0001
0000
1000
0000
0001
1000
0000
0000
0100
0000
,
0010
0000
0000
0000
0000
0000
0000
0000
0011
0000
0000
0000
0000
0000
0001
0000
0100
0000
0000
0000
0000
0000
0000
0000
0010
1000
0010
0000
0000
0000
1000
0000
,
0100
0000
0000
0000
0000
0000
0000
0000
0110
0000
0000
0000
0000
0000
0100
0000
1000
0000
0000
0000
0000
0000
0010
0000
1000
0000
0001
1000
0000
0000
0100
0000
,
1000
0000
1000
0100
0010
0002
0000
0103
,
1000
0200
0000
0310
1000
0002
0000
0013
,
0100
1000
0001
0010
0100
0002
0000
0103
,
0010
2000
0000
3010
0100
2000
0000
3010
,
0100
0001
0100
0010
0100
2000
0000
3100
,
0010
0002
0000
0000
2003
0000
3200
0000
,
0302
1003
1001
0001
,
0011
0000
0000
0000
0100
0000
0000
0000
1001
0000
0001
0000
1000
0100
0010
0100
,
1000
0001
0100
0010
1000
0000
0100
0000
0010
0000
2000
0000
0000
0000
3010
0000
,
0001
0200
0000
1300
0100
0002
0000
1003
,
0200
0000
0000
0300
0002
0000
0000
0000
1003
0000
0020
0000
0000
0030
0002
0000
,
0000
0203
0000
1300
0200
0000
0010
0310
,
1000
0001
1000
0100
0001
MM00
0001
0010
,
1000
00MM
1000
0100
0002
0000
0203
0000
,
2300
0000
0000
3000
1100
0000
0000
1000
0010
0000
0100
0000
0001
0000
1000
0000
,
0010
0000
0100
0000
0010
0000
1000
0000
0001
0100
0010
0100
0001
1000
0100
0010
,
0100
0000
1000
0000
0MM2
0000
0000
0000
0203
0000
0320
0000
2030
0000
3100
0010
,
0200
0000
0300
0000
2000
0000
3010
0100
0002
0000
0203
0000
0301
1000
0100
0010
,
0001
0010
0100
1000
0020
0000
0000
0000
0230
0000
0302
0000
0023
0000
0130
1000
,
0200
0000
0300
0000
0010
0001
0010
0100
2000
0000
3100
0010
0001
1000
0010
0100
,
0002
0000
0000
10M3
0100
1000
0010
0100
0001
0010
0001
1000
,
0100
0010
0001
0010
0001
0100
0010
1000
0100
1000
0001
0100
,
0010
0000
0000
0000
0000
0000
0000
0000
0000
0000
0000
0000
0000
0000
0000
0000
1000
0000
0000
0000
0000
0000
0000
0000
0000
0000
0000
0000
0000
0000
0000
0000
0010
0000
0000
0000
0000
0000
0000
0000
0000
0000
0000
0000
0000
0000
0000
0000
1010
0000
0000
0000
0000
0000
0000
0000
0000
0000
0000
0000
0000
0000
0000
0000
0000
0000
0000
0000
0000
0000
0000
0000
0000
0000
0000
0000
0000
0000
0000
0000
0000
0000
0000
0000
0000
0000
0000
0000
0000
0000
0000
0000
0000
0000
0000
0000
0002
0000
0000
0000
0000
0000
0000
0000
0000
0000
0000
0000
0000
0000
0000
0000
0000
0000
0000
0000
0000
0000
0000
0000
0000
0000
0000
0000
0000
0000
0000
0000
0000
0000
0000
0000
0000
0000
0000
0000
0000
0000
0000
0000
0000
0003
0000
0000
1100
0000
0000
0000
0000
0000
0000
0000
0000
0000
0000
0000
0000
0000
0000
0000
0000
0000
0000
0000
0000
0000
0000
0000
0000
0000
0000
0000
0000
0000
0000
0000
0000
0000
0000
0000
0000
0000
0000
0000
0000
0000
0000
0000
0000
0000
0000
0000
,
0002
0000
0000
0000
0000
0000
0000
0000
0000
0000
0000
0000
0000
0000
0000
0003
1010
0000
0000
0000
0000
0000
0000
0000
0010
0000
0000
0000
1000
0000
0000
0000
0001
0000
0000
0000
0000
0000
0000
0000
1000
0000
0000
0000
0000
0000
0000
0000
0020
0000
0000
0000
0000
0000
0000
0000
0000
0000
0000
0000
0000
0000
0000
0000
,
2030
0000
3010
0100
0010
0001
0010
0100
,
0001
0010
0100
0010
1000
0010
0002
0000
,
1003
0000
0010
0100
0002
0000
0000
0000
0000
0000
0203
0000
0320
0000
0000
0000
,
0130
0000
0001
1000
0100
0000
0000
0000
0110
0000
0000
0000
0001
0010
0001
1000
,
0100
1000
0001
0100
0002
0000
0000
0000
0203
0000
2300
0000
3002
0000
0000
0000
,
0023
0000
2030
0001
3001
1000
1000
0100
,
0100
0000
0000
0000
0000
0000
0000
0000
0010
0000
0000
0000
0000
0000
0000
0000
0011
0000
0000
0000
0000
0000
0000
0000
0000
0000
0000
0000
0000
0000
0000
0000
2000
0000
0000
0000
0000
0000
0000
0000
0000
0000
0000
0000
0000
0000
0000
3000
0101
0000
0000
0000
0000
0000
0000
0000
0000
0000
0000
0000
0000
0000
0000
0000
,
2000
0000
0000
0000
0000
0000
0000
0000
0000
0000
0000
0000
0000
0000
0000
3000
0011
0000
0000
0000
0000
0000
0000
0000
0001
0000
0000
0000
0000
0000
0000
0000
1001
0000
0000
0000
0000
0000
0000
0000
0100
0000
0000
0000
0000
0000
0000
0000
1001
0000
0000
0000
0000
0000
0000
0000
0000
0000
0000
0000
0000
0000
0000
0000
,
2000
0000
0000
0000
0000
0000
0000
0000
0000
0000
0000
0000
0000
0000
0000
3000
0100
0000
0000
0000
0000
0000
0000
0000
0001
0000
0000
0000
0000
0000
0000
0000
0100
0000
0000
0000
0000
0000
0000
0000
0001
0000
0000
0000
0000
0000
0000
0000
0200
0000
0000
0000
0000
0000
0000
0000
0000
0000
0000
0000
0000
0000
0000
0000
,
0320
0000
0000
0000
0031
0010
0100
1000
0001
0100
0010
0100
0001
1000
0001
1000
,
0100
0000
0000
0110
0000
1100
0000
1001
0000
0101
0000
0000
,
1001
0000
0101
0000
0011
0000
0110
0000
0000
1002
0000
0000
,
0203
0000
0000
0000
2300
0000
0000
0000
3002
0000
0000
0000
0013
0000
0100
0001
,
1000
1000
0100
0100
0010
0001
1001
1000
,
0010
0100
0001
0100
0010
1000
1010
0010
,
1010
1000
2002
0000
3003
0000
0011
0010
,
0001
0000
0100
0000
0010
0000
1000
0000
0100
0000
0010
0000
0011
0000
0001
0010
,
0100
0010
0220
0000
0330
0000
1001
1000
,
0010
0100
0001
0010
0001
0100
0101
0001
,
1000
0000
0100
0010
0001
0000
1000
0000
1010
0000
0100
0000
2002
0000
0000
00M0
,
0M00
0000
00M0
0000
0M00
0000
0000
00M0
0M00
0000
00M0
0000
0M00
0000
0000
00M0
,
0M00
00M0
3M03
0000
1111
0000
0000
0000
;

//---------------dance-single - Loodee----------------
#NOTES:
     dance-single:
     Loodee:
     Hard:
     10:
     0.850,0.881,0.619,0.663,0.268:
0000
0000
0000
0000
,
0000
0000
0000
0000
,
0001
0000
1001
1000
0100
0010
0001
0010
,
0001
0000
0000
0000
0101
0000
0000
0001
1000
0000
0010
0000
0100
0000
0010
0000
,
1000
0000
0000
0000
1100
0000
0000
0100
0010
0000
0001
0000
0100
0000
0010
0000
,
1000
0000
0000
0000
0000
0000
0000
0000
0100
0000
0000
0000
0000
0000
0000
0000
0001
0000
0000
0000
0000
0000
0000
0000
0100
0000
0000
0000
0000
0000
0000
0000
1000
0000
0000
0000
0000
0000
0000
0000
0000
0000
0000
0000
0000
0000
0000
0000
0M00
0M00
0M00
0000
0000
0000
0000
0000
0000
0000
0000
0000
0000
0000
0000
0000
,
0000
0000
0000
0100
,
1100
1000
0001
0100
0010
0100
0001
0000
,
0011
0000
0010
0000
0001
0000
1000
0000
0010
0000
1000
0000
0001
0000
0000
1000
,
0100
0000
1000
0000
0001
0000
0000
0100
0001
0000
0100
0000
0001
0000
0000
0010
,
0100
1000
0002
0000
0000
0000
1003
0000
,
1000
0000
2000
0000
0000
3010
0200
0300
,
0002
0000
0003
0000
0020
0000
0030
0000
0000
0000
0000
0000
0100
0000
1000
0100
,
1000
0000
0000
0000
0001
0000
1000
0001
1000
0000
0000
0000
0001
0000
0010
0000
,
1000
0010
0002
0000
0103
0010
1000
0000
,
1010
0000
0001
0001
0000
1000
1100
0000
,
0110
0000
0000
0000
0044
0000
0000
0000
0000
0000
0033
0000
1000
0000
0010
0100
,
0010
0000
0000
0000
1000
0000
0100
0010
0100
0000
0000
0000
0020
0000
0000
0000
,
0130
0010
1000
0010
0001
1000
0001
0000
,
0101
0000
0100
0100
0000
0001
0011
0000
,
0110
0000
4400
0000
0000
3300
0001
0010
,
0100
0010
2000
0000
3010
0001
0100
0010
,
1000
0010
0002
0000
0013
0100
0010
1000
,
0001
0100
0010
1000
0100
0010
0002
0000
,
0000
0000
1003
0000
0020
0000
0000
0000
0130
0000
0001
1000
0001
0000
0100
0000
,
0010
0100
2000
0000
3100
0001
0010
0100
,
0010
0100
0002
0000
0103
0010
0002
0000
,
0100
0000
0000
0000
0000
0000
2003
0000
0000
0000
0000
0000
3010
0000
0000
1000
0000
0000
0100
0000
0000
0000
0001
0000
,
0000
0000
0100
0000
0000
0000
2000
0000
0000
0000
0000
0000
0000
0000
0000
0000
0000
0000
3001
0000
0000
0100
0000
0000
,
0001
0100
2000
0000
3200
0000
0301
0010
,
0100
0010
2000
0000
3010
0100
2000
0000
,
3010
0000
0100
0000
0020
0000
0000
0000
0032
0000
0000
0000
0013
0000
1000
0010
,
1000
0001
0010
0100
0010
0001
1000
0100
,
1000
0100
0002
0000
0203
0000
1300
0001
,
0100
0010
0200
0000
0301
0010
0200
0000
,
1300
0100
0010
0001
1000
0001
1001
0000
,
0101
0000
1001
00M0
0M00
00M0
1001
0000
,
0010
0101
0010
0101
,
0110
0000
1100
0000
0001
0000
1000
0010
,
0100
0010
0100
0000
0001
0000
1000
0000
0001
0010
0001
0000
0010
0000
0100
0000
,
0010
0001
2000
0000
0002
3003
0002
0000
,
0000
0000
0203
0000
0320
0000
0000
0000
2030
0000
0000
3000
1100
0000
0000
0000
,
0101
0000
0044
0000
0000
0033
0001
0100
,
1000
0100
0002
0000
0023
0000
0230
1300
,
1000
0010
0100
0001
0100
0010
0110
0000
,
0001
0110
0001
1001
,
0101
0000
1100
0000
0001
0000
1000
0010
,
0001
0010
2000
0000
3200
0000
0320
0000
,
0001
0000
0000
1000
0000
0000
0031
0000
0000
0011
0000
0001
,
0000
1000
0000
1100
0000
0000
1001
0000
1000
0000
0010
0000
,
0110
0201
2300
3200
,
0302
0000
2003
3100
0100
0010
0001
0100
,
0010
1000
0001
0010
0100
0010
0001
0100
,
1000
0100
0010
0100
0001
1000
0001
0000
,
0000
0000
0000
0000
1001
0000
0000
1000
0001
0000
0000
0000
0100
0000
0000
0001
,
0100
0000
0000
0000
0110
0000
0000
0010
1000
0000
0000
0001
1000
0000
0000
0100
,
0010
0000
0000
0000
0011
0000
0000
0001
0010
0000
0000
0000
0001
0000
0000
0010
,
0100
1100
0110
1100
,
0000
0000
0000
0000
1001
0000
0000
0001
0100
0000
0000
0000
0010
0000
0000
1000
,
0001
0000
0000
0000
0011
0000
0000
0010
0001
0000
0000
0100
0001
0000
0000
0010
,
0100
0000
0000
0000
1100
0000
0000
1000
0001
0000
0000
0000
0100
0000
0000
0001
,
1000
1100
0110
0011
,
1000
0000
0001
0010
0100
0002
0000
0103
,
1000
0020
0000
0130
0010
0002
0000
0013
,
1000
0001
0010
0100
0010
2000
0000
3010
,
0001
0020
0000
0031
1000
0020
0000
0130
,
0001
1000
0100
0010
0100
0020
0000
0130
,
0010
0002
0000
0000
0203
0000
2300
0000
,
3200
0310
0110
0001
,
1001
0000
0000
0000
1000
0000
0000
0000
1100
0000
0000
0000
1000
0000
0010
1000
,
0010
0100
0001
0010
0100
0002
0000
0103
,
0010
0002
0000
0103
0010
0002
0000
0013
,
0200
0000
0302
0000
0013
0200
0000
2300
,
0000
3002
0000
0103
0020
0000
0130
0010
,
1000
0001
0010
0100
0002
0000
0103
0010
,
2000
0000
3010
0100
0002
0000
2003
0000
,
3020
0000
0000
0000
0130
0000
0000
1000
0100
0000
1000
0000
0001
0000
1000
0000
,
0010
0000
0100
0000
0001
0000
1000
0000
0001
0100
0001
0100
0001
0100
0001
0100
,
0001
0000
1000
0000
02MM
0000
0000
0000
0310
0000
0001
0000
1000
0000
0010
0100
,
0020
0000
0030
0000
1000
0000
0001
1000
0001
0000
0010
0000
0200
0000
0000
0000
,
0300
0000
0000
0000
2000
0000
0000
0000
3001
0000
0100
0000
0001
0000
0010
0100
,
1000
0000
0000
0000
0001
1000
0100
0010
0100
0000
1000
0000
0002
0000
0000
0000
,
0000
0000
0000
10M3
0100
1000
0001
1000
0001
0100
0001
0100
,
0001
0010
0100
1000
0001
0010
0100
1000
0010
0100
0001
1000
,
0010
0100
0001
1000
0000
0000
0010
0000
0000
1001
0000
0000
,
0001
1010
1001
0001
,
0010
0000
0110
0100
1000
0100
0010
0001
,
0100
0010
1000
0010
0100
0010
0002
0000
,
0013
0100
0002
0000
0000
0013
0100
0000
,
0110
0011
1100
4040
,
0000
3030
1002
0000
0023
0230
0320
0000
,
0032
0000
2003
3010
0010
0100
0001
0010
,
0100
1000
1100
0000
0001
0000
0101
0000
,
1000
0011
0101
0011
,
1000
0000
1010
0010
0100
0010
0200
0000
,
0302
0000
0000
0000
1003
0100
1000
0100
1000
0100
1000
0100
0010
0001
0010
0001
,
0010
0000
0000
1001
0000
0001
0000
0100
0000
1010
0000
0000
,
0110
0000
0100
0000
0001
0000
0011
0000
0000
1200
0000
0000
,
0302
0000
2003
0000
3020
0000
0130
1000
,
1000
0010
0100
0001
1000
0001
1000
0100
,
0010
0001
0010
0001
0100
0010
1010
0000
,
0110
0000
0101
0000
0000
0000
0011
0001
,
1000
0010
1000
0100
0010
0100
0110
0000
,
1001
0000
1100
0000
0000
0000
1001
0001
,
0010
0001
0100
0010
0100
0001
M1M1
0000
,
1MM1
1M1M
M11M
2MM2
,
0000
0000
0000
0000
,
0000
3003
1001
0000
;

//---------------dance-single - Loodee----------------
#NOTES:
     dance-single:
     Loodee:
     Medium:
     8:
     0.682,0.681,0.402,0.686,0.052:
0000
0000
0000
0000
,
0000
0000
0000
0000
,
0101
0000
0101
0000
0001
1000
0001
0010
,
0100
0000
1100
0000
1000
0010
0100
0001
,
0010
0000
0110
0000
0100
1000
0001
1000
,
0010
0000
0000
0000
0000
0000
0000
0000
0100
0000
0000
0000
0000
0000
0000
0000
0010
0000
0000
0000
0000
0000
0000
0000
1000
0000
0000
0000
0000
0000
0000
0000
0001
0000
0000
0000
0000
0000
0000
0000
0000
0000
0000
0000
0000
0000
0000
0000
M000
M000
M000
M000
0000
0000
0000
0000
0000
0000
0000
0000
0000
0000
0000
0000
,
0000
0000
0000
1000
,
1100
0000
0100
1000
0100
0010
0001
0000
,
1001
0000
1000
0010
0100
0000
0110
0000
,
0010
0101
0010
1001
,
1001
0000
1002
0000
0000
0003
1000
0000
,
1000
0000
2000
0000
0000
3010
0100
0000
,
0100
0000
0200
0000
0300
0000
0001
1000
,
0001
0000
0010
0100
0010
0000
0001
0010
,
0100
0010
0002
0000
1003
0001
0100
0000
,
0101
0000
0001
1000
0000
0100
2000
0000
,
3200
0000
0320
0000
0030
0000
0001
1000
,
0010
0000
1000
0010
0100
0000
0002
0000
,
0103
0010
1000
0100
0010
0001
1000
0000
,
1001
0000
0001
0010
0000
0100
2000
0000
,
3002
0000
0403
0000
0000
0300
0001
0010
,
0100
1000
0200
0000
1300
0000
0001
0100
,
0010
1000
0020
0000
0130
0000
0002
0000
,
0013
0100
0020
0000
0031
1000
0002
0000
,
0000
2003
3200
0000
0310
0001
1000
0010
,
0100
0001
0200
0000
0301
0000
1000
0100
,
0010
0100
2000
0000
3001
0010
0200
0000
,
1000
0000
0000
2300
0000
0000
3001
0000
0000
0001
0000
0100
,
0000
0000
0010
0000
0000
0000
2000
0000
0000
0000
0000
0000
0000
0000
0000
3000
0000
0000
0002
0000
0000
0000
0000
0000
,
0000
2003
3200
0320
,
0130
1000
0002
0000
0003
0000
0020
0000
,
0031
0100
0020
0000
0230
0000
0302
0000
,
1000
0100
0013
0200
,
0000
2300
3002
2003
,
3010
0100
0002
0000
0000
0000
0023
0000
,
0130
1000
0020
0000
0130
0001
1000
0000
,
0001
1000
0000
1001
,
0000
0101
0000
1100
,
0001
0000
1001
0000
0000
0000
0001
0010
,
0100
0010
0001
1000
0010
0100
0010
1000
,
0100
0010
0002
0000
0003
0000
2000
0000
,
0000
3010
0200
0000
0302
0003
1001
0000
,
0010
0000
4004
0000
0000
3003
1100
000M
,
00M0
0M00
M000
000M
00M0
0M00
M000
0001
,
0010
0001
0100
0010
1000
0100
1000
0000
,
0000
0101
0000
1100
,
0001
0000
0110
0000
0000
0000
1000
0100
,
0010
0001
0020
0000
0230
0000
2300
0000
,
0001
0000
0000
0000
0000
0000
3001
0000
0000
0100
0000
0000
0010
0000
0000
0100
0000
0000
0001
0000
0000
0000
0001
0000
,
0000
1000
0000
1000
0000
0000
0100
0000
0100
0000
0010
0000
,
0010
2002
0000
0000
,
0000
0000
0000
0000
3003
0000
0000
0000
0000
0001
0000
0000
0010
0000
0000
0001
0000
0000
1000
0000
0000
0010
0000
0000
,
1000
0001
0010
0001
0010
0100
0010
0001
,
1000
0010
0100
0010
1000
0100
0010
0000
,
0000
0000
0000
0011
0000
0000
0002
0003
0000
0000
0000
0000
,
0000
0000
0000
0110
0000
0000
0002
0003
0000
1001
0000
0000
,
0000
0000
0000
1100
0000
0000
0200
0300
0000
0000
0000
0000
,
0000
0101
0101
0101
,
0000
0000
0000
1100
0000
0000
2000
3000
0000
0000
0000
0000
,
0000
0000
0000
0101
0000
0000
0002
0003
0000
0011
0000
0000
,
0000
0000
0000
0011
0000
0000
2000
3000
0000
0000
0000
0000
,
0000
1001
1001
1001
,
0001
0000
1000
0010
0100
0020
0000
1030
,
0100
0020
0000
0130
1000
0002
0000
1003
,
0010
0100
0001
0010
0100
0020
0000
0130
,
1000
0002
0000
0103
0010
2000
0000
3100
,
0010
0001
0010
0100
0010
0002
0000
0103
,
0010
0200
0000
0000
2300
0000
3200
0000
,
0320
1030
1001
0001
,
1001
0000
1000
0000
1000
0100
0010
0001
,
0100
0010
1000
0010
0100
0020
0000
1030
,
0001
0020
0000
0130
0010
0002
0000
0013
,
0200
0000
2300
0000
3010
0200
0000
0302
,
0000
2003
0000
3100
0020
0000
0001
0000
,
0031
0000
0001
0010
0100
0000
1000
0010
,
0100
0000
0001
0010
0100
0000
2000
0000
,
3020
0000
0130
0000
0100
0001
0010
0100
,
0010
0001
1000
0001
1000
0001
0100
0010
,
1000
0001
20M0
0000
3010
0100
0001
1000
,
0001
0000
0010
0100
1000
0100
0020
0000
,
0030
0000
0002
0000
1003
0100
1000
0001
,
0100
0000
0010
0100
0010
1000
0200
0000
,
0000
0000
0000
0300
0000
0000
40M0
0000
0004
0000
0000
0000
0000
0000
0000
0000
0000
0000
0000
0000
0000
0000
0000
0000
,
0000
0000
0000
0000
,
3003
1001
0000
0101
,
0000
1010
1000
0001
,
1000
0000
0100
1000
0010
0100
0001
0010
,
0001
0100
0010
1000
0100
0010
0002
0000
,
1003
0000
0020
0000
0000
0130
0002
0000
,
2003
0100
0010
3002
,
0003
0000
1001
0M00
00M0
M000
000M
0M00
,
00M0
M000
000M
1000
0100
1000
0010
0100
,
0010
1000
0100
0000
0000
0000
0101
0000
,
0000
0011
0011
0011
,
1000
0000
0100
1000
0010
0100
0020
0000
,
2030
0000
3100
0010
0001
0100
0010
1000
,
0010
0000
0000
0100
0000
0000
0001
0000
0000
0000
0001
0000
0000
0000
0100
0000
0000
0000
0100
0000
0000
0000
0000
0000
,
0010
0000
0010
0000
1000
0000
1000
0000
0000
2200
0000
0000
,
0000
0000
0000
0000
0000
0000
3300
0001
,
1000
0010
1000
0001
0010
0100
0010
0001
,
1000
0010
0100
0001
0010
0100
1000
0100
,
1000
0100
0020
0000
0030
0000
0001
0100
,
0010
1000
0001
0010
0100
1000
0010
0100
,
0001
0010
0200
0000
0300
0000
1000
0001
,
1000
0001
0010
0001
0010
0100
1000
0000
,
1100
1001
1100
2002
,
0000
0000
0000
0000
,
0000
3003
1001
0000
;

//---------------dance-single - Blank----------------
#NOTES:
     dance-single:
     Blank:
     Easy:
     6:
     0.476,0.681,0.306,0.425,0.000:
0000
0000
0000
0000
,
0000
0000
0000
0000
,
0001
0000
0001
0000
1000
0100
1000
0000
,
0010
0000
0010
0000
0100
0001
1000
0000
,
0100
0000
0100
0000
1000
0100
0010
0000
,
0001
1000
0001
1000
0001
0000
0000
0000
,
0000
0000
0000
0000
,
1000
0000
0010
0100
0001
0000
0010
0000
,
0010
0000
0001
0010
0100
0000
1100
0000
,
0000
1001
0000
0001
,
0100
0010
0100
0000
0000
0000
0000
0000
,
0000
0000
0000
0000
,
0000
0000
0000
0001
,
0000
2000
0000
0000
3100
0000
1000
0000
,
0000
0020
0000
0000
0130
0000
0001
0000
,
0001
0000
1000
0001
0000
0000
0020
0000
,
0230
2300
3000
0100
,
0000
2000
0000
0000
3001
0000
0100
0000
,
0000
0020
0000
0000
0130
0000
0001
0000
,
0001
0000
1000
0001
0000
0000
2000
0000
,
3200
0320
0030
0001
,
1000
0020
0130
0001
,
0010
0200
1300
0002
,
2003
3200
0310
0002
,
0000
2000
3003
0001
,
1000
0020
0130
0010
,
1000
0200
0310
0001
,
1000
0001
1000
1001
,
0000
0000
0000
0002
,
0000
0203
0320
2030
,
3100
0020
0130
1000
,
0100
2000
3002
2003
,
0000
0000
3000
0020
,
0000
0230
0302
0023
,
0130
0020
0031
2000
,
3001
0200
0301
1000
,
0001
1000
0000
1001
,
0000
1001
0000
0001
,
0001
0000
0001
0000
0000
0000
0010
0100
,
1000
0000
0010
0100
0010
0000
1000
0100
,
0010
0002
0003
2000
,
0000
3200
0320
0031
,
0100
0100
0000
1001
,
0000
0000
0000
0000
0000
0000
0000
0001
,
1000
0001
1000
0001
1000
0001
0000
0000
,
0000
1100
0000
0100
,
0100
0000
0100
0000
0000
0000
1000
0010
,
0100
0000
0001
1000
0001
0000
0100
0010
,
1000
0100
0010
0001
,
0000
1001
1000
0000
,
0101
2000
0000
0000
,
0000
0000
3000
0000
0001
0000
1000
0100
,
0010
0001
1000
0001
1000
0000
0010
0100
,
0010
0100
0100
1001
,
0000
0011
0000
0000
,
0000
0110
0000
0110
,
0000
1100
0000
0000
,
0000
1001
0000
1001
,
0000
0101
0000
0000
,
0000
0011
0000
0110
,
0000
1100
0000
0000
,
0000
1010
0000
1010
,
1000
0010
0100
0001
,
0010
0100
0010
0001
,
1000
0010
0100
0001
,
1000
0100
0010
0100
,
1000
0001
1000
0010
,
0100
0001
0020
0230
,
2300
3001
0001
1000
,
1000
0010
0010
1000
,
1000
0100
0010
0001
,
0010
0001
1000
0010
,
0100
0001
1000
0100
,
0010
0001
1000
0001
,
1000
0020
0130
0020
,
0130
0002
1003
0002
,
0013
0100
0100
1000
,
1000
0000
0001
1000
0001
1000
0001
0000
,
0100
0010
0000
1000
,
0100
0010
0000
0001
,
0000
1000
0000
0010
,
1000
0010
0100
0001
,
0000
2000
0000
0000
,
0000
0000
0000
0000
,
3000
1100
0000
1100
,
0000
0001
0001
1000
,
0000
0000
0001
0010
0100
0000
1000
0100
,
0010
0000
0001
0100
0010
0000
2000
0000
,
3000
0002
0000
0023
,
0230
1300
1001
1001
,
0000
0110
0000
0000
,
0000
0000
0000
0001
1000
0001
1000
0001
,
1000
0001
0000
0000
0000
0000
0110
0000
,
0000
1000
1000
1000
,
0000
0000
1000
0010
1000
0000
0002
0000
,
0203
0320
0000
0130
,
0100
0010
0000
1001
,
0001
0000
1100
2000
,
0000
0000
0000
3000
,
0001
0000
0100
0000
0001
0000
1000
0100
,
1000
0000
0100
1000
0100
0000
1100
0000
,
1100
0000
1100
0000
0000
0000
1000
0001
,
0100
0000
0001
0100
0001
0000
0101
0000
,
0101
0000
0101
0000
0000
0000
1000
0100
,
1000
0100
0010
0001
0010
0001
0100
0000
,
0110
0110
0110
2002
,
0000
0000
0000
0000
,
0000
3003
1001
0000
;
