#TITLE:The Last Firstborn;
#SUBTITLE:;
#ARTIST:Celldweller;
#TITLETRANSLIT:;
#SUBTITLETRANSLIT:;
#ARTISTTRANSLIT:;
#GENRE:;
#CREDIT:;
#BANNER:[Round 12] - The Last Firstborn.png;
#BACKGROUND:[Round 12] - The Last Firstborn-bg.png;
#LYRICSPATH:;
#CDTITLE:;
#MUSIC:[Round 12] - The Last Firstborn.mp3;
#OFFSET:-0.173000;
#SAMPLESTART:87.567902;
#SAMPLELENGTH:14.327271;
#SELECTABLE:YES;
#BPMS:0.000000=134.000000
,24.000000=133.850006
,44.000000=134.000000
,96.000000=135.500000
,100.000000=134.000000
,132.000000=134.199997
,140.000000=134.000000
,162.000000=134.199997
,164.000000=134.000000
,224.000000=134.100006
,228.000000=134.000000
,280.000000=134.100006
,282.000000=134.500000
;
#STOPS:
;
#BGCHANGES:;
#KEYSOUNDS:;
#ATTACKS:;

//---------------dance-single - ----------------
#NOTES:
     dance-single:
     :
     Hard:
     9:
     0.670931,0.718291,0.276266,0.477865,0.350932,528.000000,37.000000,64.000000,0.000000,0.000000,0.000000,0.670931,0.718291,0.276266,0.477865,0.350932,528.000000,37.000000,64.000000,0.000000,0.000000,0.000000:
0000
0000
0000
0000
,
0000
0000
0000
0000
,
0000
0000
0000
0000
,
0000
0000
0000
0000
,
1001
0000
0000
0001
0000
0000
0010
0000
0000
0100
0000
0000
1000
0000
0010
0000
,
1010
0000
0000
1000
0000
0000
0001
0000
0000
0100
0000
0000
0010
0000
0100
0000
,
0210
0000
0000
0010
0000
0000
0010
0000
0000
0010
0300
0000
0100
0000
0101
0000
,
0012
0000
0000
0010
0000
0000
0010
0000
0000
0010
0003
0000
0010
0000
0100
0000
,
2000
0000
0000
0001
0000
0000
0001
0000
0000
0001
3000
0000
0001
0000
0101
0000
,
1020
0000
0000
0230
0000
0000
0302
0000
0000
0023
0000
0000
0230
0000
2300
0000
,
3200
0000
0000
0000
,
0310
0000
0001
0000
0100
0000
0000
0010
0000
0000
1000
0000
0001
0100
0000
0000
,
0100
0000
0010
1000
0010
0100
0001
1000
0100
0010
0001
0100
0010
0100
0001
1000
,
0002
0000
0000
0000
0100
0003
0100
0000
0010
0000
1000
0000
0001
0000
0000
0000
,
0120
0000
0000
0000
0001
0030
0001
0000
1000
0000
0010
0000
0100
0000
0000
0000
,
2001
0000
0000
0000
0010
3000
0010
0000
0100
0000
0001
0000
1000
0000
0000
0000
,
0012
0000
0000
0000
1000
0003
1000
0000
0001
0010
0100
0000
0010
0000
0000
0000
,
2100
0000
0000
0000
0001
3000
0001
0000
0100
0000
0010
0000
1000
0000
0000
0000
,
0201
0000
0000
0000
0010
0300
0010
0000
1000
0000
0100
0000
0010
0000
0000
0000
,
1002
0000
0000
0000
0100
0003
0100
0000
0010
0000
1000
0000
0001
0000
0000
0000
,
1020
0000
0000
0000
0100
0030
0100
0000
0001
0010
0100
0000
1000
0000
0000
0000
,
0021
0000
0000
0000
0100
0030
0100
0000
1000
0000
0001
0000
0100
0000
0000
0000
,
1002
0000
0000
0000
0010
0003
0010
0000
0100
0000
1000
0000
0001
0000
0000
0000
,
0120
0000
0000
0000
1000
0030
1000
0000
0001
0000
0100
0000
0010
0000
0000
0000
,
0201
0000
0000
0000
0010
0300
0010
0000
1000
0100
0000
0010
0100
0010
0001
0100
,
0010
0000
1000
0000
0000
0100
0000
0010
0100
0000
0000
1000
0001
0000
0100
0000
,
0001
0000
0010
0000
0000
0100
0000
1000
0100
0000
0000
0010
0100
0000
1000
0000
,
0100
0000
0010
0000
0000
0001
0000
1000
0010
0000
0000
1000
0001
0000
0010
0000
,
0100
0000
1000
0000
0000
0001
0000
1000
0100
0000
0000
0010
0001
0000
0100
0000
,
0010
0000
1000
0000
0000
0100
0000
0010
0001
0000
0000
1000
0010
0000
0100
0000
,
0001
0000
0010
0000
0000
0100
0000
1000
0010
0000
0000
0100
0001
0000
1000
0000
,
0100
0000
0010
0000
0000
0100
0000
1000
0001
0000
0000
0100
0010
0000
1000
0000
,
0001
0000
0100
0000
0000
0010
0000
0100
0001
0000
0000
0010
0100
0000
1000
0000
,
0200
0000
0000
0320
0000
0000
0032
0100
,
0203
0010
0300
0020
0000
0000
2030
3001
,
0011
0000
0010
0000
0100
0000
1000
0010
0000
0010
0100
0000
0102
0000
0103
0000
,
0110
0000
0010
0000
1000
0000
0100
0010
0000
0010
0001
0000
1002
0000
1003
0000
,
1100
0000
0100
0000
0010
0000
0100
1000
0000
1000
0001
0000
0102
0000
0103
0000
,
0110
0000
0010
0000
1000
0000
0001
0100
0000
0100
0010
0000
1020
0000
1030
0000
,
1001
0000
0001
0000
0100
0000
0010
1000
0000
1000
0100
0000
0120
0000
0130
0000
,
1100
0000
0000
1001
0000
0000
2020
0000
0030
0000
0000
0000
0000
0000
0000
0000
,
3010
0100
0001
0100
0010
1000
0001
0010
,
0100
1000
0001
1000
0100
1000
0010
0100
,
0010
1000
0001
1000
0010
0100
0001
1000
,
0100
0010
0001
0010
0100
1000
0001
0100
,
0010
1000
0100
1000
0010
0100
0001
1000
,
0010
0100
0001
0100
0010
1000
0100
0010
,
0001
1000
0010
1000
0001
0010
0100
1000
,
0001
0010
0100
0010
0100
1000
0001
0100
0010
0100
0010
1000
0100
0010
0001
0010
,
0002
0000
0100
0003
0100
0000
0010
0000
2000
0000
0100
3000
0100
0000
0010
0000
,
0200
0000
1000
0300
1000
0000
0001
0000
0020
0000
0100
0030
0100
0000
1000
0000
,
0002
0000
0010
0003
0010
0000
0100
0000
0020
0000
0100
0030
0100
0000
1000
0000
,
0200
0000
1000
0300
1000
0000
0001
0000
2000
0000
0001
3000
0001
0000
0100
0000
,
0020
0000
1000
0030
1000
0000
0100
0000
0020
0000
0001
0030
0001
0000
1000
0000
,
0200
0000
1000
0300
1000
0000
0001
0000
0200
0000
0010
0300
0010
0000
1000
0000
,
0002
0000
0100
0003
0100
0000
0010
0000
2000
0000
0100
3000
0100
0000
0010
0000
,
0011
0000
1001
0000
0100
0010
0100
0001
0010
0100
1000
0010
1000
0001
0010
0100
,
1000
0001
0200
0010
0310
1000
0002
0100
,
0103
0010
2000
0100
3100
0010
0002
0100
,
0103
0010
2000
0010
3010
0100
0002
0010
,
0013
0100
2000
0010
3010
0100
0002
0010
,
0013
0001
0200
0001
0301
0010
0200
1000
,
1300
0001
0200
0001
0301
0010
0200
1000
,
1300
0001
0020
0100
0130
1000
0020
0100
,
0130
0001
0100
0010
0000
0100
0001
0100
0010
0100
0001
0100
0010
1000
0100
0010
,
0001
0100
0010
0100
0001
1000
0010
1000
,
0100
0010
0001
0010
0100
0010
0001
1000
,
0010
0100
0001
0100
0010
0100
0001
0010
,
0100
0000
1000
0000
0100
0010
0100
0010
0001
1000
0001
1000
0010
0100
0010
0100
,
0010
1000
0001
1000
0010
1000
0001
0010
,
1100
0000
0000
0011
0000
0000
1001
0000
0110
0000
0100
0001
0100
0010
1000
0100
,
0020
0000
0000
0000
,
0000
0000
0000
0000
,
0000
0000
0000
0000
,
0030
0000
0000
0000
;

//---------------dance-single - ----------------
#NOTES:
     dance-single:
     :
     Medium:
     7:
     0.501332,0.583145,0.000000,0.268799,0.194133,434.000000,0.000000,36.000000,0.000000,0.000000,0.000000,0.501332,0.583145,0.000000,0.268799,0.194133,434.000000,0.000000,36.000000,0.000000,0.000000,0.000000:
0000
0000
0000
0000
,
0000
0000
0000
0000
,
0000
0000
0000
0000
,
0000
0000
0000
0000
,
1000
0000
0000
0100
0000
0000
0010
0000
0000
0001
0000
0000
0100
0000
0010
0000
,
0100
0000
0000
0001
0000
0000
1000
0000
0000
0010
0000
0000
0100
0000
0001
0000
,
0200
0000
0000
0000
0000
0000
0010
0310
,
2000
0000
0000
0000
,
3002
0000
0000
0000
0000
0000
0100
0103
,
0020
0000
0000
0000
,
0200
0000
0000
0330
,
0100
0000
0001
0000
0100
0000
0000
0010
0000
0000
0010
0000
1000
0000
0000
0000
,
0001
0000
0010
0000
0001
0100
0001
0000
1000
0010
1000
0000
0100
0010
0100
0010
,
0200
0000
0301
0010
0100
2000
3000
0000
,
0002
0000
0103
0001
1000
0020
0230
0000
,
0302
0000
0013
0001
1000
0200
0300
0000
,
0020
0000
0130
1000
0001
0020
0230
0000
,
2300
0000
3001
0100
0010
2000
3000
0000
,
0200
0000
0310
0001
1000
0020
0230
0000
,
0302
0000
0013
0100
1000
0020
0030
0000
,
0200
0000
0301
0010
0100
2000
3002
0000
,
0203
0000
0310
1000
0001
0200
0300
0000
,
0002
0000
1003
0100
0010
0200
2300
0000
,
3020
0000
0130
0001
1000
0002
0003
0000
,
0100
0000
0001
0000
0100
0000
0010
0000
1000
0000
0100
0000
0010
0001
0010
0001
,
0010
0000
0100
0000
0000
1000
0000
0001
0000
0000
0000
0100
0000
0000
0010
0000
,
0100
0000
0001
0000
0000
1000
0000
0100
0000
0000
0000
0010
0000
0000
0100
0000
,
1000
0000
0001
0000
0000
0100
0000
0010
0000
0000
0000
1000
0000
0000
0100
0000
,
0010
0000
0001
0000
0000
1000
0000
0001
0000
0000
0000
0100
0000
0000
0010
0000
,
1000
0000
0100
0000
0000
0010
0000
0001
0000
0000
0000
0100
0000
0000
0010
0000
,
0100
0000
0001
0000
0000
1000
0000
0010
0000
0000
0000
0100
0000
0000
0001
0000
,
1000
0000
0100
0000
0000
0010
0000
0100
0000
0000
0000
1000
0000
0000
0001
0000
,
0100
0000
0010
0000
0000
0100
0000
0001
0000
0000
0000
1000
0000
0000
0010
0000
,
0200
0000
0000
0001
0000
0000
0302
0000
,
0023
0000
0000
0100
0000
0000
0230
0000
,
1300
0000
0001
0000
1000
0000
0010
0100
0000
0000
0010
0000
1000
0000
0100
0000
,
0010
0000
0001
0000
0010
0000
0100
1000
0000
0000
0010
0000
0100
0000
0001
0000
,
0100
0000
0010
0000
1000
0000
0100
0010
0000
0000
0001
0000
0100
0000
0010
0000
,
0100
0001
0100
0010
1000
0010
0100
0001
,
0010
0100
1000
0001
0010
0001
0100
0001
,
0010
0000
0000
0100
0000
0000
1000
0000
0000
0000
0000
0000
0000
0000
0000
0000
,
0001
0100
0001
0000
0010
0100
0010
0000
,
0100
1000
0100
0000
0010
0001
0010
0000
,
0001
0100
0001
0000
0010
0100
0010
0000
,
0001
1000
0001
0000
0100
0010
0100
0000
,
0010
1000
0010
0000
0100
0001
0100
0000
,
0010
0100
0010
0000
1000
0100
1000
0000
,
0001
0010
0001
0000
0100
0010
0100
0000
,
0010
1000
0010
0000
0100
0001
0100
0000
,
0010
1000
0010
0001
0010
0100
0001
0000
,
0010
0100
1000
0100
0010
0001
1000
0000
,
0001
0010
0001
1000
0001
0100
0001
0000
,
1000
0100
1000
0001
1000
0010
1000
0000
,
0100
1000
0100
0010
0100
1000
0001
0000
,
0010
0100
1000
0100
0010
0001
0100
0000
,
0010
0100
0010
0001
0010
1000
0100
0000
,
0010
0000
0001
0000
0010
0000
0001
0000
0010
0000
0100
0000
1000
0100
1000
0100
,
1000
0001
0100
0001
1000
0001
0010
0001
,
1000
0010
0100
0001
0100
0010
0100
0001
,
1000
0100
0010
0100
1000
0100
0010
0001
,
0100
0010
1000
0010
0100
0010
1000
0100
,
0010
0001
0100
0001
0010
0001
0100
0010
,
0100
0001
1000
0001
0100
0001
1000
0100
,
0010
0001
0100
0001
0010
0001
0100
0001
,
1000
0000
0100
0010
0000
0100
1000
0100
1000
0100
0010
0001
0010
0001
0010
0100
,
1000
0001
0100
0001
0010
0100
0010
0001
,
1000
0010
0100
0010
0100
0001
0010
0001
,
0100
0010
1000
0010
0100
0001
0010
0001
,
0100
0001
0010
0001
1000
0010
0100
0001
,
0100
0010
1000
0010
0100
0001
0010
0001
,
0100
0000
0000
0100
0000
0000
0100
0000
0010
0000
1000
0001
1000
0001
1000
0001
,
1000
0000
0000
0000
;

//---------------dance-single - ----------------
#NOTES:
     dance-single:
     :
     Easy:
     3:
     0.292266,0.318079,0.104533,0.029867,0.000000,256.000000,14.000000,4.000000,0.000000,0.000000,0.000000,0.292266,0.318079,0.104533,0.029867,0.000000,256.000000,14.000000,4.000000,0.000000,0.000000,0.000000:
// measure 0
0000
0000
0000
0000
,  // measure 1
0000
0000
0000
0000
,  // measure 2
0000
0000
0000
0000
,  // measure 3
0000
0000
0000
0000
,  // measure 4
1000
0000
0000
0001
0000
0000
0100
0001
,  // measure 5
0100
0000
0000
0010
0000
0000
1000
0100
,  // measure 6
1000
0000
0000
0000
0000
0000
0001
0100
,  // measure 7
0000
0000
0000
0000
,  // measure 8
0000
0000
0000
0000
0000
0000
0010
0100
,  // measure 9
0002
0000
0000
0000
,  // measure 10
0003
0000
0000
0000
,  // measure 11
0010
0110
0100
1000
,  // measure 12
0001
0200
0000
0300
,  // measure 13
0110
0010
0100
0001
,  // measure 14
0011
0010
0100
1000
,  // measure 15
1100
0100
0010
0001
,  // measure 16
0101
0100
0010
1000
,  // measure 17
1100
0100
0010
0001
,  // measure 18
0011
0010
0100
1000
,  // measure 19
1001
0001
0100
0010
,  // measure 20
1010
1000
0001
0100
,  // measure 21
0110
0010
0100
0001
,  // measure 22
0011
0010
0100
1000
,  // measure 23
1010
0010
0100
0001
,  // measure 24
1001
1000
0100
0010
,  // measure 25
0001
0100
0001
0010
,  // measure 26
0001
1000
0001
0100
,  // measure 27
0010
0100
0001
1000
,  // measure 28
0010
1000
0001
0010
,  // measure 29
0100
0010
0001
1000
,  // measure 30
0010
0100
0010
1000
,  // measure 31
0001
0100
0001
0010
,  // measure 32
0001
0100
0001
0010
,  // measure 33
0200
0000
0000
0300
,  // measure 34
2000
0000
0000
0000
,  // measure 35
3001
0100
0001
0000
0010
0000
0100
0000
,  // measure 36
1000
0010
1000
0000
0100
0000
0010
0000
,  // measure 37
0001
0010
0001
0000
0100
0000
0010
0000
,  // measure 38
1000
0010
1000
0000
0010
0000
0100
0000
,  // measure 39
0001
0010
0001
0000
0100
0000
0010
0000
,  // measure 40
1000
0000
0000
1001
0000
0000
0000
0000
,  // measure 41
0001
0100
0001
0010
,  // measure 42
0001
1000
0001
0100
,  // measure 43
0001
0010
0100
1000
,  // measure 44
0001
0100
0010
1000
,  // measure 45
0001
0010
0100
0010
,  // measure 46
0001
1000
0100
0010
,  // measure 47
0100
0010
0001
0010
,  // measure 48
0100
1000
0001
1000
,  // measure 49
0100
0010
0001
0010
,  // measure 50
0100
1000
0001
0010
,  // measure 51
0001
0100
0010
0100
,  // measure 52
0001
1000
0001
0100
,  // measure 53
0010
0100
0001
1000
,  // measure 54
0010
1000
0001
0100
,  // measure 55
0010
0100
0001
0010
,  // measure 56
0100
1000
0100
0000
0010
0001
0010
0001
,  // measure 57
1000
0010
1000
0100
,  // measure 58
1000
0001
0100
0001
,  // measure 59
0010
0001
0010
0100
,  // measure 60
1000
0001
0100
0001
,  // measure 61
0100
0010
0100
0001
,  // measure 62
0100
0010
0100
0001
,  // measure 63
1000
0100
0010
0100
,  // measure 64
1000
0010
1000
0010
1000
0000
0100
0010
,  // measure 65
0001
0010
0100
0000
1000
0000
0100
0000
,  // measure 66
0010
0100
0010
0001
,  // measure 67
0010
0100
1000
0001
,  // measure 68
0100
0010
0100
0001
,  // measure 69
1000
0001
0010
0100
,  // measure 70
0010
0000
0000
0001
0000
0000
1000
0000
,  // measure 71
0001
0000
0000
0000
;
