#TITLE:Intersect Thunderbolt;
#SUBTITLE:;
#ARTIST:S.S.H.;
#TITLETRANSLIT:;
#SUBTITLETRANSLIT:;
#ARTISTTRANSLIT:;
#GENRE:;
#CREDIT:;
#BANNER:[Round 11] - Intersect Thunderbolt.png;
#BACKGROUND:[Round 11] - Intersect Thunderbolt-bg.png;
#LYRICSPATH:;
#CDTITLE:;
#MUSIC:[ROUND 11] - Intersect Thunderbolt.mp3;
#OFFSET:-0.291000;
#SAMPLESTART:9.856986;
#SAMPLELENGTH:15.360002;
#SELECTABLE:YES;
#BPMS:0.000000=249.999985
;
#STOPS:
;
#BGCHANGES:;
#KEYSOUNDS:;
#ATTACKS:;

//---------------dance-single - ----------------
#NOTES:
     dance-single:
     :
     Hard:
     10:
     0.869658,0.797369,0.130339,0.053669,0.000000,770.000000,17.000000,7.000000,0.000000,0.000000,0.000000,0.869658,0.797369,0.130339,0.053669,0.000000,770.000000,17.000000,7.000000,0.000000,0.000000,0.000000:
0000
0000
0000
0000
,
0000
0000
0000
0000
,
0001
0000
0100
0010
0100
0001
0100
0000
,
0010
0100
0010
1000
0010
0100
0001
0000
,
1000
0000
0100
0010
0100
1000
0100
0000
,
1000
0001
1000
0010
1000
0001
0010
0100
,
1000
0000
0001
1000
0001
0010
0001
0000
,
0010
0100
0010
0001
0010
0100
1000
0000
,
0010
0000
0100
0010
0100
0001
0100
0000
,
0101
0000
0000
0110
0000
0000
1010
0000
,
1000
0000
0001
0100
0000
0010
0100
0001
,
0100
0001
0100
0001
,
0010
0000
0100
1000
0000
0010
1000
0001
,
0100
0001
0010
0001
,
0100
0000
0001
0010
0000
0100
0010
0001
,
1000
0001
1000
0001
,
0100
0000
0001
1000
0000
0100
1000
0010
,
0100
0001
0100
0001
,
1000
0000
0100
0010
0000
0001
0010
0001
,
1000
0100
1000
0100
,
0010
0000
0001
0100
0000
0010
0100
0001
,
0010
0100
0010
0100
,
0010
0001
0010
0000
0100
1000
0001
0100
,
0010
1000
0010
0000
0100
0001
0010
0100
,
1000
0100
1000
0000
0001
0100
0010
1000
,
0100
0010
0100
1000
0001
0100
0010
0100
,
0001
0000
1000
0100
0000
0010
0000
0001
,
0100
0010
0100
0001
,
0100
0000
0010
1000
0000
0100
0000
0010
,
0001
0100
0001
1000
,
0010
0000
0100
0001
0000
1000
0000
0100
,
0010
0001
0010
0100
,
1000
0000
0001
0100
0000
0010
0000
1000
,
0100
0010
0100
0010
,
0001
0000
1000
0100
0000
0010
0000
0001
,
1000
0010
1000
0010
,
0100
0000
0001
0010
0000
0100
0000
1000
,
0001
0100
0001
1000
,
0010
0100
0010
0000
1000
0001
1000
0100
,
0010
0001
0010
0000
0001
0100
0001
1000
,
0010
0100
0010
0000
1000
0000
0001
0000
,
0100
0001
0100
0010
1000
0100
1000
0001
,
0010
0100
0010
0001
1000
0010
0100
0010
,
1000
0001
1000
0010
0100
0001
0010
0000
,
0100
1000
0001
0100
0010
1000
0100
0010
,
0001
0100
0001
1000
0010
0100
0010
0000
,
1000
0001
0100
0010
0100
0001
1000
0100
,
1000
0001
0100
0010
0100
0001
1000
0000
,
0001
0010
0100
0010
0100
1000
0010
0100
,
0010
0100
0001
0100
0010
0100
0010
1000
,
0001
0100
0010
0100
0001
1000
0001
0010
,
0100
1000
0010
1000
0001
0100
0010
0100
,
0001
0010
0100
1000
0010
1000
0001
0100
,
0010
1000
0001
0100
0010
0100
0001
1000
,
0010
0100
0001
0010
0001
1000
0100
1000
,
0010
0100
0001
0100
0010
1000
0100
1000
,
0001
0100
0010
0100
0001
1000
0010
1000
,
0100
0010
0001
0010
0100
1000
0010
1000
,
0100
0010
0001
0010
0100
1000
0001
1000
,
0010
0000
1000
0010
0000
0100
0010
1000
,
0001
0000
0100
0010
0000
1000
0010
0000
,
0100
0010
0000
0000
1000
0000
0001
0000
,
0010
0000
0100
1000
0000
0001
1000
0000
,
0010
1000
0000
0000
0001
0000
0100
0000
,
0010
0000
1000
0001
0000
0010
0001
0000
,
1000
0001
0000
0000
0100
0000
0010
0000
,
1000
0010
0100
0010
0100
0001
0010
0001
,
1000
0010
0100
0010
1000
0001
0100
0010
,
1000
0000
0001
0100
0000
0010
0100
0000
,
0001
0100
0000
0000
0010
0000
0100
0000
,
0001
0000
1000
0100
0000
0010
0100
0000
,
1000
0010
0000
0000
0100
0000
0001
0000
,
1000
0000
0100
1000
0000
0001
1000
0000
,
0010
1000
0000
0000
0100
0000
0010
0000
,
0001
1000
0010
1000
0001
1000
0100
0010
,
0001
0100
0010
0100
0001
1000
0010
1000
,
0200
0000
0000
0000
,
0310
0001
0010
0001
1000
0100
1000
0100
,
0020
0000
0000
0000
0000
0000
0031
0100
,
0010
0100
0001
1000
0010
0100
0010
1000
,
0001
0100
0001
1000
0100
1000
0001
0100
,
0010
0100
0001
1000
0010
0100
0010
1000
,
0100
0010
0100
1000
0001
0010
0100
0010
,
0001
0010
0000
0010
0100
0000
0100
1000
,
0001
1000
0010
0100
0001
0100
0010
1000
,
0010
0100
0000
0100
0001
0000
0001
1000
,
0020
0000
0000
0000
0000
0000
1030
0100
,
0010
0001
0100
0010
0100
0001
0010
0100
,
0010
0100
0001
1000
0010
1000
0100
1000
,
0001
0100
0010
0100
0001
1000
0010
0100
,
0010
1000
0001
1000
0010
1000
0100
0010
,
0100
0001
0010
0001
0100
0010
1000
0001
,
0100
0010
1000
0001
0010
0001
0100
0001
,
0020
0000
0230
0000
,
1300
0010
1000
0010
0100
0010
0100
0010
,
0100
0001
0100
0001
,
0010
0100
0010
0100
1000
0100
1000
0100
,
0010
0001
0010
0001
,
0100
0010
0100
0010
1000
0010
1000
0010
,
1000
0001
1000
0001
,
0100
0001
1000
0010
0100
0001
1000
0010
,
0100
0000
0000
0001
0000
0000
1000
0100
,
0010
0001
0010
0100
1000
0010
1000
0100
,
0010
0100
0010
0001
1000
0010
1000
0001
,
0100
0010
0100
0001
1000
0010
0100
0010
,
1000
0001
0100
0001
0010
0100
1000
0001
,
0100
0001
1000
0010
0100
0001
1000
0010
,
0100
0010
0001
1000
0100
0010
1000
0100
,
0010
0001
1000
0010
0100
0010
1000
0001
,
0100
0000
0000
0010
0000
0000
1000
0001
,
1000
0000
0100
0010
0001
0000
0100
0010
,
1000
0000
0000
0100
0010
0000
0011
0000
,
1001
0000
0001
0010
0100
0000
0010
0100
,
0010
0000
0000
0001
0100
0000
0110
0000
,
1010
0000
1000
0100
0010
0000
0010
0001
,
0100
0000
0000
0100
0010
0000
1010
0000
,
2000
0000
0000
0000
,
3010
0000
0000
0100
0000
0000
0001
0010
,
0100
0000
1000
0010
1000
0000
0001
0010
,
0001
0000
0000
0100
0001
0000
0011
0000
,
0110
0000
0100
1000
0100
0000
0010
0001
,
0010
0000
0000
0100
0010
0000
0011
0000
,
0101
0000
0100
0010
0100
0000
0001
0100
,
0001
0000
0000
1000
0100
0000
0110
0000
,
0011
0000
0000
1001
0000
0000
1010
0000
,
0010
0100
0001
0010
0100
1000
0010
0100
,
0001
0100
1000
0100
0001
0100
1000
0100
,
0010
0100
0001
0100
0010
0100
0001
0010
,
0200
0000
0000
0000
,
0310
0001
0010
0001
0010
0100
1000
0000
,
1001
0000
0000
0000
;

//---------------dance-single - ----------------
#NOTES:
     dance-single:
     :
     Challenge:
     10:
     1.000000,1.000000,0.092004,0.015334,0.460020,988.000000,12.000000,2.000000,0.000000,0.000000,0.000000,1.000000,1.000000,0.092004,0.015334,0.460020,988.000000,12.000000,2.000000,0.000000,0.000000,0.000000:
0000
0000
0000
0000
,
0000
0000
0000
0000
,
1000
0000
0100
0010
0100
1000
0010
0000
,
0100
0001
0100
0000
0010
0000
1000
0000
0001
0000
0100
0000
0010
0000
0000
0000
,
1010
0000
1000
0001
0100
0001
0010
0000
,
0100
1000
0100
1000
0100
0000
0010
0000
0001
0100
0001
0100
0001
0000
1000
0000
,
0010
0000
0100
0001
0100
0010
0100
0000
,
0010
1000
0010
0000
0100
0000
0001
0000
1000
0000
0010
0000
1000
0000
0000
0000
,
1001
0000
0001
0010
0100
0010
0100
0000
,
1000
0010
1000
0010
1000
0000
0001
0100
0001
0100
0001
0000
0010
0100
0010
0100
,
0010
0001
0100
0001
0010
0100
1000
0010
,
1000
0001
0010
0001
,
0100
0010
1000
0010
0100
0001
0010
0100
,
1000
0100
0010
0100
,
1000
0001
0100
0001
1000
0010
0100
0010
,
1000
0001
0100
0010
,
0100
0001
1000
0001
0100
0010
1000
0001
,
0010
0100
1000
0100
,
0010
0001
0100
0001
0010
0100
1000
0010
,
0100
0001
0010
0001
,
0100
0010
1000
0001
0010
0100
0010
0001
,
0100
0010
1000
0010
,
1000
0001
0100
0001
0010
0100
1000
0001
,
0100
0010
0100
0001
0100
0010
1000
0100
,
0010
0001
0000
0000
1001
0000
0011
0000
,
1000
0100
1000
0000
0001
0000
0100
0000
0001
0000
0010
0000
1000
0000
0010
0000
,
0100
1000
0001
1000
0100
0010
0001
0010
,
0100
1000
0001
1000
,
0001
1000
0100
1000
0001
0010
0100
0010
,
0001
0100
0010
0100
,
0010
1000
0100
1000
0010
0100
0001
0100
,
0010
1000
0100
1000
,
0100
0010
0001
0010
0100
1000
0010
1000
,
0100
0010
0001
0010
,
0001
0010
0100
0010
0001
1000
0010
1000
,
0001
0100
0010
0100
,
0010
1000
0001
1000
0010
0100
0001
0100
,
0010
1000
0100
1000
,
0100
1000
0010
1000
0100
0010
0001
0010
,
0100
1000
0001
1000
0100
0010
0001
0010
,
0100
1000
0000
0000
1001
0000
0101
0000
,
0100
0010
0100
0000
0001
0000
1000
0000
0010
0000
0100
0000
0001
0000
0010
0000
,
0100
1000
0001
1000
0010
0100
0001
0010
,
0001
0100
0001
1000
0100
0010
0001
0100
,
0010
0100
0001
1000
0001
0100
0010
0100
,
0001
0010
0001
0100
0010
1000
0100
1000
,
0001
0100
0001
0010
0001
1000
0001
0100
,
0001
0010
0100
1000
0010
1000
0100
1000
,
0010
0100
0001
0100
0010
1000
0100
0010
,
0100
0000
1000
0000
0001
0000
1000
0000
0100
0010
0100
0000
1000
0000
0001
0100
,
0001
0000
1000
0000
0100
0000
0010
0000
0100
1000
0100
1000
0100
0000
0010
0000
,
0001
0100
0001
0010
0100
1000
0010
1000
,
0100
1000
0001
0100
0001
0010
0100
1000
,
0010
1000
0100
1000
0010
0100
0001
0100
,
0010
1000
0001
0100
0010
1000
0001
0100
,
0001
1000
0100
0010
0001
1000
0100
0010
,
0001
0000
0000
0000
1000
0010
1000
0000
0100
0000
1000
0000
0001
0000
0100
0000
,
0001
0010
0100
1000
0001
0010
0100
1000
,
0001
0100
0010
0100
0010
1000
0100
0010
,
0100
0000
0000
0100
1000
0000
1000
0001
,
0010
0000
0010
0100
0000
0100
1000
0000
,
1000
0001
0000
0001
0100
0001
0010
0100
,
1000
0000
1000
0010
0000
0010
0100
0000
,
0100
0001
0000
0001
0100
0010
0100
0001
,
0010
0000
0010
0100
0000
0100
1000
0000
,
1000
0001
0000
0001
0100
0010
0100
0001
,
0100
0001
0100
0010
1000
0010
0100
0001
,
0010
0100
1000
0100
1000
0100
1000
0100
,
0010
0000
0001
0100
0000
0100
0001
0000
,
0001
0010
0000
0010
0100
1000
0001
0100
,
0001
0000
1000
0010
0000
0010
0100
0000
,
0100
0001
0000
0001
0010
0100
0010
0100
,
1000
0000
0010
0100
0000
0100
0010
0000
,
0010
1000
0000
1000
0100
1000
0010
0100
,
0001
1000
0000
1000
0001
0000
0001
0000
,
0100
0010
0100
0010
0100
0000
0001
0000
1000
0000
0001
0000
0100
0000
0000
0000
,
0110
0000
0000
0000
,
1000
0100
1000
0100
1000
0000
0010
0100
0010
0100
0010
0000
0100
0001
0100
0001
,
0100
0010
1000
0010
0100
0010
1000
0010
,
0100
0001
0010
0100
1000
0010
0100
0001
,
0010
0100
0010
0100
0010
0000
0001
0000
1000
0000
0001
0000
0100
0000
0001
0000
,
0010
0100
1000
0001
1000
0010
0100
0001
,
1000
0100
1000
0100
1000
0000
0010
0000
0100
0000
0001
0000
0100
0000
0010
0000
,
1000
0001
0100
0001
0010
0100
1000
0010
,
0100
0001
0100
0001
0100
0000
0010
0000
1000
0000
0001
0000
1000
0000
0100
0000
,
0010
0001
0010
0000
0100
0000
1000
0010
1000
0000
0100
0000
0010
0001
0010
0001
,
0010
0100
1000
0001
1000
0010
0100
0001
,
0100
0010
1000
0010
0100
0001
0100
0010
,
1000
0001
1000
0001
1000
0000
0100
0000
0010
0000
0001
0000
0100
0000
0010
0000
,
0100
0001
0100
0001
0100
0000
0010
0000
1000
0100
1000
0100
1000
0000
0001
0000
,
0100
0010
0000
0000
1000
0010
0000
0000
0100
0001
0000
0000
0010
0001
0000
0000
,
1000
0100
0000
0000
0010
0100
0000
0000
1000
0001
0000
0000
0100
0001
0000
0000
,
0100
0010
0000
0000
1000
0100
1000
0100
0010
0001
0010
0001
0010
0100
1000
0001
,
2000
0000
3002
0000
,
0103
0010
1000
0010
0100
0001
0100
0010
,
1000
0001
0100
0001
,
0100
0010
1000
0010
0100
0001
0010
0100
,
1000
0100
0010
0100
,
1000
0001
0100
0010
0100
0001
1000
0100
,
0010
0100
1000
0001
,
0100
0001
0100
0001
0100
0010
0100
0010
1000
0010
1000
0010
0100
0001
0100
0001
,
0100
0010
1000
0010
0100
0001
0100
0010
,
1000
0001
1000
0000
0100
0000
0010
0001
0010
0000
0100
0000
1000
0010
1000
0010
,
1000
0000
0100
0000
0010
0001
0010
0000
0100
1000
0100
1000
0100
0010
0001
0010
,
0100
1000
0010
0100
0001
0100
0010
1000
,
0100
0010
0001
0100
0001
0010
0100
1000
,
0001
0010
0100
0010
0100
1000
0010
0100
,
0010
1000
0001
1000
0001
0100
0001
0010
,
0100
1000
0010
0100
0010
1000
0001
1000
,
0010
0000
0000
1010
0000
0000
0101
0000
,
0001
0100
0001
0000
0010
0000
0100
0000
1000
0100
1000
0000
0010
0000
0100
0000
,
0001
1000
0001
0000
0100
0000
0010
0000
1000
0100
1000
0000
0001
0010
0001
0000
,
0100
0010
0100
0000
0001
0000
1000
0000
0001
0100
0001
0000
0010
0000
0100
0000
,
1000
0010
1000
0000
0100
0000
0010
0000
0001
1000
0001
0000
0100
0010
0100
0000
,
0001
0010
0001
0000
1000
0000
0010
0000
0100
0010
0100
0000
0001
0000
1000
0000
,
0010
1000
0010
0000
0100
0000
0001
0000
0010
0100
0010
0000
0001
1000
0001
0000
,
0100
0010
0100
0010
0100
0001
0100
0001
1000
0001
1000
0001
0100
0001
0100
0001
,
0010
0000
0000
1010
0000
0000
1100
0000
,
1000
0001
1000
0000
0100
0000
0010
0000
0001
0100
0001
0000
0010
0000
0100
0000
,
1000
0010
1000
0000
0001
0000
0100
0000
0010
1000
0010
0000
0100
0001
0100
0000
,
0010
0100
0010
0000
1000
0000
0001
0000
0100
0010
0100
0000
0001
0000
0010
0000
,
0100
1000
0100
0000
0010
0000
0001
0000
1000
0010
1000
0000
0001
0100
0001
0000
,
1000
0010
1000
0000
0100
0000
0010
0000
0001
1000
0001
0000
0100
0000
0010
0000
,
1000
0100
1000
0000
0001
0000
0100
0000
0010
1000
0010
0000
0100
0000
0001
0000
,
0010
0100
1000
0010
1000
0001
1000
0100
,
1000
0010
1000
0001
0100
0001
0010
0000
,
0100
1000
0100
1000
0100
0000
0010
0001
0010
0001
0010
0000
0100
0000
0000
0000
,
1000
0001
1000
0001
1000
0000
0010
0100
0010
0100
0010
0000
1000
0000
0000
0000
,
0001
0000
0000
0000
,
1000
0000
0000
0001
0000
0000
0100
0000
,
0110
0000
0000
0000
;

//---------------dance-single - ----------------
#NOTES:
     dance-single:
     :
     Medium:
     8:
     0.688935,0.797369,0.161007,0.069003,0.000000,599.000000,21.000000,9.000000,0.000000,0.000000,0.000000,0.688935,0.797369,0.161007,0.069003,0.000000,599.000000,21.000000,9.000000,0.000000,0.000000,0.000000:
0000
0000
0000
0000
,
0000
0000
0000
0000
,
1000
0001
0100
0001
,
0010
0100
0010
0100
0010
0000
0001
0000
,
1000
0010
0100
0010
,
1000
0001
1000
0001
0100
0001
0100
0001
,
0010
0100
1000
0001
,
1000
0100
1000
0100
1000
0000
0001
0000
,
0010
0100
1000
0010
,
0100
0001
0000
0100
0010
0000
1000
0001
,
0010
0100
1000
0001
,
0100
0010
0100
0010
,
0100
0001
1000
0010
,
0100
0001
0100
0001
,
1000
0001
0100
0010
,
1000
0100
1000
0100
,
0010
0001
1000
0100
,
1000
0001
1000
0001
,
0100
0010
1000
0001
,
0010
0100
0010
0100
,
1000
0001
0100
0010
,
1000
0100
1000
0100
,
0010
0001
0100
0010
,
0100
0010
1000
0100
,
0010
0001
0000
0000
0100
0000
0010
0000
,
1000
0001
0100
0001
0010
0100
1000
0000
,
0100
0010
0001
1000
,
0010
0100
0010
0100
,
0001
1000
0100
0010
,
0001
0100
0001
0100
,
0010
1000
0100
0010
,
0001
1000
0001
1000
,
0100
0010
0001
0100
,
0010
1000
0010
1000
,
0010
0100
0001
0010
,
0100
1000
0100
1000
,
0001
0100
0010
1000
,
0001
0010
0001
0010
,
0100
1000
0100
0010
0100
1000
0001
1000
,
0010
0100
0001
0010
0100
1000
0010
0100
,
0010
0100
0000
0000
0001
0000
1000
0000
,
0010
0100
0010
1000
0100
0010
0001
0100
,
0010
0000
1000
0001
1000
0000
0100
0010
,
0100
0000
0010
0001
0010
0100
1000
0010
,
0100
0000
0010
1000
0010
0000
0100
0001
,
0100
0000
0010
1000
0010
0100
0001
0010
,
0100
0000
1000
0010
1000
0000
0100
0010
,
0100
0000
0010
0001
0010
0000
0100
1000
,
0100
0010
0100
0010
,
0001
0100
0001
0100
,
0010
0000
1000
0000
0010
0100
0001
0100
,
0010
1000
0001
0100
,
0001
0010
0100
1000
,
0001
0100
0010
0100
,
0001
1000
0010
0100
,
0010
1000
0001
0100
,
0001
1000
0100
0010
,
0100
1000
0000
0000
1010
0000
0010
0000
,
0100
0001
0100
0001
1000
0010
1000
0010
,
0100
0000
0001
0100
0000
0010
1000
0010
,
0100
0000
0000
0001
0000
0000
1000
0000
,
0000
0100
0000
0000
0010
0000
0001
0000
,
0100
0000
0000
0010
0000
0000
1000
0000
,
0000
0001
0000
0000
0010
0000
0100
0000
,
0010
0000
0000
0100
0000
0000
1000
0000
,
0000
0001
0000
0000
0100
0000
0010
0000
,
1000
0001
1000
0100
1000
0010
0100
0010
,
1000
0001
0100
0010
0100
0001
0010
0100
,
1000
0000
0000
0001
0000
0000
0100
0000
,
0000
0010
0000
0000
0100
0000
0001
0000
,
0010
0000
0000
0100
0000
0000
1000
0000
,
0000
0001
0000
0000
0100
0000
0010
0000
,
0100
0000
0000
0001
0000
0000
1000
0000
,
0000
0100
0000
0000
0010
0000
0100
0000
,
1000
0001
0000
1000
0010
0000
0100
0000
,
0001
0010
0000
0001
1000
0000
0010
0000
,
0110
0000
0000
0000
,
0100
0001
0100
0010
1000
0100
1000
0001
,
0200
0000
0000
0000
0000
0000
0310
1000
,
0010
0000
0100
0001
0100
0000
0010
0100
,
0010
1000
0001
0010
0001
0100
0010
0000
,
0100
0001
1000
0100
1000
0001
0100
0010
,
0100
0010
1000
0001
1000
0001
0010
0100
,
2000
0000
0000
3002
0000
0000
0103
0010
,
0100
0001
1000
0100
0010
0100
1000
0001
,
0200
0000
0000
0320
0000
0000
1030
0001
,
2000
0000
0000
0000
0000
0000
3001
0100
,
0001
0010
0100
1000
0010
1000
0100
0010
,
0001
0100
0010
0100
0001
1000
0010
1000
,
0100
0010
0001
0100
0010
0100
0001
1000
,
0010
0110
0110
0101
,
0101
1001
1001
1010
,
1010
0000
0100
1000
0100
1000
0100
1000
,
0200
0000
0320
0000
,
0031
0100
0010
0100
,
0001
1000
0001
1000
,
0100
0010
0100
0010
,
0001
0100
0001
0100
,
0010
1000
0100
0010
,
0100
1000
0100
1000
,
0001
0100
0001
1000
0001
0010
0001
1000
,
0001
0000
0000
0100
0000
0000
0010
1000
,
0010
0100
0001
1000
,
0001
0100
0001
0010
,
0100
1000
0100
0010
,
0100
1000
0001
1000
,
0100
0100
0010
0010
,
0001
0001
1000
1000
,
0010
1000
0001
0100
,
0010
0000
0000
0100
0000
0000
0001
0010
,
0100
0000
1000
0010
1000
0000
0100
0010
,
0100
0000
1000
0001
1000
0000
0010
0000
,
0100
0000
0010
1000
0010
0000
0100
0001
,
0100
0000
0010
0100
0010
0000
1000
0000
,
0001
0000
0010
0100
0010
0000
0001
0100
,
0001
0000
1000
0010
1000
0000
0100
0000
,
0010
0001
0100
0001
0010
0001
0100
0001
,
0020
0000
0000
0030
,
0100
0000
1000
0010
1000
0000
0001
0100
,
0001
0000
0010
0100
0010
0000
0100
0000
,
1000
0000
0010
1000
0010
0000
0100
0001
,
0100
0000
0010
1000
0010
0000
0100
0000
,
0001
0000
0010
0100
0010
0000
0001
1000
,
0001
0000
0100
0010
0100
0000
0001
0000
,
0010
0000
0000
0100
0000
0000
1000
0000
,
1001
0000
0000
0101
0000
0000
0011
0000
,
0110
0000
0000
1100
0000
0000
1010
0000
,
0110
0000
0000
0101
0000
0000
0011
0000
,
1001
0000
0000
0000
,
0000
0000
0000
0000
,
1100
0000
0000
0000
;

//---------------dance-single - ----------------
#NOTES:
     dance-single:
     :
     Easy:
     6:
     0.541072,0.498355,0.207009,0.046002,0.000000,461.000000,27.000000,6.000000,0.000000,0.000000,0.000000,0.541072,0.498355,0.207009,0.046002,0.000000,461.000000,27.000000,6.000000,0.000000,0.000000,0.000000:
// measure 0
0000
0000
0000
0000
,  // measure 1
0000
0000
0000
0000
,  // measure 2
1010
0000
0000
0000
,  // measure 3
0000
0000
0000
0100
,  // measure 4
0110
0000
0000
0000
,  // measure 5
0010
1000
0001
1000
,  // measure 6
0010
0000
0000
0000
,  // measure 7
0000
0000
0000
0100
,  // measure 8
0101
0000
0000
0010
,  // measure 9
0011
0000
0000
1001
0000
0000
0101
0000
,  // measure 10
0100
0010
0100
0010
,  // measure 11
0100
0001
0100
0001
,  // measure 12
0010
0100
0010
0100
,  // measure 13
1000
0010
1000
0010
,  // measure 14
0100
0001
0100
0001
,  // measure 15
1000
0010
1000
0010
,  // measure 16
0100
0010
0100
0010
,  // measure 17
0100
0001
0100
0001
,  // measure 18
0010
0100
0010
0100
,  // measure 19
1000
0001
1000
0001
,  // measure 20
0100
0010
0100
0010
,  // measure 21
1000
0010
1000
0010
,  // measure 22
0100
0001
0010
0100
,  // measure 23
1000
0010
0100
0001
,  // measure 24
1000
0001
0100
0010
,  // measure 25
0100
0001
0100
0010
,  // measure 26
1000
0001
0100
0001
,  // measure 27
0010
0100
1000
0001
,  // measure 28
1000
0010
0100
0010
,  // measure 29
0100
0001
1000
0100
,  // measure 30
0010
0001
1000
0100
,  // measure 31
1000
0010
0100
0010
,  // measure 32
1000
0001
0100
0001
,  // measure 33
0010
0001
0100
0010
,  // measure 34
0100
0001
1000
0001
,  // measure 35
0100
0001
0010
0100
,  // measure 36
1000
0010
1000
0100
,  // measure 37
0010
0001
0100
0001
,  // measure 38
0020
0100
0000
0100
,  // measure 39
2030
0001
0000
0001
,  // measure 40
3200
0010
0000
0010
,  // measure 41
2300
0001
0000
0001
,  // measure 42
3010
0100
0010
0100
,  // measure 43
1000
0001
1000
0001
,  // measure 44
0100
0010
0100
0010
,  // measure 45
1000
0001
1000
0001
,  // measure 46
0010
0100
0010
0100
,  // measure 47
1000
0010
1000
0010
,  // measure 48
0100
0001
0100
0001
,  // measure 49
0010
0100
0010
0001
,  // measure 50
0100
0010
1000
0010
,  // measure 51
0100
0001
0010
0001
,  // measure 52
1000
0001
0100
0001
,  // measure 53
0010
0100
1000
0010
,  // measure 54
0100
0001
0100
0010
,  // measure 55
1000
0100
1000
0001
,  // measure 56
0100
0001
0010
0100
,  // measure 57
1000
0001
1000
0010
,  // measure 58
1000
0100
0010
0100
,  // measure 59
1000
0000
0000
1001
0000
0000
0101
0000
,  // measure 60
0001
0000
0000
0100
0000
0000
0010
0000
,  // measure 61
0000
1000
0000
0000
0001
0000
0000
0000
,  // measure 62
0011
0000
0000
0010
0000
0000
0100
0000
,  // measure 63
0000
1000
0000
0000
0010
0000
0000
0000
,  // measure 64
0110
0000
0000
0100
0000
0000
0001
0000
,  // measure 65
0000
1000
0000
0000
0100
0000
0000
0000
,  // measure 66
0110
0010
0001
1000
,  // measure 67
1010
0010
0100
0001
,  // measure 68
0011
0000
0000
0010
0000
0000
0100
0000
,  // measure 69
0000
1000
0000
0000
0010
0000
0000
0000
,  // measure 70
1010
0000
0000
1000
0000
0000
0100
0000
,  // measure 71
0000
0010
0000
0000
0001
0000
0000
0000
,  // measure 72
0011
0000
0000
0010
0000
0000
0100
0000
,  // measure 73
0000
1000
0000
0000
0010
0000
0000
0000
,  // measure 74
1010
1000
0001
0010
,  // measure 75
0110
0100
1000
0001
,  // measure 76
0101
0000
0000
0000
,  // measure 77
0110
0000
0000
1010
0000
0000
1001
0000
,  // measure 78
1000
0000
0000
0001
,  // measure 79
0100
0010
0100
0001
,  // measure 80
1000
0100
1000
0001
,  // measure 81
0100
0010
0100
0001
,  // measure 82
0010
0100
0010
0001
,  // measure 83
0010
0100
1000
0100
,  // measure 84
1000
0001
0100
0001
,  // measure 85
0100
0010
0100
0001
,  // measure 86
0100
0001
0010
0100
,  // measure 87
1000
0001
1000
0010
,  // measure 88
1000
0100
1000
0001
,  // measure 89
0010
0100
1000
0001
,  // measure 90
0100
0001
0010
0001
,  // measure 91
0010
0100
1000
0100
,  // measure 92
1000
0010
1000
0001
,  // measure 93
0200
0000
0000
0000
,  // measure 94
0310
1000
0001
1000
,  // measure 95
0100
0010
0001
0010
,  // measure 96
0100
1000
0001
0100
,  // measure 97
0010
0100
0001
0100
,  // measure 98
0010
1000
0010
0100
,  // measure 99
0001
0100
0010
0100
,  // measure 100
0001
0010
0100
1000
,  // measure 101
1010
0000
0000
1001
0000
0000
1100
0000
,  // measure 102
0100
0010
0100
1000
,  // measure 103
0001
0010
0100
0010
,  // measure 104
0001
1000
0010
1000
,  // measure 105
0100
0010
0001
0010
,  // measure 106
0100
1000
0001
0100
,  // measure 107
0001
0010
0100
1000
,  // measure 108
0001
0100
0010
1000
,  // measure 109
1001
0000
0000
1010
0000
0000
0110
0000
,  // measure 110
0010
0000
0100
0001
0100
0000
0010
0000
,  // measure 111
1000
0000
0001
0100
0001
0000
0010
0000
,  // measure 112
0100
0000
0010
0001
0010
0000
0100
0000
,  // measure 113
1000
0000
0010
0100
0010
0000
0100
0000
,  // measure 114
0001
0000
1000
0010
1000
0000
0100
0000
,  // measure 115
0010
0000
0100
1000
0100
0000
1000
0000
,  // measure 116
0001
0000
0100
0001
0100
0001
0100
0000
,  // measure 117
0001
0000
0000
0000
,  // measure 118
0010
0000
0100
1000
0100
0000
1000
0000
,  // measure 119
0010
0000
0100
0001
0100
0000
0001
0000
,  // measure 120
0010
0000
0100
0010
0100
0000
1000
0000
,  // measure 121
0010
0000
0100
0010
0100
0000
0001
0000
,  // measure 122
1000
0000
0100
1000
0100
0000
1000
0000
,  // measure 123
0010
0000
1000
0001
1000
0000
0100
0000
,  // measure 124
0010
0000
0000
0010
0000
0000
0010
0000
,  // measure 125
0100
0000
0000
0100
0000
0000
0100
0000
,  // measure 126
1000
0000
0000
1000
0000
0000
1000
0000
,  // measure 127
0001
0000
0000
0001
0000
0000
0001
0000
,  // measure 128
0020
0000
0000
0000
,  // measure 129
0000
0000
0000
0000
,  // measure 130
0130
0000
0000
0000
;
