#TITLE:WOBBLE IMPACT;
#SUBTITLE:;
#ARTIST:Sota Fujimori;
#TITLETRANSLIT:;
#SUBTITLETRANSLIT:;
#ARTISTTRANSLIT:;
#GENRE:;
#CREDIT:Silverhawke;
#MENUCOLOR:;
#METERTYPE:DDR;
#BANNER:WOBBLE IMPACT.png;
#BACKGROUND:WOBBLE IMPACT-jacket.png;
#LYRICSPATH:;
#CDTITLE:cdtitle.png;
#MUSIC:WOBBLE IMPACT.mp3;
#OFFSET:-0.028;
#SAMPLESTART:22.747;
#SAMPLELENGTH:15.000;
#SELECTABLE:YES;
#LISTSORT:;
#BPMS:0.000=190.000;
#STOPS:;
#BGCHANGES:0.000=WOBBLE IMPACT.avi=1.000=1=1=0,
99999=-nosongbg-=1.000=0=0=0 // don't automatically add -songbackground-
;
#ATTACKS:;

//---------------dance-single - ----------------
#NOTES:
     dance-single:
     :
     Hard:
     16:
     0.943,1.000,0.485,1.000,0.425:
0000
0000
0000
0000
,
0000
0000
0000
0000
,
0000
0000
0000
0000
,
0000
0000
0000
0000
,
0002
0000
0000
2003
0000
0000
3100
0000
,
0010
0000
0001
0000
0000
0001
1000
0000
0100
0000
0010
0000
0001
0000
0100
0000
,
0020
0000
0000
2030
0000
0000
3001
0000
,
0010
0010
0100
1000
1001
0000
0000
0110
,
0002
0000
0103
0010
1000
0001
0010
0100
,
2000
0000
3100
0010
0001
0100
0010
1000
,
0002
0000
0013
0100
1000
0100
0001
0100
,
2000
0000
3010
0100
1000
0100
0001
0010
,
0200
0000
1300
0001
0100
1000
0100
0001
,
2000
0000
3001
0010
0100
0001
0100
0010
,
0002
0000
1003
0001
0100
1000
0100
0001
,
2000
3000
0102
0000
2003
3000
0201
0000
,
0320
0000
0000
0000
,
0200
0000
0330
1001
,
2000
0000
0000
0000
3200
0000
0000
0000
0320
0000
0000
0000
0031
1000
0001
0000
,
0100
0000
0000
1000
0000
0000
0100
0000
0102
0000
0003
0000
2100
0000
3000
0000
,
0001
0000
0000
0001
0000
0000
0010
0000
0000
0010
0000
0000
0100
0000
1000
0000
0100
0000
0010
0000
0000
0010
0000
0000
,
0000
0000
0000
0000
0000
0000
0001
0000
0000
0000
0000
0000
0000
0000
0000
1000
0000
0000
0010
0000
0000
0000
0000
0000
0100
0000
0000
0000
0001
0000
0000
0000
1000
0000
0000
0000
0100
0000
0000
0000
1000
0000
0000
0000
0001
0000
0000
0000
,
0020
0000
0000
0000
0230
0000
0000
0000
2300
0000
0000
0000
3001
0100
0001
0000
,
1000
0000
1000
0000
0100
0000
0010
0001
2000
0000
3000
0000
0002
0000
0003
0000
,
0100
0000
0000
0000
0000
0000
0000
0000
0000
0010
0000
0000
1000
0000
0000
0000
0000
0000
0100
0000
0000
0000
0000
0000
0010
0000
0000
0000
0001
0000
0000
0000
1000
0000
0000
0000
0010
0000
0000
0000
1000
0000
0000
0000
0001
0000
0000
0000
,
0200
0020
0300
1030
0200
0020
0300
0031
,
0101
0000
0000
0000
2100
0000
0000
0000
3002
0000
0000
0000
0103
0010
0100
0000
,
0001
0000
0000
1000
0000
0000
0010
0000
0220
0000
0330
0000
2002
0000
3003
0000
,
1000
0000
0000
1000
0000
0000
0010
0000
0000
0010
0000
0000
0100
0000
0001
0000
1000
0000
0100
0000
0000
0100
0000
0000
,
0000
0000
0000
0000
0000
0000
0010
0000
0000
0000
0000
0000
0000
0000
0000
0001
0000
0000
0010
0000
0000
0000
0000
0000
0100
0000
0000
0000
1000
0000
0000
0000
0010
0000
0000
0000
0100
0000
0000
0000
0001
0000
0000
0000
0010
0000
0000
0000
,
0200
0000
0000
0000
2300
0000
0000
0000
3002
0000
0000
0000
1003
0100
1000
0000
,
0010
0000
0010
0000
0100
0000
0001
1000
0200
0000
0300
0000
0020
0000
0030
0000
,
0001
0000
0000
0000
0000
0000
0000
0000
0000
1000
0000
0000
0010
0000
0000
0000
0000
0000
0100
0000
0000
0000
0000
0000
0001
0000
0000
0000
0010
0000
0000
0000
0100
0000
0000
0000
1000
0000
0000
0000
0000
0000
1000
0000
0000
0000
0000
0000
,
0002
0200
0003
0310
2000
0200
3000
0310
,
0001
0201
0320
2030
,
3001
0000
0010
0000
0001
0000
1000
0000
0010
0000
1000
0000
0001
0000
0000
0000
0000
0000
1010
0000
0000
1000
0000
0000
,
0001
0000
0000
0010
0000
0000
1000
0000
0010
0000
0000
0000
0001
0000
0100
0000
,
0010
0000
0000
1000
0000
0000
0100
0000
0010
0000
0001
0000
1001
0000
0000
0000
,
1000
1200
0320
0032
,
1003
0000
0010
0000
1000
0000
0001
0000
0010
0000
0001
0000
1000
0000
0000
0000
0000
0000
0011
0000
0000
0001
0000
0000
,
1000
0000
0000
0010
0000
0000
0001
0000
0010
0000
0000
0000
1000
0000
0100
0000
,
0010
0000
0000
0001
0000
0000
0100
0000
0010
1000
0000
0000
1001
0000
0000
0000
,
0101
0100
0020
1030
0200
0310
0002
0000
,
1003
0000
0001
0000
1000
0000
0010
0100
0010
0000
1000
0000
0000
0000
0001
0000
,
0010
0000
0000
0100
0000
0000
1000
0000
0020
0000
0000
0000
0031
0000
0010
0000
,
2000
0000
0000
3001
0000
0000
0010
0000
0011
0000
1001
0000
2200
0000
3300
0000
,
0101
0100
0020
1030
0200
0310
0002
0003
,
1000
0000
0100
0000
0100
0000
0001
0000
0100
0000
0100
0000
1000
0000
0000
0001
0000
0000
1001
0000
0000
0000
0000
0000
,
1000
0000
0000
0010
0000
0000
0100
0000
0002
0000
0000
0000
1003
0000
0100
0000
,
0020
0000
0000
0031
0000
0000
0200
0000
0000
0000
0310
0000
0020
0000
0030
0000
,
1000
0001
0010
0100
1000
1000
0010
0100
,
0000
0000
0001
0000
0010
0000
0100
0000
1000
0010
1000
0010
0100
0001
0100
0001
,
0000
1000
0100
0010
0001
0001
0100
0010
,
0000
0000
1000
0000
0000
0100
1000
0000
1010
0000
0010
0000
0000
0000
0101
0000
,
0100
0001
0010
0100
1000
1000
0010
0200
,
0000
0000
1300
0000
0100
0000
0010
0000
1000
0100
0010
0001
1000
0000
1000
0000
,
0000
0001
0100
0010
1000
1000
0100
0020
,
0000
0000
0130
0000
0000
0100
1000
0000
0001
1000
0001
0000
0010
0000
0010
0000
,
0200
0000
0000
0000
0000
0000
0300
0000
1100
0000
0000
1001
0000
0000
0101
0000
,
0010
0000
1000
0000
0010
0000
1000
0000
0000
0002
0000
0000
0000
0000
0000
0003
0000
0000
0010
0000
0000
0100
0000
0000
,
1000
0000
0000
0001
0000
0000
1000
0000
0000
0000
0000
0000
0010
0000
0000
0000
0100
0000
0000
0000
0010
0000
0000
0000
0100
0000
0000
0000
0000
0000
0001
0000
0000
0000
0000
0000
0010
0000
0000
0000
0000
0000
0010
0000
0000
0000
0000
0000
,
0100
0000
1000
0000
0100
0000
1000
0000
0001
0000
1000
0000
0001
0000
0100
0000
0001
0000
0020
0000
0000
0030
0000
0000
,
0110
0100
0100
0100
,
0010
0000
1100
0000
1010
0000
0202
0303
,
1002
0000
0013
0100
1000
0001
0100
1000
,
0100
0001
0010
0100
2100
3000
0102
0003
,
2000
0000
3001
0100
0010
0010
0010
0010
,
1000
0000
0100
0000
0010
0000
0001
0000
0100
0000
0010
0000
1000
0000
0100
0000
0001
0000
0200
0000
0000
0300
0000
0000
,
2001
0000
3010
0100
0001
0010
0100
1000
,
0100
0001
0100
1000
0001
0100
0100
0100
,
0020
2030
3200
0320
0032
0203
0320
2030
,
3001
0001
0100
0100
0220
0330
2002
3003
,
0200
0000
0000
0000
0000
0000
0300
0000
0001
1000
0100
0000
0001
0000
0100
0000
,
1100
1100
1001
0000
0220
0330
0220
0330
,
1000
0010
0100
0000
0001
0000
0010
0000
0001
0000
0100
0000
0010
1000
0100
0000
,
0022
0033
2200
3300
2020
3030
0202
0303
,
0001
0100
0010
0000
1000
0000
0100
0000
0020
0000
0032
0000
2003
0000
3020
0000
,
0130
1000
0100
0001
0010
1000
0010
0100
,
2000
0000
3020
0000
0230
0000
0302
0000
1003
0010
0100
0000
0001
0100
0010
0000
,
1000
0000
0000
0100
0000
0000
0010
0000
0000
0000
0000
0000
0001
0000
0000
0010
0000
0000
0100
0000
0000
0000
0000
0000
1000
0000
0000
0000
0000
0000
1000
0000
0000
0000
0000
0000
0001
0000
0000
0000
0100
0000
0000
0000
1000
0000
0000
0000
,
0000
0000
0110
1001
,
1200
0000
0000
0000
0001
0000
0300
0000
0100
1000
0100
0000
1000
0001
1000
0000
,
0001
0100
0010
1000
2200
3300
0202
0303
,
1000
0000
0000
1000
0000
0000
0010
0000
0000
0010
0000
0000
0100
0000
0001
0000
1000
0000
0010
0000
0000
0010
0000
0000
,
0000
0000
1000
0000
0000
0100
0010
0000
0001
0000
1000
0010
0200
0000
0300
0000
,
0201
0000
0000
0000
1000
0000
0300
0000
0001
0010
0001
0000
1000
0010
1000
0000
,
0001
0010
0100
1000
2020
3030
0022
0033
,
1000
0000
0000
1000
0010
0000
0100
0000
0001
0000
0000
0001
0010
0000
0100
0000
,
2000
0200
3000
0310
0002
0200
0003
0310
,
2000
0000
3000
0000
0000
0000
2000
0000
3000
0000
0000
0000
2000
0000
3000
0000
0000
0000
2000
0000
0000
3000
0000
0000
,
0110
2002
3003
0000
;

//---------------dance-single - ----------------
#NOTES:
     dance-single:
     :
     Medium:
     12:
     0.661,0.616,0.128,0.425,0.051:
0000
0000
0000
0000
,
0000
0000
0000
0000
,
0000
0000
0000
0000
,
0000
0000
0000
0000
,
0020
0000
0000
0230
0000
0000
0301
0000
,
1000
0100
0010
0100
1000
0000
0010
0100
,
0002
0000
0000
2003
0000
0000
3100
0000
,
0010
0010
0100
1000
0001
0000
0000
0100
,
0002
0000
0003
0001
0100
0010
0100
0001
,
2000
0000
3000
1000
0100
0010
0100
1000
,
0020
0000
0030
0010
0100
0001
1000
0100
,
0020
0000
0030
0010
0100
1000
0001
0100
,
0002
0000
0003
0001
1000
0100
0010
0100
,
2000
0000
3000
1000
0010
0100
0010
1000
,
0200
0000
0300
0100
0010
0100
1000
0001
,
0200
0320
0230
0320
,
2030
0000
0000
0000
,
0002
0000
0000
3003
,
2000
0000
3200
0000
0310
0000
0100
1000
,
0001
0000
0000
0001
0000
0000
0001
0000
0100
0000
0000
0000
0100
0000
0000
0000
,
0010
1000
0010
1000
0100
0010
0001
0001
,
0000
1000
0000
0100
0010
0100
1000
0001
,
0200
0000
0320
0000
1030
0000
0001
0010
,
0001
0001
0100
0010
1000
0000
1000
0000
,
0001
0000
0100
0010
1000
0000
0100
0010
,
0001
1000
0000
0010
0100
0001
0000
0010
,
0200
0000
2300
0000
3001
0000
0100
0010
,
1000
0000
0000
1000
0000
0000
1000
0000
0001
0000
0000
0000
0001
0000
0000
0000
,
0010
0100
0010
0100
1000
1000
0010
0100
,
0000
0010
0000
0100
0001
0010
0100
1000
,
0002
0000
0203
0000
0310
0000
1000
0100
,
0010
0010
0100
1000
0001
0000
0001
0000
,
0100
0000
0010
1000
0001
0000
0010
0100
,
1000
0001
0000
0100
0010
1000
0000
0100
,
0010
0002
2003
3200
,
0310
0001
0010
0001
0100
0000
0010
1000
,
0100
0000
0000
0100
0000
0000
0100
0000
0010
0000
0000
0000
0001
0000
1000
0000
,
0010
0000
0000
0010
0000
0000
0010
0000
0100
0000
0001
0000
2000
0000
0000
0000
,
3100
0020
0032
0203
,
0310
1000
0010
1000
0100
0000
0010
0100
,
1000
0000
0000
1000
0000
0000
1000
0000
0010
0000
0000
0000
0100
0000
0001
0000
,
0010
0000
0000
0010
0000
0000
0010
0000
0000
0100
0000
0000
0200
0000
0000
0000
,
1300
0100
0010
0000
0001
0000
0100
0000
,
0010
1000
0010
1000
0001
1000
0010
0000
,
0100
0000
0000
0100
0000
0000
0100
0000
0001
0000
0000
0000
0010
0000
0100
0000
,
1000
0000
0000
1000
0000
0000
1000
0000
0001
0000
0100
0000
0110
0000
0000
0000
,
0001
0100
0010
0000
1000
0000
0100
0000
,
0010
0001
0010
0001
0100
0000
0010
1000
,
0100
0000
0000
0100
0000
0000
0100
0000
0010
0000
0000
0000
0001
0000
0100
0000
,
0010
0000
0000
0010
0000
0000
0010
0000
0000
0000
0100
0000
0100
0000
0000
0000
,
0000
0001
0010
0100
1000
1000
0100
0010
,
0000
0001
0100
0000
1000
0010
0001
0100
,
0000
0010
1000
0100
0010
0010
0001
0100
,
0000
0010
0000
0100
0001
1000
0100
0010
,
0000
0001
0100
0010
1000
1000
0100
0010
,
0000
0001
0010
0100
1000
0001
1000
1000
,
0000
0001
0100
0001
0010
0100
1000
0001
,
0000
0100
0000
0010
1000
0100
0010
0001
,
2000
0000
0000
0000
0000
0000
0000
0000
3001
0000
0000
0001
0000
0000
0001
0000
,
0100
0000
0010
1000
0000
0000
0001
0010
,
0100
0000
0010
0001
1000
0000
0010
0100
,
0002
2003
3200
0320
,
0031
0100
0010
1000
,
0001
0101
1000
1100
,
2002
0000
3003
0000
0001
0100
0010
0100
,
0001
0010
0100
0000
1100
0000
1100
0000
,
1000
0000
0010
0000
0100
0100
0100
0000
,
0001
0010
0100
0010
0001
0100
0010
0000
,
2002
0000
3003
0000
1000
0100
0010
0100
,
1000
0010
0100
0000
0001
0100
0010
0100
,
0001
0010
0100
0000
1000
0010
0100
0000
,
0001
1000
0001
1000
0010
0000
0010
0000
,
2002
0000
3003
0000
0001
0100
0010
0100
,
0001
0010
0100
0000
1000
0000
1000
0000
,
0001
0100
1000
0000
1000
0100
0001
0000
,
1000
1100
0001
0101
,
1000
0010
0100
0000
0001
0010
0100
0000
,
1000
0100
0010
0000
0001
0100
0010
0000
,
1000
0010
1000
0010
0100
0010
1000
0000
,
0001
0010
0001
0010
0100
0010
0001
0001
,
0000
0000
1100
0101
,
2000
0000
3200
0000
0310
0100
1000
0000
,
0010
0100
0001
1000
0001
0000
0001
0000
,
0100
0100
0010
0000
0010
1000
0001
1000
,
0000
0100
0000
0010
0000
0001
1001
0000
,
0002
0000
0203
0000
0310
0100
0001
0000
,
0010
0100
1000
0100
0010
0000
0010
0000
,
0001
0100
0010
0000
1000
0100
0010
0000
,
0100
1000
0000
0001
0100
0010
0000
1000
,
0100
0100
0100
0010
,
0110
2002
3003
0000
;

//---------------dance-single - ----------------
#NOTES:
     dance-single:
     :
     Easy:
     9:
     0.412,0.422,0.034,0.017,0.000:
0000
0000
0000
0000
,
0000
0000
0000
0000
,
0000
0000
0000
0000
,
0000
0000
0000
0000
,
1000
0000
0000
0001
0000
0000
0100
0000
,
0010
0000
0100
0000
0001
1000
0001
0000
,
1000
0000
0000
0100
0000
0000
0010
0000
,
0001
1000
0000
0001
1000
0000
0000
0001
,
0100
0000
0000
0000
0100
0001
0100
0000
,
0001
0000
0000
0000
1000
0001
1000
0000
,
0010
0000
0000
0000
0100
0010
0100
0000
,
0001
0000
0000
0000
1000
0100
1000
0000
,
0100
0000
0000
0000
0010
0001
0010
0000
,
0001
0000
0000
0000
0100
0010
0100
0000
,
0010
0000
0000
0000
1000
0100
1000
0000
,
0100
0010
0100
0010
,
0002
0000
0000
0003
,
2000
0000
0000
3000
,
0001
0100
0010
0100
,
0001
0010
0100
0000
1000
0000
0000
0000
,
1000
0100
0010
0100
,
1000
0010
0100
0000
0001
0000
0000
0000
,
1000
0001
0100
0001
,
1000
0100
0010
0000
0001
0000
0000
0000
,
0001
1000
0100
1000
,
0001
0100
0010
0000
1000
0000
0000
0000
,
0001
0100
0010
1000
,
0100
0010
0001
0000
1000
0000
0000
0000
,
1000
0100
0010
0001
,
1000
0010
0100
0000
0001
0000
0000
0000
,
1000
0100
0010
0100
,
1000
0001
0100
0000
0010
0000
0000
0000
,
0001
0100
0010
1000
,
0100
0010
0001
0000
0100
0000
0000
0000
,
0001
0100
0001
0101
,
1000
0000
0100
0000
1000
0100
1000
0000
,
0100
0010
0100
1000
,
0100
0001
0100
1000
,
0001
0100
0010
1000
,
0100
0000
0010
0000
0100
1000
0100
0000
,
0010
0001
1000
0001
,
0010
0000
0001
0000
0100
0010
0100
0000
,
1000
0100
1000
1100
,
0001
0000
0100
0000
0001
0100
0001
0000
,
0100
0010
0100
0001
,
0100
1000
0100
0001
,
1000
0100
0010
0001
,
0100
0000
0010
0000
0100
0001
0100
0000
,
0010
1000
0001
1000
,
0010
0000
1000
0000
0100
0010
0100
0000
,
1000
0001
0100
0100
,
0000
0100
0001
1000
,
0100
0010
0001
0001
,
0000
1000
0100
0010
,
0100
1000
0001
0001
,
0000
0100
0010
1000
,
0010
0100
0001
0001
,
0000
0010
0100
1000
,
0001
0000
1000
0100
,
0010
0000
0001
0100
,
0010
0000
1000
0010
,
0100
0100
0100
0100
,
0001
0000
0000
0000
,
1000
0100
0010
0001
,
1000
0000
0100
0010
,
0100
1000
0001
0001
,
1000
0010
0100
0100
,
0001
1000
0001
0000
1000
0000
1000
0000
,
0001
0000
0001
0010
,
0100
1000
0100
0010
,
0001
0100
0001
1000
,
0100
0010
0001
0001
,
1000
0000
0010
0100
,
0001
0100
0010
0010
,
1000
0100
0010
0010
,
0001
0100
0010
0010
,
1000
0001
1000
0001
,
0100
0010
1000
0100
,
0010
0001
0010
1000
,
0100
1000
0100
0000
0010
0001
0010
0000
,
0000
0000
0001
0001
,
1000
0010
1000
1010
,
0001
0010
0001
0001
,
0010
0100
0010
0001
,
0010
1000
0010
0001
,
1000
0010
0100
0001
,
0010
0100
0010
0010
,
0100
1000
0001
1000
,
0100
0000
1000
0000
0010
0100
0010
0000
,
1000
0000
0000
0001
,
0100
0110
0000
0000
;

//---------------dance-single - ----------------
#NOTES:
     dance-single:
     :
     Beginner:
     5:
     0.203,0.269,0.000,0.034,0.000:
0000
0000
0000
0000
,
0000
0000
0000
0000
,
0000
0000
0000
0000
,
0000
0000
0000
0000
,
0001
0000
0000
0001
,
0000
0000
0001
0000
,
1000
0000
0000
1000
,
0000
0000
1000
0000
,
0010
0000
0000
0010
,
0010
0000
0000
0100
,
0100
0000
0000
0001
,
0001
0000
0000
1000
,
1000
0000
0000
0100
,
0100
0000
0000
0010
,
0010
0000
0000
0001
,
0002
0003
2000
3000
,
0200
0000
0000
0300
,
0020
0000
0000
0030
,
0001
0001
0001
0000
,
1000
0000
1000
0000
,
0100
0000
0100
0000
,
0010
0000
0010
0000
,
1000
1000
1000
0000
,
0001
0000
0001
0000
,
0100
0000
0100
0000
,
0010
0000
0010
0000
,
0100
0100
0100
0000
,
0001
0000
0001
0000
,
1000
0000
1000
0000
,
0100
0000
0100
0000
,
0010
0010
0010
0000
,
0001
0000
0001
0000
,
1000
0000
1000
0000
,
0010
0000
0010
0000
,
0100
0100
0000
0100
,
0000
0001
0000
0001
,
0001
0000
0001
0000
,
1000
0000
1000
0000
,
0100
0100
0000
0100
,
0000
0010
0000
0010
,
0010
0000
0010
0000
,
0001
0000
0001
0000
,
1000
1000
0000
1000
,
0000
0010
0000
0010
,
0010
0000
0010
0000
,
0100
0000
0100
0000
,
0001
0001
0000
0001
,
0000
0010
0000
0010
,
0010
0000
0010
0000
,
0100
0000
0100
0000
,
1000
0000
1000
0000
,
0000
0000
0001
0001
,
0001
0000
0001
0000
,
0000
0000
0100
0000
,
0100
0000
0100
0000
,
0000
0000
0010
0010
,
0010
0000
0010
0000
,
0000
0000
1000
0000
,
1000
0000
0000
0000
,
0001
0000
0000
0000
,
1000
0000
0000
0000
,
0001
0000
0000
0000
,
0100
0000
0000
0000
,
0010
0000
0010
0000
,
0010
0000
0000
0000
,
0100
0000
0100
0000
,
0100
0000
0000
0000
,
0001
0000
0001
0000
,
0001
0000
0000
0000
,
1000
0000
1000
0000
,
1000
0000
0000
0000
,
0100
0000
0100
0000
,
0100
0000
0000
0000
,
0010
0000
0010
0000
,
0010
0000
0000
0000
,
0001
0000
0001
0000
,
0001
0000
0000
0000
,
0100
0000
0100
0000
,
0100
0000
0000
0000
,
0010
0000
0010
0010
,
0000
0000
0000
0000
,
0001
0001
0001
0000
,
1000
0000
1000
0000
,
0100
0000
0100
0000
,
0010
0000
0010
0000
,
1000
1000
1000
0000
,
0001
0000
0001
0000
,
0100
0000
0100
0000
,
0010
0000
0010
0000
,
0100
0000
0000
0000
,
0100
0100
0000
0000
;
