#TITLE:STELLAR WIND;
#SUBTITLE:;
#ARTIST:L.E.D.;
#TITLETRANSLIT:;
#SUBTITLETRANSLIT:;
#ARTISTTRANSLIT:;
#GENRE:;
#CREDIT:Silverhawke;
#MENUCOLOR:;
#METERTYPE:DDR;
#BANNER:STELLAR WIND.png;
#BACKGROUND:STELLAR WIND-bg.png;
#LYRICSPATH:;
#CDTITLE:cdtitle.png;
#MUSIC:STELLAR WIND.mp3;
#OFFSET:-1.525;
#SAMPLESTART:76.512;
#SAMPLELENGTH:15.000;
#SELECTABLE:YES;
#LISTSORT:;
#BPMS:0.000=160.000;
#STOPS:;
#BGCHANGES:;
#ATTACKS:;

//---------------dance-single - ----------------
#NOTES:
     dance-single:
     :
     Hard:
     14:
     0.653,0.877,0.265,0.197,0.701:
0000
0000
0000
0000
,
0001
0000
0000
0010
0000
0000
0001
0000
0100
0000
0000
0010
0000
0000
1000
0000
,
0100
0000
0000
1000
0000
0000
0010
0000
0100
0000
0000
0001
0000
0000
1000
0000
,
0100
0000
0000
0010
0000
0000
0001
0000
0100
0000
0000
1000
0000
0000
0100
0000
,
0010
0000
0000
1000
0000
0000
0100
0000
0001
0000
0000
0100
0000
0000
0010
0000
,
0001
0000
0000
0100
0000
0000
0010
0000
1000
0000
0000
0100
0000
0000
0010
0000
,
0001
0000
0000
1000
0000
0000
0010
0000
0001
0000
0000
0010
0000
0000
0100
0000
,
0001
0010
1000
0010
0100
0001
0100
1000
,
0001
0000
0000
1000
0000
0000
0100
0000
0000
0010
0000
0000
0001
0000
1000
0000
,
2100
0000
0000
0001
0000
0000
0010
0000
0000
0001
0000
0000
0100
0000
0100
0000
,
0001
0000
0000
0001
0000
0000
0001
0000
0100
0000
0000
0100
0000
0000
3100
0000
,
0102
0000
0000
1000
0000
0000
0010
0000
0000
1000
0000
0000
0100
0000
0100
0000
,
1000
0000
0000
1000
0000
0000
1000
0000
0000
0010
0000
0000
0010
0000
0013
0000
,
2010
0000
0000
0001
0000
0000
0100
0000
0000
0001
0000
0000
0010
0000
0010
0000
,
0001
0000
0000
0001
0000
0000
0001
0000
0100
0000
0000
0100
0000
0000
3100
0000
,
0101
0001
1000
0100
0001
0100
0010
0001
,
1001
0000
0000
0100
0000
0000
0010
0000
0001
1000
0000
0100
0000
0000
0010
0000
,
0012
0000
0000
1000
0000
0000
0100
0000
0000
1000
0000
0000
0010
0000
0010
0000
,
0010
0000
0000
1000
0000
0000
0100
0000
0000
1000
0000
0000
0010
0000
0013
0000
,
2010
0000
0000
0010
0000
0000
0010
0000
0100
0000
0000
0100
0000
0000
0100
0000
,
0001
0000
0000
0001
0000
0000
0001
0000
0100
0000
0000
0100
0000
0000
3100
0000
,
0102
0000
0000
1000
0000
0000
0010
0000
0000
1000
0000
0000
0100
0000
0100
0000
,
0100
0000
0000
1000
0000
0000
0010
0000
0000
1000
0000
0000
0100
0000
0103
0000
,
2100
0000
0000
0100
0000
0000
0100
0000
0010
0000
0000
0010
0000
0000
0010
0000
,
0001
0000
0000
0001
0000
0000
0001
0000
0010
0000
0000
0010
0000
0000
3010
0000
,
0210
0000
0000
1000
0000
0000
0010
0000
0000
0001
0000
0000
0010
0000
0010
0000
,
0010
0000
0000
1000
0000
0000
0010
0000
0000
0001
0000
0000
0010
0000
0310
0000
,
0120
0000
0000
0100
0000
0000
0100
0000
1000
0000
0000
1000
0000
0000
1000
0000
,
0001
0000
0000
0001
0000
0000
0001
0000
0100
0000
0000
0100
0000
0000
0130
0000
,
0110
0010
1000
0100
0001
0100
0010
0001
,
0100
1000
0100
0010
0001
0010
1000
0001
,
0010
0000
0000
0100
0000
0000
1000
0000
0001
0100
0000
0010
0000
0000
0100
0000
,
0001
0000
0000
1000
0000
0000
0100
0000
0010
0001
0000
0100
0000
0000
0010
0000
,
0110
0000
0000
0100
0000
0000
0001
0000
0000
0001
0000
0000
1000
0000
0000
1000
,
0000
0000
0100
0000
0000
0100
0000
0000
0010
0000
0000
0010
0000
0000
0001
0000
,
0100
0000
0000
0100
0000
0000
0010
0000
0000
0010
0000
0000
1000
0000
0000
1000
,
0000
0000
0100
0000
0000
0100
0000
0000
0001
0000
0000
0001
0000
0000
0100
0000
,
1000
0000
0000
1000
0000
0000
0010
0000
0000
0010
0000
0000
0100
0000
0000
0100
,
0000
0000
0001
0000
0000
0001
0000
0000
0010
0000
0000
0010
0000
0000
1000
0000
,
0010
0000
0000
0010
0000
0000
0001
0000
0000
0001
0000
0000
1000
0000
0000
1000
,
0000
0000
0010
0000
0000
0010
0000
0000
0100
0000
0000
0100
0000
0000
0001
0000
,
1001
0000
0000
0010
0000
0000
0100
0000
0000
0001
0000
0000
0010
0000
0000
0100
,
0000
0000
1000
0000
0000
0001
0000
0000
0100
0000
0000
0010
0000
0000
1000
0000
,
1100
0000
0000
0100
0000
0000
0001
0000
0000
0100
0000
0000
0010
0000
0000
0001
,
0000
0000
0100
0000
0000
0010
0000
0000
1000
0000
0000
0001
0000
0000
0010
0000
,
0110
0000
0000
0100
0000
0000
1000
0000
0000
0001
0000
0000
0100
0000
0010
0000
,
1010
0000
1000
0000
0000
0100
0000
0000
0001
0000
0000
0100
0000
0000
0010
0000
,
0011
0001
0100
0010
0110
0100
0001
1000
,
0100
0000
0010
0100
0010
0000
0001
0000
1000
0001
1000
0000
0100
0000
0010
0002
,
2000
0000
0000
3003
,
2100
0000
0000
0001
0000
0000
0010
0000
0000
0100
0000
0000
0001
0000
0000
0100
,
0000
0000
0010
0000
0000
0001
0000
0000
0100
0000
0000
0001
0000
0000
3100
0000
,
0102
0000
0000
1000
0000
0000
0100
0000
0000
0010
0000
0000
1000
0000
0000
0010
,
0000
0000
0100
0000
0000
1000
0000
0000
0010
0000
0000
1000
0000
0000
0013
0000
,
2010
0000
0000
0100
0000
0000
0001
0000
0000
0010
0000
0000
0001
0000
0000
0100
,
0000
0000
0010
0000
0000
0100
0000
0000
0001
0000
0000
0100
0000
0000
3010
0000
,
0012
0000
0000
0100
0000
0000
1000
0000
0000
0010
0000
0000
1000
0000
0000
0100
,
0000
0000
0010
0000
0000
1000
0000
0000
0010
0000
0000
1000
0000
0000
0103
0000
,
0120
0000
0000
1000
0000
0000
0100
0000
0000
0001
0000
0000
1000
0000
0000
0001
,
0000
0000
0100
0000
0000
1000
0000
0000
0001
0000
0000
1000
0000
0000
0130
0000
,
0210
0000
0000
0001
0000
0000
1000
0000
0000
0010
0000
0000
1000
0000
0000
0001
,
0000
0000
0010
0000
0000
1000
0000
0000
0001
0000
0000
1000
0000
0000
0310
0000
,
0120
0000
0000
1000
0000
0000
0001
0000
0000
0100
0000
0000
0001
0000
0000
1000
,
0000
0000
0100
0000
0000
0001
0000
0000
1000
0000
0000
0001
0000
0000
0130
0000
,
0110
0010
1000
0100
0110
0010
0001
0100
,
0010
1000
0010
0000
0100
0000
0001
0010
0001
0000
0100
0000
0001
0010
0100
0000
,
1000
0100
0010
0001
1000
0000
1000
0100
0010
0001
1000
0000
1000
0100
0010
0001
,
2000
0000
0000
0010
0000
0000
0100
0000
0100
0000
0100
0000
0000
0000
3001
0000
,
0001
0100
0010
1000
0001
0000
0001
0100
0010
1000
0001
0000
0001
0100
0010
1000
,
0002
0000
0000
0010
0000
0000
0100
0000
0100
0000
0100
0000
0000
0000
1003
0000
,
1000
0010
0100
0001
1000
0000
1000
0010
0100
0001
1000
0000
1000
0010
0100
0001
,
2000
0000
0000
0010
0000
0000
0100
0000
0100
0000
0100
0000
0000
0000
3001
0000
,
0001
0100
0010
0100
0001
0000
1000
0100
0010
0100
1000
0000
0001
0100
0010
0000
,
1000
0100
0000
0001
0100
0000
1000
0010
0000
0001
0010
0000
0110
0000
0110
0000
,
2002
0000
0000
0000
,
0000
0000
0000
0000
,
3003
0000
0000
0000
;

//---------------dance-single - ----------------
#NOTES:
     dance-single:
     :
     Challenge:
     15:
     0.809,0.974,0.709,0.060,0.778:
0000
0000
0000
0000
,
1000
0000
0000
0100
0000
0000
1000
0000
0010
0000
0000
0100
0000
0000
0001
0000
,
0010
0000
0000
0001
0000
0000
0100
0000
0010
0000
0000
1000
0000
0000
0001
0000
,
0010
0000
0000
0100
0000
0000
1000
0000
0010
0000
0000
0001
0000
0000
0010
0000
,
0100
0000
0000
0001
0000
0000
0010
0000
1000
0000
0000
0010
0000
0000
0100
0000
,
1000
0000
0000
0010
0000
0000
0100
0000
0001
0000
0000
0010
0000
0000
0100
0000
,
1000
0000
0000
0001
0000
0000
0100
0000
1000
0000
0000
0100
0000
0000
0010
0000
,
1000
0100
0001
0100
0010
1000
0010
0001
,
1000
0000
0000
0001
0000
0000
0010
0000
0000
0100
0000
0000
1000
0000
0001
0000
,
0011
0000
0000
1000
0001
0000
0100
0000
0001
1000
0000
0000
0011
0000
0010
0000
,
1001
0000
0000
1000
0001
0000
1000
0000
0011
0000
0000
0010
0001
0000
0010
0000
,
1010
0000
0000
0001
1000
0000
0100
0000
1000
0001
0000
0000
1010
0000
0010
0000
,
1001
0000
0000
0001
1000
0000
0001
0000
1000
0100
0000
0000
1100
0000
0100
0000
,
0101
0000
0000
1000
0001
0000
0010
0000
0001
1000
0000
0000
0101
0000
0100
0000
,
1001
0000
0000
1000
0001
0000
1000
0000
0011
0000
0000
0010
0001
0000
0010
0000
,
1010
1000
0001
0010
1000
0010
0100
1000
,
1001
0000
0000
0010
0000
0000
0100
0000
1000
0001
0000
0010
0000
0000
0100
0000
,
1100
0000
0000
0001
1000
0000
0010
0000
1000
0001
0000
0000
1100
0000
0100
0000
,
1100
0000
0000
0001
1000
0000
0010
0000
1000
0001
0000
0000
1100
0000
0100
0000
,
0101
0000
0000
0100
0001
0000
0100
0000
0011
0000
0000
0010
0001
0000
0010
0000
,
1001
0000
0000
1000
0001
0000
1000
0000
0011
0000
0000
0010
0001
0000
0010
0000
,
1010
0000
0000
0001
1000
0000
0100
0000
1000
0001
0000
0000
1010
0000
0010
0000
,
1010
0000
0000
0001
1000
0000
0100
0000
1000
0001
0000
0000
1010
0000
0010
0000
,
0011
0000
0000
0010
0001
0000
0010
0000
0101
0000
0000
0100
0001
0000
0100
0000
,
1001
0000
0000
1000
0001
0000
1000
0000
0101
0000
0000
0100
0001
0000
0100
0000
,
0110
0000
0000
0001
0010
0000
0100
0000
0010
1000
0000
0000
0110
0000
0100
0000
,
0110
0000
0000
0001
0010
0000
0100
0000
0010
1000
0000
0000
0110
0000
0100
0000
,
0110
0000
0000
0010
0100
0000
0010
0000
0101
0000
0000
0001
0100
0000
0001
0000
,
1100
0000
0000
1000
0100
0000
1000
0000
0110
0000
0000
0010
0100
0000
0010
0000
,
0110
0100
0001
0010
1000
0010
0100
1000
,
0010
0001
0010
0100
1000
0100
0001
1000
,
1100
0000
0000
0110
0000
0000
0011
0000
1000
0010
0000
0110
0000
0000
0010
0000
,
1001
0000
0000
0011
0000
0000
0110
0000
0100
1000
0000
1010
0000
0000
0100
0000
,
0210
0000
0000
0010
0000
0000
1000
0000
0000
1000
0000
0000
0001
0000
0000
0001
,
0000
0000
0010
0000
0000
0010
0000
0000
1000
0000
0000
1000
0000
0000
0001
0000
,
0302
0000
0000
0010
0000
0000
0100
0000
0000
0100
0000
0000
1000
0000
0000
1000
,
0000
0000
0010
0000
0000
0010
0000
0000
0100
0000
0000
0100
0000
0000
0010
0000
,
0023
0000
0000
0001
0000
0000
0100
0000
0000
0100
0000
0000
0001
0000
0000
0001
,
0000
0000
1000
0000
0000
1000
0000
0000
0100
0000
0000
0100
0000
0000
0001
0000
,
0032
0000
0000
0100
0000
0000
0010
0000
0000
0010
0000
0000
1000
0000
0000
1000
,
0000
0000
0100
0000
0000
0100
0000
0000
0010
0000
0000
0010
0000
0000
1000
0000
,
1003
0000
0000
0100
0000
0000
0001
0000
0000
1000
0000
0000
0010
0000
0000
0001
,
0000
0000
0100
0000
0000
0010
0000
0000
1000
0000
0000
0100
0000
0000
1000
0000
,
1010
0000
0000
0010
0000
0000
0001
0000
0000
0010
0000
0000
0100
0000
0000
1000
,
0000
0000
0100
0000
0000
0001
0000
0000
1000
0000
0000
0100
0000
0000
0010
0000
,
0110
0000
0000
0100
0000
0000
1000
0000
0000
0001
0000
0000
0100
0000
0001
0100
,
0001
0000
1000
0000
0000
0100
0000
0000
0001
0000
0000
0100
0000
0000
1000
0000
,
0101
0010
1000
0100
0011
0100
1000
0001
,
0100
0001
0100
0001
1000
0100
1000
0100
0010
0001
0010
0001
0100
0010
0100
0010
,
2000
0000
0000
0000
0000
0000
0000
3000
,
0011
0000
0000
1000
0001
0000
0100
0000
0001
0010
0000
0000
1001
0000
0000
0010
,
0001
0000
0100
0000
0001
1000
0000
0000
0011
0000
0000
1000
0001
0000
0010
0000
,
1010
0000
0000
0001
1000
0000
0010
0000
1000
0100
0000
0000
1001
0000
0000
0100
,
1000
0000
0010
0000
1000
0001
0000
0000
1100
0000
0000
0001
1000
0000
0100
0000
,
0101
0000
0000
0010
0001
0000
1000
0000
0001
0100
0000
0000
1001
0000
0000
0010
,
0001
0000
0100
0000
0001
0010
0000
0000
1001
0000
0000
0010
0001
0000
0100
0000
,
1100
0000
0000
0010
1000
0000
0001
0000
1000
0100
0000
0000
1001
0000
0000
0010
,
1000
0000
0100
0000
1000
0001
0000
0000
1100
0000
0000
0001
1000
0000
0010
0000
,
0110
0000
0000
0001
0100
0000
0010
0000
0100
1000
0000
0000
0101
0000
0000
1000
,
0100
0000
0010
0000
0100
0001
0000
0000
1100
0000
0000
0001
0100
0000
0010
0000
,
0110
0000
0000
1000
0010
0000
0001
0000
0010
0100
0000
0000
0011
0000
0000
1000
,
0010
0000
0100
0000
0010
0001
0000
0000
1010
0000
0000
0001
0010
0000
0100
0000
,
0110
0000
0000
0001
0100
0000
1000
0000
0100
0010
0000
0000
1100
0000
0000
0001
,
0100
0000
0010
0000
0100
1000
0000
0000
0101
0000
0000
1000
0100
0000
0010
0000
,
0110
1000
0001
0010
1100
0001
1000
0010
,
0100
0001
0100
0001
1000
0100
1000
0100
0010
0001
0010
0001
1000
0010
0100
0001
,
1000
0100
0010
0100
1000
0000
0001
0100
0010
0100
0001
0000
1000
0100
0010
0100
,
1000
0000
0000
0100
1000
0000
0010
0000
1010
0000
0010
0000
1000
0001
0000
0100
,
0001
0010
0100
0010
0001
0000
1000
0010
0100
0010
1000
0000
0001
0010
0100
0010
,
0001
0000
0000
0100
0001
0000
0010
0000
0011
0000
0010
0000
0001
1000
0000
0010
,
1000
0100
0001
0100
1000
0000
0001
0100
1000
0100
0001
0000
1000
0100
0001
0100
,
1000
0000
0000
0100
1000
0000
0010
0000
1010
0000
0010
0000
1000
0001
0000
0100
,
0001
0010
1000
0010
0001
0000
1000
0010
0001
0010
1000
0000
0001
0010
1000
0010
,
0001
0100
0000
1000
0100
0000
0001
0011
0000
1000
1010
0000
0101
0000
1100
0000
,
2002
0000
0000
0000
,
0000
0000
0000
0000
,
3003
0000
0000
0000
;

//---------------dance-single - ----------------
#NOTES:
     dance-single:
     :
     Medium:
     11:
     0.519,0.569,0.068,0.273,0.316:
0000
0000
0000
0000
,
1000
0100
0010
0000
0010
0100
1000
0000
,
0001
0100
0010
0000
0010
0100
0001
0000
,
1000
0100
0001
0000
0001
0100
1000
0000
,
0001
0100
1000
0000
1000
0100
0001
0000
,
1000
0010
0100
0000
0100
0010
1000
0000
,
0001
0010
0100
0000
0100
0010
0001
0000
,
1000
0100
1000
0100
0010
0001
0010
0001
,
0100
0000
0000
0010
0000
0000
1000
0000
0000
0001
0000
0000
1001
0000
0100
0000
,
0010
0000
0000
1000
0000
0000
0010
0000
0000
1000
0000
0000
0010
0000
1000
0000
,
0001
0000
0000
0010
0000
0000
0001
0000
1000
0000
0000
0010
0000
0000
1000
0000
,
0100
0000
0000
0010
0000
0000
0100
0000
0000
0010
0000
0000
0100
0000
0010
0000
,
0001
0000
0000
0100
0000
0000
0001
0000
0000
0100
0000
0000
0001
0000
1000
0000
,
0100
0000
0000
1000
0000
0000
0100
0000
0000
0010
0000
0000
0100
0000
1000
0000
,
0001
0000
0000
0100
0000
0000
0010
0000
1000
0000
0000
0001
0000
0000
0010
0000
,
1000
0010
0100
0001
0100
1000
0001
0000
,
1000
0000
0000
0010
0000
0000
0100
0000
0001
1000
0000
0001
0000
0000
2000
0000
,
3100
0000
0000
1000
0000
0000
0100
0000
0000
0010
0000
0000
0001
0000
1000
0000
,
0001
0000
0000
0100
0000
0000
0010
0000
0000
0100
0000
0000
0001
0000
1000
0000
,
0200
0301
0020
1030
,
0002
0103
2000
3010
,
1000
0000
0000
0001
0000
0000
0100
0000
0000
0010
0000
0000
0100
0000
0001
0000
,
1000
0000
0000
0100
0000
0000
0010
0000
0000
0001
0000
0000
0010
0000
0100
0000
,
2000
3010
0002
0103
,
0020
1030
0200
0301
,
0010
0000
0000
1000
0000
0000
0010
0000
0000
0100
0000
0000
0001
0000
1000
0000
,
0001
0000
0000
0010
0000
0000
0100
0000
0000
0010
0000
0000
0001
0000
1000
0000
,
0020
0031
0200
1300
,
0002
0013
2000
3100
,
1000
0000
0000
0001
0000
0000
0010
0000
0000
0100
0000
0000
0010
0000
0001
0000
,
1000
0000
0000
0010
0000
0000
0100
0000
0000
0001
0000
0000
0100
0000
0010
0000
,
2000
0000
0000
0000
3100
0000
0000
0000
0010
0001
0000
0010
0000
0000
0000
0000
,
0200
0000
0000
0000
1300
0000
0000
0000
0010
0100
0000
0001
0000
0000
0000
0000
,
2000
0000
0000
0000
,
3200
0000
0000
0000
,
0320
0000
0000
0000
,
0032
0000
0000
0000
,
0203
0000
2300
0000
,
3020
0000
0032
0000
,
2003
0000
3200
0000
,
0302
0000
0023
0000
,
1030
0000
0101
0000
1000
0001
0100
0000
,
0010
0000
1100
0000
0010
1000
0100
0010
,
0001
0000
0110
0000
1000
0010
0100
0000
,
0001
0000
1010
0000
0100
0001
1000
0100
,
0020
0000
0000
0000
0031
1000
0100
0010
,
0002
0000
0000
0000
1003
0010
0100
0010
,
2000
0000
3001
1000
0200
0000
0310
0001
,
1000
0010
0100
0010
1000
0100
0010
0100
,
2000
0000
0000
3000
,
0001
0000
0000
0100
0000
0000
0001
0000
0000
1000
0000
0000
0100
0000
0000
1000
,
0000
0000
0010
0000
0000
0100
0000
0000
0010
0000
0000
1000
0000
0000
0100
0000
,
0010
0000
0000
0001
0000
0000
0010
0000
0000
0100
0000
0000
1000
0000
0000
0010
,
0000
0000
0100
0000
0000
0010
0000
0000
1000
0000
0000
0001
0000
0000
1000
0000
,
0100
0000
0000
0010
0000
0000
0100
0000
0000
1000
0000
0000
0010
0000
0000
0100
,
0000
0000
0001
0000
0000
1000
0000
0000
0001
0000
0000
0010
0000
0000
0100
0000
,
1000
0000
0000
0100
0000
0000
0010
0000
0000
0001
0000
0000
0100
0000
0000
0010
,
0000
0000
1000
0000
0000
0001
0000
0000
1000
0000
0000
0100
0000
0000
0010
0000
,
0001
0000
0000
1000
0000
0000
0100
0000
0000
1000
0000
0000
0010
0000
0000
0100
,
0000
0000
0001
0000
0000
0010
0000
0000
0100
0000
0000
0010
0000
0000
0001
0000
,
0100
0000
0000
0010
0000
0000
1000
0000
0000
0010
0000
0000
0100
0000
0000
0001
,
0000
0000
1000
0000
0000
0100
0000
0000
0010
0000
0000
0100
0000
0000
1000
0000
,
0010
0000
0000
0100
0000
0000
1000
0000
0000
0100
0000
0000
0001
0000
0000
1000
,
0000
0000
0100
0000
0000
0001
0000
0000
0100
0000
0000
0010
0000
0000
0001
0000
,
1000
0100
0010
0000
0001
0100
0010
0000
,
1000
0100
0010
0001
0100
0010
0100
0000
,
0001
0100
1000
0000
0001
0100
1000
0000
,
0001
0100
1000
0100
0001
1000
0001
0000
,
1000
0100
0001
0000
1000
0100
0001
0000
,
1000
0100
0001
0100
1000
0001
1000
0000
,
0001
0010
1000
0000
0001
0010
1000
0000
,
0001
0010
1000
0010
0001
0100
1000
0000
,
0100
0010
0010
0100
1000
1000
0100
0001
,
1000
0000
0000
1100
0000
0000
0001
0000
0000
0101
0000
0000
1000
0000
0001
0000
,
0110
0000
0000
0000
;

//---------------dance-single - ----------------
#NOTES:
     dance-single:
     :
     Easy:
     7:
     0.342,0.443,0.034,0.120,0.000:
0000
0000
0000
0000
,
1000
0100
0001
0100
,
1000
0100
0001
0100
,
1000
0010
0001
0010
,
1000
0010
0001
0010
,
1000
0100
0001
0100
,
1000
0010
0001
0010
,
1000
0100
0010
0001
,
2002
0000
0000
3003
,
0001
0001
0100
0100
,
0001
0100
0001
0001
,
1000
1000
0100
0100
,
1000
0100
1000
1000
,
0010
0010
0100
0100
,
0010
0100
0010
0010
,
1000
0100
0010
0001
,
1000
0000
0001
0000
1000
0001
1000
0000
,
0001
0100
1000
0100
,
0001
0100
1000
0100
,
0001
0001
0010
0010
,
0100
1000
0001
0001
,
1000
0100
0001
0100
,
1000
0100
0001
0100
,
1000
1000
0010
0010
,
0100
0001
1000
1000
,
0001
0010
1000
0010
,
0001
0010
1000
0010
,
0001
0001
0100
0100
,
0010
1000
0001
0001
,
1000
0010
0001
0010
,
1000
0010
0001
0010
,
1000
0100
0010
0001
,
1000
0010
0100
0001
,
2000
0000
0000
0000
,
3000
0000
0000
0000
,
0002
0000
0000
0000
,
0003
0000
0000
0000
,
0200
0000
0000
0000
,
0300
0000
0000
0000
,
0020
0000
0000
0000
,
0030
0000
0000
0000
,
1000
0100
0000
0100
,
0000
0100
0000
0100
,
0010
0001
0000
0001
,
0000
0001
0000
0001
,
1000
0010
0000
0010
,
0000
0010
0000
0010
,
0100
0001
0100
0001
,
1000
0000
0100
0000
0010
0001
1000
0000
,
2002
0000
0000
3003
,
0001
0001
1000
1000
,
0001
0100
0010
0010
,
1000
1000
0001
0001
,
1000
0100
0010
0010
,
0001
0001
1000
1000
,
0001
0010
0100
0100
,
1000
1000
0001
0001
,
1000
0010
0100
0100
,
0001
0100
1000
0100
,
0001
0000
0010
0000
1000
0000
0010
0001
,
1000
0100
0001
0100
,
1000
0000
0010
0000
0001
0000
0010
1000
,
0001
0100
1000
0100
,
0001
0000
0010
0000
1000
0000
0010
0001
,
1000
0010
0001
0010
,
1000
0000
0100
0000
0001
0000
0100
1000
,
0002
0103
2000
3100
,
0001
0000
1000
0000
0010
0100
0010
0000
,
2000
3100
0002
0103
,
1000
0000
0001
0000
0010
0100
0010
0000
,
0002
0013
2000
3010
,
0001
0000
1000
0000
0010
0100
0010
0000
,
1000
0100
0100
0000
0001
0100
0100
0000
,
1000
0000
0001
0100
0010
0000
0110
0000
,
1001
0000
0000
0000
;

//---------------dance-single - ----------------
#NOTES:
     dance-single:
     :
     Beginner:
     1:
     0.123,0.158,0.009,0.017,0.000:
0000
0000
0000
0000
,
1000
0000
0000
0000
,
0000
0000
0001
0000
,
0100
0000
0000
0000
,
0010
0000
0100
0000
,
0001
0000
0000
0000
,
0000
0000
1000
0000
,
0100
0000
0100
0000
,
0200
0000
0300
0000
,
1000
0000
0000
0000
,
1000
0000
1000
0000
,
0001
0000
0000
0000
,
0001
0000
0001
0000
,
1000
0000
0000
0000
,
1000
0000
1000
0000
,
0001
0000
0000
0000
,
0001
0000
0001
0000
,
0100
0000
0000
0000
,
0100
0000
0000
0000
,
0010
0000
0010
0000
,
0010
0000
0010
0000
,
0100
0000
0000
0000
,
0100
0000
0000
0000
,
0010
0000
0010
0000
,
0010
0000
0010
0000
,
0100
0000
0000
0000
,
0100
0000
0000
0000
,
0010
0000
0010
0000
,
0010
0000
0010
0000
,
0100
0000
0000
0000
,
0100
0000
0000
0000
,
0010
0000
0010
0000
,
0010
0000
0010
0000
,
0100
0000
0000
0000
,
0000
0000
0000
0000
,
0100
0000
0000
0000
,
0000
0000
0000
0000
,
0100
0000
0000
0000
,
0000
0000
0000
0000
,
0100
0000
0000
0000
,
0000
0000
0000
0000
,
0001
0000
0000
0000
,
1000
0000
0000
0000
,
0001
0000
0000
0000
,
1000
0000
0000
0000
,
0100
0000
0000
0000
,
0010
0000
0000
0000
,
0100
0000
0100
0000
,
0010
0000
0010
0000
,
0200
0000
0300
0000
,
1000
0000
0000
0000
,
1000
0000
0100
0000
,
0001
0000
0000
0000
,
0001
0000
0100
0000
,
1000
0000
0000
0000
,
0001
0000
0100
0000
,
1000
0000
0000
0000
,
1000
0000
0100
0000
,
0001
0000
0000
0000
,
1000
0000
0010
0000
,
0001
0000
0000
0000
,
0001
0000
0010
0000
,
1000
0000
0000
0000
,
0001
0000
0010
0000
,
1000
0000
0000
0000
,
1000
0000
0010
0000
,
0001
0000
0000
0000
,
0001
0000
0001
0000
,
1000
0000
0000
0000
,
1000
0000
1000
0000
,
0010
0000
0000
0000
,
0010
0000
0010
0000
,
0100
0000
0000
0000
,
0100
0000
0100
0000
,
1001
0000
0000
0000
;

//---------------dance-double - ----------------
#NOTES:
     dance-double:
     :
     Hard:
     14:
     0.619,0.790,0.077,0.137,0.722:
00000000
00000000
00000000
00000000
,
00010000
00000000
00000000
00001000
00000000
00000000
01000000
00000000
00010000
00000000
00000000
00100000
00000000
00000000
01000000
00000000
,
10000000
00000000
00000000
01000000
00000000
00000000
00010000
00000000
00001000
00000000
00000000
00000100
00000000
00000000
00000010
00000000
,
00010000
00000000
00000000
00000010
00000000
00000000
00001000
00000000
00000100
00000000
00000000
00000001
00000000
00000000
00000100
00000000
,
00000010
00000000
00000000
00000001
00000000
00000000
00000100
00000000
00001000
00000000
00000000
00010000
00000000
00000000
00100000
00000000
,
00010000
00000000
00000000
00001000
00000000
00000000
00010000
00000000
01000000
00000000
00000000
00010000
00000000
00000000
00001000
00000000
,
00000010
00000000
00000000
00000001
00000000
00000000
00000100
00000000
00001000
00000000
00000000
00010000
00000000
00000000
00100000
00000000
,
01000000
00001000
00010000
01000000
00010000
00001000
00000100
00000001
,
00001000
00000000
00000000
00001100
00000000
00000000
00010000
00000000
00000000
00011000
00000000
00000000
00001000
00000000
01000000
00000000
,
01002000
00000000
00000000
00010000
00000000
00000000
01000000
00000000
00000000
00010000
00000000
00000000
00100000
00000000
00100000
00000000
,
00100000
00000000
00000000
00010000
00000000
00000000
01000000
00000000
01000000
00000000
00000000
10000000
00000000
00000000
00010000
00000000
,
00023000
00000000
00000000
00001000
00000000
00000000
00000100
00000000
00000000
00001000
00000000
00000000
00000010
00000000
00000010
00000000
,
00000010
00000000
00000000
00001000
00000000
00000000
00000100
00000000
00000000
00000001
00000000
00000000
00001000
00000000
00001000
00000000
,
00032000
00000000
00000000
01000000
00000000
00000000
10000000
00000000
00000000
01000000
00000000
00000000
00010000
00000000
00010000
00000000
,
00010000
00000000
00000000
00100000
00000000
00000000
10000000
00000000
10000000
00000000
00000000
00100000
00000000
00000000
00010000
00000000
,
00013000
00001000
00000100
00000001
00000100
00001000
00010000
01000000
,
11000000
00000000
00000000
10010000
00000000
00000000
01010000
00000000
01000000
00001000
00000000
00010000
00000000
00000000
00001000
00000000
,
00021000
00000000
00000000
00000100
00000000
00000000
00000001
00000000
00000000
00000100
00000000
00000000
00001000
00000000
00001000
00000000
,
00001000
00000000
00000000
00000010
00000000
00000000
00000001
00000000
00000000
00000010
00000000
00000000
00001000
00000000
00001000
00000000
,
00032000
00000000
00000000
00100000
00000000
00000000
10000000
00000000
10000000
00000000
00000000
00100000
00000000
00000000
00010000
00000000
,
00010000
00000000
00000000
01000000
00000000
00000000
10000000
00000000
10000000
00000000
00000000
01000000
00000000
00000000
00010000
00000000
,
00023000
00000000
00000000
00000010
00000000
00000000
00000001
00000000
00000000
00000010
00000000
00000000
00001000
00000000
00001000
00000000
,
00001000
00000000
00000000
00000100
00000000
00000000
00000001
00000000
00000000
00000100
00000000
00000000
00001000
00000000
00001000
00000000
,
00032000
00000000
00000000
01000000
00000000
00000000
10000000
00000000
10000000
00000000
00000000
00100000
00000000
00000000
00010000
00000000
,
00010000
00000000
00000000
00100000
00000000
00000000
10000000
00000000
10000000
00000000
00000000
01000000
00000000
00000000
00010000
00000000
,
00023000
00000000
00000000
00000010
00000000
00000000
00000001
00000000
00000000
00000100
00000000
00000000
00001000
00000000
00001000
00000000
,
00001000
00000000
00000000
00000100
00000000
00000000
00000001
00000000
00000000
00000010
00000000
00000000
00001000
00000000
00001000
00000000
,
00032000
00000000
00000000
01000000
00000000
00000000
10000000
00000000
10000000
00000000
00000000
00010000
00000000
00000000
00100000
00000000
,
00100000
00000000
00000000
10000000
00000000
00000000
01000000
00000000
01000000
00000000
00000000
00100000
00000000
00000000
00010000
00000000
,
00013000
00001000
00000100
00000010
00000100
00001000
00010000
00100000
,
00010000
00001000
00010000
01000000
00100000
01000000
00010000
00001000
,
00000100
00000000
00000000
00000010
00000000
00000000
00000100
00000000
00000001
00001000
00000000
00000100
00000000
00000000
00010000
00000000
,
01000000
00000000
00000000
10000000
00000000
00000000
00010000
00000000
01000000
00100000
00000000
10000000
00000000
00000000
01000000
00000000
,
10000000
00000000
00000000
10000000
00000000
00000000
01000000
00000000
00000000
01000000
00000000
00000000
00010000
00000000
00000000
00010000
,
00000000
00000000
00001000
00000000
00000000
00001000
00000000
00000000
00000010
00000000
00000000
00000010
00000000
00000000
00000001
00000000
,
00000100
00000000
00000000
00000100
00000000
00000000
00001000
00000000
00000000
00001000
00000000
00000000
00010000
00000000
00000000
00010000
,
00000000
00000000
01000000
00000000
00000000
01000000
00000000
00000000
10000000
00000000
00000000
10000000
00000000
00000000
01000000
00000000
,
00010000
00000000
00000000
00010000
00000000
00000000
00001000
00000000
00000000
00001000
00000000
00000000
00000100
00000000
00000000
00000100
,
00000000
00000000
00000001
00000000
00000000
00000001
00000000
00000000
00000010
00000000
00000000
00000010
00000000
00000000
00001000
00000000
,
00010000
00000000
00000000
00010000
00000000
00000000
00100000
00000000
00000000
00100000
00000000
00000000
10000000
00000000
00000000
10000000
,
00000000
00000000
01000000
00000000
00000000
01000000
00000000
00000000
00010000
00000000
00000000
00010000
00000000
00000000
00001000
00000000
,
00000100
00000000
00000000
00000010
00000000
00000000
00000100
00000000
00000000
00000001
00000000
00000000
00001000
00000000
00000000
00000100
,
00000000
00000000
00010000
00000000
00000000
00001000
00000000
00000000
01000000
00000000
00000000
00100000
00000000
00000000
10000000
00000000
,
01000000
00000000
00000000
00010000
00000000
00000000
00001000
00000000
00000000
00000100
00000000
00000000
00000010
00000000
00000000
00010000
,
00000000
00000000
00000100
00000000
00000000
00000010
00000000
00000000
00000001
00000000
00000000
00000100
00000000
00000000
00000010
00000000
,
00010000
00000000
00000000
00001000
00000000
00000000
01000000
00000000
00000000
00010000
00000000
00000000
00100000
00000000
01000000
00000000
,
10000000
00000000
00010000
00000000
00000000
01000000
00000000
00000000
00001000
00000000
00000000
00010000
00000000
00000000
00000100
00000000
,
00001000
00000010
00000100
00000001
00001000
00000100
00010000
00001000
,
01000000
00010000
01000000
00000000
00100000
00000000
10000000
00000000
00010000
00000000
00100000
00000000
01000000
10000000
00010000
00000000
,
00000000
00000000
00000000
00000000
,
01002000
00000000
00000000
00010000
00000000
00000000
00100000
00000000
00000000
00010000
00000000
00000000
01000000
00000000
00000000
00100000
,
00000000
00000000
10000000
00000000
00000000
01000000
00000000
00000000
00100000
00000000
00000000
01000000
00000000
00000000
00010000
00000000
,
00023000
00000000
00000000
00000100
00000000
00000000
00000010
00000000
00000000
00000001
00000000
00000000
00000100
00000000
00000000
00000010
,
00000000
00000000
00000100
00000000
00000000
00000001
00000000
00000000
00000010
00000000
00000000
00000100
00000000
00000000
00001000
00000000
,
00032000
00000000
00000000
00100000
00000000
00000000
10000000
00000000
00000000
00010000
00000000
00000000
01000000
00000000
00000000
10000000
,
00000000
00000000
00010000
00000000
00000000
00100000
00000000
00000000
10000000
00000000
00000000
01000000
00000000
00000000
00010000
00000000
,
00023000
00000000
00000000
00000010
00000000
00000000
00000001
00000000
00000000
00001000
00000000
00000000
00000100
00000000
00000000
00000001
,
00000000
00000000
00001000
00000000
00000000
00000100
00000000
00000000
00000010
00000000
00000000
00000001
00000000
00000000
00001000
00000000
,
00032000
00000000
00000000
00100000
00000000
00000000
01000000
00000000
00000000
10000000
00000000
00000000
00010000
00000000
00000000
00100000
,
00000000
00000000
01000000
00000000
00000000
10000000
00000000
00000000
00010000
00000000
00000000
10000000
00000000
00000000
00010000
00000000
,
00023000
00000000
00000000
00000100
00000000
00000000
00000010
00000000
00000000
00000001
00000000
00000000
00001000
00000000
00000000
00000100
,
00000000
00000000
00000010
00000000
00000000
00000001
00000000
00000000
00001000
00000000
00000000
00000001
00000000
00000000
00001000
00000000
,
00032000
00000000
00000000
01000000
00000000
00000000
10000000
00000000
00000000
01000000
00000000
00000000
00010000
00000000
00000000
00100000
,
00000000
00000000
10000000
00000000
00000000
00010000
00000000
00000000
01000000
00000000
00000000
10000000
00000000
00000000
00010000
00000000
,
00013000
01000000
10000000
01000000
00010000
00001000
00000100
00001000
,
00100000
00010000
00100000
00000000
00001000
00000000
00010000
00000100
00010000
00000000
00000010
00000000
00001000
00000100
00001000
00000000
,
00000001
00000010
00000100
00000010
00000001
00000000
00001000
00000100
00000010
00000100
00001000
00000000
00000001
00000010
00000100
00000010
,
00000100
00000000
00000000
00010000
00000000
00000000
00001000
00000000
01000000
00000000
00010000
00000000
00000000
10000000
00000000
00010000
,
10000000
01000000
00100000
01000000
10000000
00000000
00010000
00100000
01000000
00100000
00010000
00000000
10000000
01000000
00100000
01000000
,
00100000
00000000
00000000
00010000
00000000
00000000
01000000
00000000
00001000
00000000
00010000
00000000
00000000
00000100
00000000
00001000
,
00000001
00000100
00000010
00000100
00000001
00000000
00001000
00000010
00000100
00000010
00001000
00000000
00000001
00000100
00000010
00000100
,
00000010
00000000
00000000
00001000
00000000
00000000
00000100
00000000
00010000
00000000
00001000
00000000
00000000
01000000
00000000
00010000
,
00100000
01000000
10000000
00010000
01000000
00000000
00100000
01000000
00010000
00100000
00001000
00000000
00010000
00000100
00001000
00000000
,
00000010
00000100
00000000
00000001
00000010
00000000
00000100
00001000
00000000
00010000
00100000
00000000
01000000
00000000
10000000
00000000
,
10010000
00000000
00000000
00000000
;

//---------------dance-double - ----------------
#NOTES:
     dance-double:
     :
     Challenge:
     15:
     0.792,0.790,0.675,0.000,0.765:
00000000
00000000
00000000
00000000
,
00001000
00000000
00000000
00010000
00000000
00000000
00000100
00000000
00001000
00000000
00000000
00000010
00000000
00000000
00000100
00000000
,
00000001
00000000
00000000
00000100
00000000
00000000
00001000
00000000
00010000
00000000
00000000
01000000
00000000
00000000
00100000
00000000
,
00001000
00000000
00000000
00100000
00000000
00000000
00010000
00000000
01000000
00000000
00000000
10000000
00000000
00000000
01000000
00000000
,
00100000
00000000
00000000
10000000
00000000
00000000
01000000
00000000
00010000
00000000
00000000
00001000
00000000
00000000
00000010
00000000
,
00001000
00000000
00000000
00010000
00000000
00000000
00001000
00000000
00000100
00000000
00000000
00001000
00000000
00000000
00010000
00000000
,
00100000
00000000
00000000
10000000
00000000
00000000
01000000
00000000
00010000
00000000
00000000
00001000
00000000
00000000
00000010
00000000
,
00000100
00010000
00001000
00000100
00001000
00010000
01000000
10000000
,
00010000
00000000
00000000
01010000
00000000
00000000
00001000
00000000
00000000
00011000
00000000
00000000
00010000
00000000
00000100
00000000
,
00010100
00000000
00000000
00001000
00010000
00000000
00000100
00000000
00010000
00001000
00000000
00000000
00010010
00000000
00000001
00000000
,
00010010
00000000
00000000
00001000
00010000
00000000
00000100
00000000
00011000
00000000
00000000
00000001
00010000
00000000
00001000
00000000
,
00011000
00000000
00000000
00010000
00001000
00000000
01000000
00000000
00001000
00010000
00000000
00000000
00101000
00000000
10000000
00000000
,
00101000
00000000
00000000
00010000
00001000
00000000
01000000
00000000
00001000
10000000
00000000
00000000
01001000
00000000
00010000
00000000
,
00011000
00000000
00000000
00000100
00010000
00000000
00000001
00000000
00010000
00000100
00000000
00000000
00011000
00000000
00000100
00000000
,
00011000
00000000
00000000
00000010
00010000
00000000
00000001
00000000
00010100
00000000
00000000
00000010
00010000
00000000
00000100
00000000
,
00011000
00010000
01000000
10000000
01000000
00010000
00001000
00000100
,
00000101
00000000
00000000
00001001
00000000
00000000
00001100
00000000
00000100
00010000
00000000
00001000
00000000
00000000
00010000
00000000
,
00011000
00000000
00000000
01000000
00001000
00000000
10000000
00000000
00001000
01000000
00000000
00000000
00011000
00000000
01000000
00000000
,
00011000
00000000
00000000
00100000
00001000
00000000
10000000
00000000
00001000
00100000
00000000
00000000
00011000
00000000
01000000
00000000
,
00011000
00000000
00000000
00000010
00010000
00000000
00000001
00000000
00010100
00000000
00000000
00000010
00010000
00000000
00000100
00000000
,
00011000
00000000
00000000
00000100
00010000
00000000
00000010
00000000
00010001
00000000
00000000
00000100
00010000
00000000
00000010
00000000
,
00011000
00000000
00000000
00100000
00001000
00000000
10000000
00000000
00001000
00100000
00000000
00000000
00011000
00000000
01000000
00000000
,
00011000
00000000
00000000
01000000
00001000
00000000
10000000
00000000
00001000
01000000
00000000
00000000
00011000
00000000
00100000
00000000
,
00011000
00000000
00000000
00000100
00010000
00000000
00000010
00000000
00010001
00000000
00000000
00000010
00010000
00000000
00000100
00000000
,
00011000
00000000
00000000
00000010
00010000
00000000
00000100
00000000
00010001
00000000
00000000
00000100
00010000
00000000
00000010
00000000
,
00011000
00000000
00000000
00100000
00001000
00000000
10000000
00000000
00001000
01000000
00000000
00000000
00011000
00000000
00100000
00000000
,
00011000
00000000
00000000
01000000
00001000
00000000
10000000
00000000
00001000
00100000
00000000
00000000
00011000
00000000
01000000
00000000
,
00011000
00000000
00000000
00000100
00010000
00000000
00000001
00000000
00010010
00000000
00000000
00001000
00010000
00000000
00000010
00000000
,
00010100
00000000
00000000
00000001
00010000
00000000
00000010
00000000
00010100
00000000
00000000
00000010
00010000
00000000
00000100
00000000
,
00011000
00010000
01000000
00100000
01000000
00010000
00001000
00000010
,
00001000
00010000
00001000
00000100
00000010
00000100
00001000
00010000
,
01000000
00000000
00000000
01100000
00000000
00000000
11000000
00000000
10000000
00010000
00000000
01000000
00000000
00000000
00001000
00000000
,
00000100
00000000
00000000
00000101
00000000
00000000
00001001
00000000
00000100
00000010
00000000
00000001
00000000
00000000
00000100
00000000
,
00000001
00000000
00000000
00000001
00000000
00000000
00000100
00000000
00000000
00000100
00000000
00000000
00001000
00000000
00000000
00001000
,
00000000
00000000
01000000
00000000
00000000
01000000
00000000
00000000
00100000
00000000
00000000
00100000
00000000
00000000
10000000
00000000
,
01000000
00000000
00000000
01000000
00000000
00000000
00010000
00000000
00000000
00010000
00000000
00000000
00000100
00000000
00000000
00000100
,
00000000
00000000
00000010
00000000
00000000
00000010
00000000
00000000
00000001
00000000
00000000
00000001
00000000
00000000
00000100
00000000
,
00001000
00000000
00000000
00001000
00000000
00000000
00010000
00000000
00000000
00010000
00000000
00000000
01000000
00000000
00000000
01000000
,
00000000
00000000
10000000
00000000
00000000
10000000
00000000
00000000
00100000
00000000
00000000
00100000
00000000
00000000
00010000
00000000
,
00001000
00000000
00000000
00001000
00000000
00000000
00000010
00000000
00000000
00000010
00000000
00000000
00000001
00000000
00000000
00000001
,
00000000
00000000
00000100
00000000
00000000
00000100
00000000
00000000
00001000
00000000
00000000
00001000
00000000
00000000
00010000
00000000
,
01010000
00000000
00000000
00100000
00000000
00000000
01000000
00000000
00000000
10000000
00000000
00000000
00010000
00000000
00000000
01000000
,
00000000
00000000
00001000
00000000
00000000
00010000
00000000
00000000
00000100
00000000
00000000
00000010
00000000
00000000
00000001
00000000
,
00000100
00000000
00000000
00001000
00000000
00000000
00010000
00000000
00000000
01000000
00000000
00000000
00100000
00000000
00000000
00001000
,
00000000
00000000
01000000
00000000
00000000
00100000
00000000
00000000
10000000
00000000
00000000
01000000
00000000
00000000
00100000
00000000
,
00101000
00000000
00000000
00010000
00000000
00000000
00000100
00000000
00000000
00001000
00000000
00000000
00000010
00000000
00000110
00000000
,
00000101
00000000
00001000
00000000
00000000
00000100
00000000
00000000
00010000
00000000
00000000
00001000
00000000
00000000
01000000
00000000
,
01010000
00100000
01000000
10000000
10010000
01000000
00001000
00010000
,
00000100
00001000
00000100
00001000
00000010
00000100
00000010
00000100
00000001
00000010
00000001
00000010
00000100
00010000
00000100
00010000
,
01000000
00000000
00000000
00000000
,
00010010
00000000
00000000
00001000
00010000
00000000
00000010
00000000
00010000
00001000
00000000
00000000
00010100
00000000
00000000
00000010
,
00010000
00000000
00000001
00000000
00010000
00000100
00000000
00000000
00010010
00000000
00000000
00000100
00010000
00000000
00001000
00000000
,
00011000
00000000
00000000
01000000
00001000
00000000
00100000
00000000
00001000
10000000
00000000
00000000
01001000
00000000
00000000
00100000
,
00001000
00000000
01000000
00000000
00001000
10000000
00000000
00000000
00101000
00000000
00000000
01000000
00001000
00000000
00010000
00000000
,
00011000
00000000
00000000
00000010
00010000
00000000
00000001
00000000
00010000
00001000
00000000
00000000
00010100
00000000
00000000
00000001
,
00010000
00000000
00001000
00000000
00010000
00000010
00000000
00000000
00010001
00000000
00000000
00000100
00010000
00000000
00001000
00000000
,
00011000
00000000
00000000
00100000
00001000
00000000
10000000
00000000
00001000
00010000
00000000
00000000
01001000
00000000
00000000
10000000
,
00001000
00000000
00010000
00000000
00001000
01000000
00000000
00000000
00101000
00000000
00000000
10000000
00001000
00000000
00010000
00000000
,
00011000
00000000
00000000
00000010
00010000
00000000
00000100
00000000
00010000
00000001
00000000
00000000
00011000
00000000
00000000
00000010
,
00010000
00000000
00000100
00000000
00010000
00000001
00000000
00000000
00011000
00000000
00000000
00000001
00010000
00000000
00001000
00000000
,
00011000
00000000
00000000
01000000
00001000
00000000
00100000
00000000
00001000
10000000
00000000
00000000
00011000
00000000
00000000
01000000
,
00001000
00000000
00100000
00000000
00001000
10000000
00000000
00000000
00011000
00000000
00000000
10000000
00001000
00000000
00010000
00000000
,
00011000
00000000
00000000
00000100
00010000
00000000
00000001
00000000
00010000
00000100
00000000
00000000
00011000
00000000
00000000
00000010
,
00010000
00000000
00000001
00000000
00010000
00001000
00000000
00000000
00010100
00000000
00000000
00000001
00010000
00000000
00001000
00000000
,
00011000
00000100
00000001
00000100
00001000
00010000
01000000
00010000
,
00000010
00001000
00000010
00001000
00000100
00010000
00000100
00010000
00001000
00100000
00001000
00100000
00010000
01000000
00010000
00000000
,
10000000
01000000
00100000
01000000
10000000
00000000
00010000
01000000
00100000
01000000
00010000
00000000
10000000
01000000
00100000
01000000
,
00010000
00000000
00000000
00001000
00010000
00000000
00000100
00000000
00011000
00000000
00000100
00000000
00010000
00000001
00000000
00001000
,
00000001
00000100
00000010
00000100
00000001
00000000
00001000
00000100
00000010
00000100
00001000
00000000
00000001
00000100
00000010
00000100
,
00001000
00000000
00000000
00010000
00001000
00000000
00100000
00000000
00011000
00000000
01000000
00000000
00001000
00100000
00000000
00010000
,
10000000
00100000
01000000
00100000
10000000
00000000
00010000
00100000
01000000
00100000
00010000
00000000
10000000
00100000
01000000
00100000
,
00010000
00000000
00000000
00001000
00010000
00000000
00000100
00000000
00011000
00000000
00000010
00000000
00010000
00000001
00000000
00001000
,
00000010
00000100
00000001
00001000
00000100
00000000
00000010
00000100
00001000
00000010
00010000
00000000
00001000
01000000
00010000
00000000
,
00100000
01000000
00000000
10000000
00100000
00000000
01000000
00010000
00000000
00001000
00000010
00000000
00000100
00000000
00000001
00000000
,
00001001
00000000
00000000
00000000
;

//---------------dance-double - ----------------
#NOTES:
     dance-double:
     :
     Medium:
     11:
     0.518,0.537,0.239,0.068,0.295:
00000000
00000000
00000000
00000000
,
10000000
00000000
00010000
01000000
00100000
00000000
01000000
00001000
,
00010000
00000000
00000100
00010000
00000010
00000000
00001000
00000100
,
00000010
00000000
00000001
00000100
00001000
00000000
00000100
00001000
,
00010000
00000000
00001000
00010000
00100000
00000000
00010000
00100000
,
10000000
00000000
00010000
10000000
01000000
00000000
00100000
00001000
,
00010000
00000000
00000100
00010000
00000010
00000000
00001000
00000100
,
00000010
00000001
00000010
00000001
00001000
00000100
00001000
00000100
,
00010000
00000000
00000000
00001000
00000000
00000000
01000000
00000000
00000000
00100000
00000000
00000000
10000000
00000000
01000000
00000000
,
10000000
00000000
00000000
10000000
00000000
00000000
10000000
00000000
00000000
10000000
00000000
00000000
01000000
00000000
00010000
00000000
,
00001000
00000000
00000000
00001000
00000000
00000000
00001000
00000000
00000100
00000000
00000000
00000100
00000000
00000000
00000100
00000000
,
00000001
00000000
00000000
00000001
00000000
00000000
00000001
00000000
00000000
00000001
00000000
00000000
00000100
00000000
00001000
00000000
,
00010000
00000000
00000000
00010000
00000000
00000000
00010000
00000000
00000000
00010000
00000000
00000000
00010000
00000000
01000000
00000000
,
10000000
00000000
00000000
10000000
00000000
00000000
10000000
00000000
00000000
10000000
00000000
00000000
00100000
00000000
00010000
00000000
,
00001000
00000000
00000000
00001000
00000000
00000000
00001000
00000000
00000010
00000000
00000000
00000010
00000000
00000000
00000010
00000000
,
00000001
00000100
00000001
00000100
00000010
00010000
00000010
00010000
,
00001000
00000000
00000000
01000000
00000000
00000000
00100000
00000000
10000000
00000000
00000000
00010000
00000000
00000000
10000000
00000000
,
01000000
00000000
01100000
00000000
00100000
00001000
00010000
00000100
,
00001000
00000000
00001010
00000000
00000010
00000100
00000001
00000010
,
00000100
00000000
00000000
00000100
00000000
00000000
00000100
00000000
00010000
00000000
00000000
00010000
00000000
00000000
00010000
00000000
,
00001000
00000000
00000000
00001000
00000000
00000000
00001000
00000000
01000000
00000000
00000000
01000000
00000000
00000000
01000000
00000000
,
00100000
00000000
10100000
00000000
10000000
00010000
01000000
00001000
,
00010000
00000000
00010100
00000000
00000100
00000010
00000001
00000100
,
00000010
00000000
00000000
00000010
00000000
00000000
00000010
00000000
00010000
00000000
00000000
00010000
00000000
00000000
00010000
00000000
,
00001000
00000000
00000000
00001000
00000000
00000000
00001000
00000000
00100000
00000000
00000000
00100000
00000000
00000000
00100000
00000000
,
00010000
00000000
01001000
00000000
00001000
00000100
00000010
00001000
,
00000100
00000000
00000110
00000000
00000010
00000100
00010000
00001000
,
00100000
00000000
00000000
00100000
00000000
00000000
00100000
00000000
00001000
00000000
00000000
00001000
00000000
00000000
00001000
00000000
,
00010000
00000000
00000000
00010000
00000000
00000000
00010000
00000000
00000100
00000000
00000000
00000100
00000000
00000000
00000100
00000000
,
00001000
00000010
00000100
00000001
00000010
00000100
00010000
00001000
,
00100000
00010000
00100000
00010000
01000000
00100000
10000000
01000000
,
00100000
00000000
00000000
00001000
00000000
00000000
00010000
00000000
00001000
00000000
00000000
00010000
00000000
00000000
00000100
00000000
,
00001000
00000000
00000000
00000010
00000000
00000000
00001000
00000000
00000100
00000000
00000000
00000010
00000000
00000000
00000001
00000000
,
00002000
00000000
00000000
00000000
,
00003200
00000000
00000000
00000000
,
00020300
00000000
00000000
00000000
,
00032000
00000000
00000000
00000000
,
02003000
00000000
00000000
00000000
,
03200000
00000000
00000000
00000000
,
20300000
00000000
00000000
00000000
,
32000000
00000000
00000000
00000000
,
03100000
00000000
00110000
00000000
00010000
10000000
01000000
00000000
,
00010000
00001000
00000100
00000001
,
00001000
00000000
00001100
00000000
00000100
00000010
00000001
00000000
,
00000100
00001000
00010000
00100000
,
10000000
00000000
10010000
00000000
00010000
01000000
00001000
00000000
,
00010000
00000100
00000010
00000001
,
00000100
00000010
00000100
00000010
00010000
00001000
00010000
00001000
,
00100000
01000000
00100000
01000000
10000000
00010000
01000000
00100000
,
10000000
00000000
00000000
00000000
,
00010000
00000000
00000000
00010000
00000000
00000000
01000000
00000000
00000000
01000000
00000000
00000000
00001000
00000000
00000000
00001000
,
00000000
00000000
00010000
00000000
00000000
00010000
00000000
00000000
00000100
00000000
00000000
00000100
00000000
00000000
00001000
00000000
,
00000010
00000000
00000000
00000010
00000000
00000000
00000100
00000000
00000000
00000100
00000000
00000000
00000001
00000000
00000000
00000001
,
00000000
00000000
00001000
00000000
00000000
00001000
00000000
00000000
00000100
00000000
00000000
00000100
00000000
00000000
00010000
00000000
,
00001000
00000000
00000000
00001000
00000000
00000000
01000000
00000000
00000000
01000000
00000000
00000000
00010000
00000000
00000000
00010000
,
00000000
00000000
00100000
00000000
00000000
00100000
00000000
00000000
01000000
00000000
00000000
01000000
00000000
00000000
10000000
00000000
,
00010000
00000000
00000000
00010000
00000000
00000000
01000000
00000000
00000000
01000000
00000000
00000000
00001000
00000000
00000000
00001000
,
00000000
00000000
00010000
00000000
00000000
00010000
00000000
00000000
00000100
00000000
00000000
00000100
00000000
00000000
00000010
00000000
,
00000001
00000000
00000000
00000001
00000000
00000000
00001000
00000000
00000000
00001000
00000000
00000000
00000100
00000000
00000000
00000100
,
00000000
00000000
00010000
00000000
00000000
00010000
00000000
00000000
00001000
00000000
00000000
00001000
00000000
00000000
01000000
00000000
,
00010000
00000000
00000000
00010000
00000000
00000000
10000000
00000000
00000000
10000000
00000000
00000000
01000000
00000000
00000000
01000000
,
00000000
00000000
10000000
00000000
00000000
10000000
00000000
00000000
00010000
00000000
00000000
00010000
00000000
00000000
01000000
00000000
,
00001000
00000000
00000000
00001000
00000000
00000000
00010000
00000000
00000000
00010000
00000000
00000000
00000010
00000000
00000000
00000010
,
00000000
00000000
00001000
00000000
00000000
00001000
00000000
00000000
00000100
00000000
00000000
00000100
00000000
00000000
00010000
00000000
,
00001000
01000000
00100000
00000000
01000000
00001000
00010000
00000000
,
00000100
00000010
00000001
00000100
00000010
00001000
00000100
00010000
,
00001000
00001000
01001000
00000000
00010000
00010000
00010100
00000000
,
00101000
00010100
01001000
00010100
,
00001000
00001000
00101000
00000000
00010000
00010000
00010010
00000000
,
00101000
00010100
01001000
00010010
,
00001000
01000000
01001000
00000000
00010000
00000100
00010100
00000000
,
00101000
01001000
00010010
00010100
,
00001000
01000000
00100000
10000000
01000000
00010000
00001000
00000010
,
00000001
00000000
00000000
00000100
00000000
00000000
00001000
00000000
00000000
00010000
00000000
00000000
00100000
00000000
10000000
00000000
,
10010000
00000000
00000000
00000000
;

//---------------dance-double - ----------------
#NOTES:
     dance-double:
     :
     Easy:
     8:
     0.388,0.443,0.051,0.068,0.000: // measure 1
00000000
00000000
00000000
00000000
,  // measure 2
10000000
00010000
10000000
00010000
,  // measure 3
01000000
00001000
01000000
00001000
,  // measure 4
00010000
00000010
00010000
00000010
,  // measure 5
00001000
00000001
00001000
00000001
,  // measure 6
00000001
00001000
00000001
00001000
,  // measure 7
00000100
00010000
00000100
00010000
,  // measure 8
00001000
00100000
00001000
00100000
,  // measure 9
00010000
10000000
00010000
10010000
,  // measure 10
10000000
00000000
10000000
00000000
10000000
00010000
01000000
00000000
,  // measure 11
00001000
00010000
00000100
00001000
,  // measure 12
00000010
00000000
00000010
00000000
00000010
00000100
00000001
00000000
,  // measure 13
00001000
00000001
00001000
00010000
,  // measure 14
10000000
00000000
10000000
00000000
01000000
00100000
00010000
00000000
,  // measure 15
01000000
00001000
00010000
00000100
,  // measure 16
00001000
00000000
00001000
00000000
00000010
00000100
00000001
00000000
,  // measure 17
00000010
00000000
00000100
00000000
00000010
00000001
00001000
00000000
,  // measure 18
00000100
00000100
00010000
00010000
,  // measure 19
00001000
00001000
01000000
01000000
,  // measure 20
00010000
00100000
01000000
00000000
00100000
00001000
00010000
00000000
,  // measure 21
00001000
00010000
00000100
00000000
00001000
00000010
00000100
00000000
,  // measure 22
00000010
00000010
00010000
00010000
,  // measure 23
00001000
00001000
00100000
00100000
,  // measure 24
00010000
10000000
01000000
00000000
00100000
00001000
00010000
00000000
,  // measure 25
00000100
00001000
00000010
00000000
00000100
00000001
00001000
00000000
,  // measure 26
00000001
00000001
00000100
00000100
,  // measure 27
00001000
00001000
00010000
00010000
,  // measure 28
00100000
10000000
00010000
00000000
10000000
00010000
01000000
00000000
,  // measure 29
00010000
01000000
00001000
00000000
00100000
00010000
00100000
00010000
,  // measure 30
10000000
10000000
00010000
00010000
,  // measure 31
00001000
00001000
00000001
00000001
,  // measure 32
00001000
00001100
00000100
00010100
,  // measure 33
00010000
00011000
00001000
01001000
,  // measure 34
02000000
00000000
00000000
03000000
,  // measure 35
00200000
00000000
00000000
00300000
,  // measure 36
20000000
00000000
00000000
30000000
,  // measure 37
02000000
00000000
00000000
03000000
,  // measure 38
00020000
00000000
00000000
00030000
,  // measure 39
00002000
00000000
00000000
00003000
,  // measure 40
00000200
00000000
00000000
00000300
,  // measure 41
00000020
00000000
00000000
00000030
,  // measure 42
00001000
00000001
00000000
00000001
,  // measure 43
00001000
00000100
00000000
00000100
,  // measure 44
00010000
00001000
00000000
00001000
,  // measure 45
01000000
00010000
00000000
00010000
,  // measure 46
10000000
01000000
00000000
01000000
,  // measure 47
00100000
00001000
00000000
00001000
,  // measure 48
00010000
00000100
00010000
00000100
,  // measure 49
00000010
00000000
00000001
00000000
00000010
00000001
00000010
00000000
,  // measure 50
00000001
00000000
00000000
00000000
,  // measure 51
00001000
00001000
00000100
00000100
,  // measure 52
00010000
00000000
00010000
00000000
00001000
00000000
00001000
01000000
,  // measure 53
00010000
00010000
10000000
10000000
,  // measure 54
01000000
00000000
01000000
00000000
00100000
00000000
00100000
00001000
,  // measure 55
00010000
00010000
00000100
00000100
,  // measure 56
00001000
00000000
00001000
00000000
00000010
00000000
00000010
00000100
,  // measure 57
00000001
00000001
00001000
00001000
,  // measure 58
00010000
00000000
00010000
00000000
10000000
00000000
10000000
00010000
,  // measure 59
00100000
00100000
01000000
01000000
,  // measure 60
00010000
00000000
00010000
00000000
00001000
00000000
00001000
00000100
,  // measure 61
00000010
00000010
00001000
00001000
,  // measure 62
00000100
00000000
00000100
00000000
00010000
00000000
00010000
00001000
,  // measure 63
01000000
01000000
00100000
00100000
,  // measure 64
10000000
00000000
10000000
00000000
00010000
00000000
00010000
00100000
,  // measure 65
00001000
00000000
00010000
00000000
00000100
00000000
00001000
00000010
,  // measure 66
00000100
00000000
00000001
00000000
00001000
00000001
00001000
00000000
,  // measure 67
00000001
00000001
00001000
00000001
00000001
00001000
00000001
00001000
,  // measure 68
00000100
00010000
00001000
00100000
,  // measure 69
00010000
00010000
10000000
00010000
00010000
10000000
00010000
10000000
,  // measure 70
00010000
01000000
00001000
00010000
,  // measure 71
00001000
00001000
00010000
00001000
00001000
00010000
00001000
00010000
,  // measure 72
00000100
00001000
00000010
00000100
,  // measure 73
00000001
00000001
00000010
00000001
00000001
00000100
00000010
00001000
,  // measure 74
00000100
00010000
00001000
00100000
,  // measure 75
00011000
00000000
00000000
00000000
;
