#TITLE:水鏡;
#SUBTITLE:;
#ARTIST:PON;
#TITLETRANSLIT:Mikagami;
#SUBTITLETRANSLIT:;
#ARTISTTRANSLIT:;
#GENRE:;
#CREDIT:Silverhawke;
#MENUCOLOR:;
#METERTYPE:DDR;
#BANNER:Mikagami.png;
#BACKGROUND:Mikagami-bg.png;
#LYRICSPATH:;
#CDTITLE:cdtitle.png;
#MUSIC:Mikagami.mp3;
#OFFSET:-0.028;
#SAMPLESTART:35.183;
#SAMPLELENGTH:15.000;
#SELECTABLE:YES;
#LISTSORT:;
#DISPLAYBPM:157.000;
#BPMS:0.000=157.000;
#STOPS:;
#BGCHANGES:;
#ATTACKS:;

//---------------dance-single - ----------------
#NOTES:
     dance-single:
     :
     Hard:
     13:
     0.657,0.617,0.342,0.215,0.361:
0000
0000
0000
0000
,
0000
0000
0000
0000
,
0000
0000
0000
0000
,
0001
0000
0100
0000
0100
0010
0000
0000
1000
0000
0100
0000
0100
0010
0000
0000
,
0001
0000
0100
0000
0100
0010
0000
0000
1000
0000
0100
0000
0010
0001
0000
0000
,
1000
0000
0000
1000
0000
0000
1000
0000
0000
0000
0001
0000
0100
0000
0001
0000
,
0010
0100
1000
0010
0100
0000
0100
0000
,
0001
0000
0000
0001
0000
0000
0001
0000
0000
0000
0010
0000
0100
0000
1000
0000
,
0010
0000
0100
0000
0010
0100
0000
0000
0001
0000
1000
0000
0001
1000
0000
0000
,
0100
0000
0000
0100
0000
0000
0100
0000
0000
0000
0010
0000
0001
0000
0100
0000
,
0010
0100
0001
0010
0100
0000
0100
1000
,
0010
0000
0000
0010
0000
0000
0010
0000
0000
0000
0110
0000
0000
0000
1001
0000
,
1000
0000
0100
0000
1000
0100
0000
0000
0010
0000
0001
0000
0010
0001
0000
0000
,
0100
0000
0010
0000
0100
0010
0000
0000
1000
0000
0100
0000
0010
0001
0000
0000
,
2000
0000
3020
0000
0230
0000
0301
0100
,
0010
1000
0010
0100
0002
0000
0003
0000
,
0002
0000
0023
0000
0230
1000
1300
0100
,
0010
0001
0010
0100
2000
0000
3000
0000
,
1100
0000
0101
0000
0011
0010
0100
1000
,
0010
0100
0010
1000
0200
0000
0300
0000
,
0011
0000
1010
0000
1100
0100
0010
0001
,
0100
0010
0100
0010
1000
0001
1000
0001
,
1000
0010
1000
0001
0010
0001
0100
0010
0100
0020
0000
0000
,
1030
0000
0100
0000
0010
0000
0001
0100
0000
0000
0010
0000
0000
0000
1000
0000
,
0100
0000
1000
0000
0010
0100
0000
0002
0000
0000
1003
0000
0100
0000
1000
0000
,
0010
0000
0100
0000
0001
0000
0010
0100
0000
0000
1000
0000
0000
0000
0010
0000
,
0100
0000
0010
0000
1000
0000
0100
0020
0000
0000
0031
0000
0001
0000
0001
0000
,
0100
0000
0010
0000
1000
0000
0100
0010
0000
0000
0001
0000
0000
0000
0100
0000
,
0010
0000
0100
0000
0001
0000
1000
0200
0000
0000
0310
0000
0001
0000
0100
0000
,
0020
0000
0000
0000
0230
0000
0000
0000
0301
0000
0000
1000
0000
0000
1001
0000
,
0001
0000
0010
0200
0000
0000
0000
0000
1300
0000
0001
0100
0001
0000
1000
0000
,
0100
0000
0010
0000
0001
0000
0100
0000
0110
0000
0000
1010
0000
0000
1001
0000
,
0001
0000
0010
0000
0100
0000
1000
0010
0000
0010
1000
0000
0100
0000
0010
0000
,
0001
0000
0100
0000
0010
0000
0100
0001
0000
0001
0100
0000
0010
0000
0010
0000
,
1000
0000
0100
0000
0010
0000
0001
0100
0000
0100
0001
0000
0010
0000
0100
0000
,
1000
0000
0010
0000
1000
0000
0100
0010
0000
0010
0100
0000
1000
0001
1000
0000
,
0100
0100
0010
0010
0001
0100
1000
0100
,
0001
0001
0010
0010
0100
1000
0010
0001
,
0010
1000
0100
0001
0100
1000
0010
0100
,
2002
0000
0000
3003
,
0110
0000
0000
0000
0000
0000
0000
0000
0000
0000
1000
0000
0001
0100
0000
0110
,
0000
0000
0000
0000
0000
0000
0000
0000
0000
0000
0001
0000
1000
0100
0000
0110
,
0000
0001
0100
0001
0010
0100
1000
0010
,
0100
1000
0100
0001
0010
1000
0010
0001
,
0101
0000
0000
0000
0000
0000
0000
0000
0000
0000
0100
0000
0010
1000
0000
1100
,
0000
0000
0000
0000
0000
0000
0000
0000
0000
0000
0100
0000
0010
0001
0000
0101
,
0000
0000
0100
0000
0010
0000
1000
0000
0010
0000
0100
0000
0001
0000
0010
0001
,
0000
1000
0000
0100
0000
1000
0000
0010
0100
0000
0110
0000
0001
0000
1000
0100
,
0000
0010
0001
1000
0010
1000
0100
0010
0100
0010
0000
0000
,
1100
0100
0100
0100
,
0010
0000
0010
0000
0010
0000
0010
0001
,
0100
0100
0100
0100
,
0101
0000
0001
0000
1100
0000
1000
0100
0000
0000
0010
0001
0010
0000
0100
0000
,
1000
0000
0010
0000
0100
0000
0001
0010
0000
0000
0200
0000
0000
0000
1300
0000
,
0010
0000
1000
0000
0100
0000
0010
0002
0000
0000
0103
0000
0010
0000
0100
0000
,
1010
0000
0000
0000
0110
0000
0000
0000
0101
0000
0000
1001
0000
0000
1100
0000
,
0100
0000
1000
0000
0010
0000
1000
0200
0000
0000
0310
0000
0001
0000
0100
0000
,
0001
0000
0010
0000
1000
0000
0010
0000
0011
0000
0000
1100
0000
0000
1001
0000
,
0001
0000
0010
0000
0100
0000
1000
0010
0000
0010
0100
0000
0001
0000
0010
0000
,
0001
0000
0100
0000
1000
0000
0100
0000
0101
0000
0000
0110
0000
0000
1010
0000
,
1000
0100
0001
0100
1000
0100
0010
0001
,
0100
0000
1000
0000
0100
0000
0001
0000
0100
0000
0000
0000
0010
0100
0000
1002
,
0000
0100
0100
0103
,
0001
1000
0001
1000
0000
0000
0000
0000
0000
0000
0000
0000
0000
0000
0000
0000
;

//---------------dance-single - ----------------
#NOTES:
     dance-single:
     :
     Medium:
     10:
     0.513,0.524,0.166,0.283,0.093:
0000
0000
0000
0000
,
0000
0000
0000
0000
,
0000
0000
0000
0000
,
0001
1000
0100
0000
1000
0001
0100
0000
,
0001
0100
1000
0000
1000
0100
0001
0000
,
1000
0000
1100
0000
0010
0001
0100
0000
,
0010
1000
0010
1000
0100
0000
0010
0000
,
0001
0100
1000
0000
1000
0100
0001
0000
,
1000
0100
0110
0000
0001
0100
0110
0000
,
0001
0000
0101
0000
1000
0100
0010
0000
,
0001
0100
0001
0010
0100
0000
1000
0100
,
0001
0000
0100
0000
0010
0001
0100
0000
,
0010
1000
1100
0000
0010
0001
0101
0000
,
0100
0001
0011
0000
0100
1000
1010
0000
,
2000
3200
0320
0032
,
0013
0100
1000
0000
2002
0000
3003
0000
,
0002
0203
0320
2030
,
3010
0100
0001
0000
2002
0000
3003
0000
,
0002
0203
2300
3020
,
0031
0100
0010
0000
0220
0000
0330
0000
,
2000
0000
3200
0000
0301
0100
1000
0100
,
0020
0000
1000
0000
0100
0000
0031
1000
,
0100
0000
0000
0010
0000
0000
0001
1000
0001
1000
0000
0000
,
0010
1000
0100
0000
0010
1000
0100
0000
,
0010
1000
0100
1000
0020
0000
0030
0000
,
0100
0001
0010
0000
0100
0001
0010
0000
,
0100
0001
0010
0001
0200
0000
0300
0000
,
0010
1000
0001
0000
0010
1000
0001
0000
,
0010
1000
0001
1000
0200
0000
0300
0000
,
0010
0000
0000
0000
0001
0000
0000
0000
1000
0000
0000
0010
0000
0000
1000
0000
,
0100
0000
0000
0020
0000
0000
0000
0000
0031
0000
0000
0000
0001
0000
0000
0000
,
1000
0000
0100
0000
1000
0000
0000
0000
0001
0000
0000
0100
0000
0000
0010
0000
,
0100
0001
0100
0000
0001
0010
0001
0000
,
0100
0010
1000
0100
1000
0010
0100
0000
,
0001
0010
0100
0000
1000
0010
0100
0000
,
0010
1000
0100
0010
0100
1000
0010
0000
,
0100
0001
0100
0001
1000
0100
1000
0100
,
0010
0001
0100
0010
0100
0001
0010
0100
,
1000
0001
1000
0001
0100
0010
0100
0010
,
2000
0000
0000
3000
,
1001
0000
0000
0000
0000
0000
0000
0000
0000
0000
1000
0000
0100
0000
0000
0010
,
0000
0000
0000
0000
0000
0000
0000
0000
0000
0000
0001
0000
0100
0000
0000
0010
,
0000
1000
0100
0010
0001
0010
0100
1000
,
0001
0100
0100
0000
1000
0100
0100
0000
,
0101
0000
0000
0000
0000
0000
0000
0000
0000
0000
1000
0000
0010
0000
0000
0100
,
0000
0000
0000
0000
0000
0000
0000
0000
0000
0000
0001
0000
0010
0000
0000
0100
,
0000
1000
0100
1000
0001
0100
0010
0100
,
0001
0000
0001
0000
0010
0000
0010
0000
0100
0000
1000
0000
0001
0000
0000
0110
,
0000
0000
0000
1001
0000
0000
0100
0010
0100
0010
0000
0000
,
1000
1000
0100
0100
,
0001
0001
0010
1000
,
0001
0001
0010
0100
,
1000
0000
0001
0000
1000
0000
0001
0010
0000
0000
0000
0000
0000
0000
0000
0000
,
0100
1000
0001
0000
0100
1000
0001
0000
,
0100
1000
0001
1000
0020
0000
0030
0000
,
0100
0000
0000
0000
0001
0000
0000
0000
1000
0000
0000
0100
0000
0000
1000
0000
,
0010
0000
0100
0000
0001
0000
0000
1000
0000
0000
0000
0000
0000
0000
0000
0000
,
0001
0000
0100
0000
0001
0000
0000
0000
1000
0000
0000
0100
0000
0000
0010
0000
,
0100
1000
0100
0000
1000
0010
1000
0000
,
0100
0000
0010
0000
0001
0000
0100
0000
0001
0000
0000
0010
0000
0000
0100
0000
,
1000
0010
0100
0000
0001
0010
0100
0000
,
0010
0000
0001
0000
0100
0000
0010
0000
0100
0000
0000
0000
0001
0000
0000
2002
,
0000
0000
0000
3003
,
1000
0000
0000
1001
0000
0000
0000
0000
0000
0000
0000
0000
0000
0000
0000
0000
;

//---------------dance-single - ----------------
#NOTES:
     dance-single:
     :
     Easy:
     7:
     0.337,0.401,0.107,0.059,0.000:
0000
0000
0000
0000
,
0000
0000
0000
0000
,
0000
0000
0000
0000
,
1000
0100
0001
0100
,
1000
0010
0001
0010
,
1000
1000
0100
0010
,
0001
0100
0001
0010
0001
0000
0000
0000
,
0001
0001
0100
0010
,
1000
0100
0010
0000
0001
0100
0010
0000
,
1000
1000
0100
0010
,
0001
0010
0100
0010
0001
0000
1000
0100
,
1000
0001
0100
0010
,
1000
0010
0100
0000
0001
0010
0100
0000
,
1000
0100
0010
0000
0001
0100
0010
0000
,
1000
1000
0100
0100
,
0001
0010
1000
0000
,
0001
0001
0100
0100
,
1000
0010
0001
0000
,
1000
0100
0001
0010
,
1000
0001
1000
0000
,
0001
0100
1000
0010
,
0001
0100
0100
0010
,
1000
0100
0110
1001
,
0001
0001
0100
0010
,
1000
0100
1000
0000
0001
0000
0000
0000
,
1000
1000
0100
0010
,
0001
0100
0001
0000
1000
0000
0000
0000
,
0001
0010
0100
0100
,
1000
0010
1000
0000
0100
0000
0000
0000
,
0010
0000
0001
0000
0100
0000
0010
0100
,
0010
2000
3000
0000
,
0001
1000
0001
1000
,
0100
0010
0001
0010
,
0100
1000
0100
0010
,
0001
0100
0010
1000
,
0010
0100
0001
0100
,
0010
1000
0100
0001
,
0010
0001
0100
1000
,
0010
1000
0100
0001
,
0020
0100
0100
0130
,
0110
0000
0000
0000
,
1001
0000
0000
0000
,
0110
0100
0001
0001
,
1000
0100
0010
0001
,
1001
0000
0000
0000
,
0110
0000
0000
0000
,
1001
1000
0100
0010
,
0001
0010
0100
1000
,
0001
0100
0110
1001
,
0001
0000
0001
0000
,
1000
0000
1000
0000
,
0100
0000
0100
0000
,
0010
0001
1000
0001
0100
0000
0000
0000
,
0010
0010
1000
0100
,
0010
0010
0001
0000
,
0100
0010
0100
0010
,
0100
0001
2000
3000
,
0001
1000
0100
0100
,
1000
0010
0100
0100
,
0001
0010
0100
0100
,
1000
0100
0001
0100
,
1000
0010
0001
0010
,
0200
0000
0000
0300
,
2002
0000
0000
3003
0000
0000
0000
0000
0000
0000
0000
0000
0000
0000
0000
0000
;

//---------------dance-single - ----------------
#NOTES:
     dance-single:
     :
     Beginner:
     1:
     0.118,0.185,0.059,0.039,0.000:
0000
0000
0000
0000
,
0000
0000
0000
0000
,
0000
0000
0000
0000
,
1000
0000
1000
0000
,
0001
0000
0001
0000
,
1000
0000
0000
0000
,
0100
0000
0100
0000
,
0100
0000
0000
0000
,
0010
0000
0010
0000
,
0010
0000
0000
0000
,
0001
0000
0000
0000
,
1000
0000
0000
0000
,
0100
0000
0100
0000
,
0100
0000
0100
0000
,
0100
0000
0000
0000
,
0010
0000
0000
0000
,
0001
0000
0000
0000
,
0100
0000
0000
0000
,
1000
0000
0000
0000
,
0010
0000
0000
0000
,
0100
0000
0000
0000
,
0010
0000
0000
0000
,
0100
0100
0200
0300
,
0100
0000
0000
0000
,
0001
0000
0000
0000
,
0010
0000
0000
0000
,
0100
0000
0000
0000
,
1000
0000
0000
0000
,
0100
0000
0000
0000
,
0010
0000
0010
0000
,
0010
0000
0000
0000
,
0001
0000
0001
0000
,
0001
0000
0000
0000
,
0100
0000
0000
0000
,
1000
0000
0000
0000
,
0010
0000
0000
0000
,
0100
0000
0000
0000
,
0001
0000
0000
0000
,
0010
0000
0010
0000
,
0020
0000
0030
0000
,
1001
0000
0000
0000
,
0110
0000
0000
0000
,
1001
0000
0000
0000
,
0000
0000
0000
0000
,
1001
0000
0000
0000
,
0110
0000
0000
0000
,
1001
0000
0000
0000
,
0100
0000
0100
0000
,
0100
0100
0200
0300
,
0000
0000
0000
0000
,
0000
0000
0000
0000
,
0000
0000
0000
0000
,
0010
0010
0010
0000
,
0010
0000
0000
0000
,
0001
0000
0000
0000
,
0100
0000
0100
0000
,
0100
0000
0000
0000
,
1000
0000
0000
0000
,
0001
0000
0000
0000
,
0010
0000
0000
0000
,
0100
0000
0000
0000
,
1000
0000
1000
0000
,
1000
0000
0000
0000
,
0002
0000
0000
0003
0000
0000
0000
0000
0000
0000
0000
0000
0000
0000
0000
0000
;

//---------------dance-double - ----------------
#NOTES:
     dance-double:
     :
     Hard:
     13:
     0.658,0.617,0.146,0.254,0.405:
00000000
00000000
00000000
00000000
,
00000000
00000000
00000000
00000000
,
00000000
00000000
00000000
00000000
,
10000000
00000000
01000000
00000000
00100000
00001000
00000000
00000000
00010000
00000000
00000100
00000000
00000010
00000001
00000000
00000000
,
00000001
00000000
00000100
00000000
00000010
00010000
00000000
00000000
00001000
00000000
01000000
00000000
00100000
10000000
00000000
00000000
,
01000000
00000000
00000000
01000000
00100000
00000000
00001000
00000000
00010000
00000000
00001000
00000000
00000100
00000000
00000000
00000000
,
00000010
00010000
00001000
00000100
00000010
00000100
00000001
00000000
,
00001000
00000000
00000000
00001000
00000100
00000000
00010000
00000000
00001000
00000000
01000000
00000000
00100000
00000000
00000000
00000000
,
10000000
00000000
01000000
00000000
00100000
00001000
00000000
00000000
00010000
00000000
00000100
00000000
00000010
00000001
00000000
00000000
,
00000100
00000000
00000000
00000100
00000010
00000000
00010000
00000000
00001000
00000000
00010000
00000000
01000000
00000000
00000000
00000000
,
10000000
00100000
01000000
00001000
00010000
00100000
01000000
00000000
,
00010000
00000000
00000000
00010000
00100000
00000000
00001000
00000000
00010000
00000000
00000100
00000000
00000010
00000000
00000000
00000000
,
00000001
00000000
00000100
00000000
00000010
00010000
00000000
00000000
00001000
00000000
01000000
00000000
00100000
10000000
00000000
00000000
,
10000000
00000000
01000000
00000000
00100000
00001000
00000000
00000000
00010000
00000000
00000100
00000000
00000010
00000001
00000000
00000000
,
00000002
00000000
00000203
00000000
00002300
00000000
00013000
00001000
,
00000100
00000010
00010000
01000000
02200000
00000000
03300000
00000000
,
20000000
00000000
32000000
00000000
03020000
00001000
00031000
00010000
,
01000000
00100000
00001000
00000100
00000220
00000000
00000330
00000000
,
00000002
00000000
00000023
00000000
00002030
00010000
00013000
00001000
,
00000010
00000100
00010000
00100000
02200000
00000000
03300000
00000000
,
20000000
00000000
30200000
00000000
00320000
00001000
00031000
00000100
,
00000001
00000010
00000001
00000010
00000100
00010000
00000100
00010000
,
00001000
01000000
00001000
00010000
00000100
00010000
00001000
00001000
00001000
00010000
00000000
00000000
,
00001000
00000000
00010000
00000000
01000000
00000000
00010000
00001000
00000000
00000000
00000100
00000000
00000000
00000000
00001000
00000000
,
00010000
00000000
01000000
00000000
10000000
01000000
00000000
00100000
00000000
00000000
00010000
00000000
01000000
00000000
00001000
00000000
,
00010000
00000000
00001000
00000000
00000100
00000000
00001000
00010000
00000000
00000000
01000000
00000000
00000000
00000000
10000000
00000000
,
00100000
00000000
00010000
00000000
00001000
00000000
00000100
00000010
00000000
00000000
00001000
00000000
00001000
00000000
00001000
00000000
,
00000100
00000000
00010000
00000000
00001000
00000000
01000000
00001000
00000000
00000000
00010000
00000000
00000000
00000000
00000100
00000000
,
00001000
00000000
00000010
00000000
00000100
00000000
00001000
00010000
00000000
00000000
01000000
00000000
10000000
00000000
00010000
00000000
,
02000000
00000000
00000000
00000000
03200000
00000000
00000000
00000000
20300000
00000000
00000000
01000000
00000000
00000000
31000000
00000000
,
00100000
00000000
00001000
00020000
00000000
00000000
00000000
00000000
00031000
00000000
00010000
00001000
00010000
00000000
00001000
00000000
,
00000100
00000000
00000010
00000000
00001000
00000000
00000001
00000000
00000010
00000000
00000000
00000100
00000000
00000000
00000110
00000000
,
00000001
00000000
00000100
00000000
00000010
00000000
00001000
00000100
00000000
00000100
00010000
00000000
00001000
00000000
01000000
00000000
,
00010000
00000000
00100000
00000000
01000000
00000000
10000000
00010000
00000000
00010000
00100000
00000000
01000000
00000000
00010000
00000000
,
00001000
00000000
00000010
00000000
00000100
00000000
00001000
00000010
00000000
00000010
00000100
00000000
00001000
00000000
00010000
00000000
,
00100000
00000000
01000000
00000000
10000000
00000000
01000000
00010000
00000000
00010000
10000000
00000000
01000000
00000000
00100000
00000000
,
00001000
00001000
00010000
00010000
00000100
00000100
00001000
00001000
,
00000001
00000000
00000100
00000000
00001000
00000000
00010000
00100000
00000000
00100000
10000000
00000000
00010000
00000000
00100000
00000000
,
01000000
00000000
10000000
00000000
01000000
00100000
00000000
00010000
00000000
01000000
00001000
00000000
00010000
00000000
00000100
00000000
,
00001000
00000000
00000010
00000000
00000010
00000100
00000000
00000010
00000100
00000000
00000001
00000000
00001000
00000000
00000100
00000000
,
00010100
00000000
00000000
00000000
00000000
00000000
00000000
00000000
00000000
00000000
00010000
00000000
00001000
01000000
00000000
01100000
,
00000000
00000000
00000000
00000000
00000000
00000000
00000000
00000000
00000000
00000000
10000000
00000000
01000000
00100000
00000000
00101000
,
00000000
00001000
00010000
00001000
00010000
00000100
00001000
00000100
,
00001000
00000001
00000100
00000001
00000100
00000010
00001000
00000000
,
00001001
00000000
00000000
00000000
00000000
00000000
00000000
00000000
00000000
00000000
00000010
00000000
00010000
00001000
00000000
01001000
,
00000000
00000000
00000000
00000000
00000000
00000000
00000000
00000000
00000000
00000000
00100000
00000000
00001000
00010000
00000000
00010100
,
00000000
00000000
00000010
00000000
00000001
00000000
00000010
00000000
00000001
00000000
00000100
00000000
00001000
00000000
00000100
00001000
,
00000000
00010000
00000000
00100000
00000000
01000000
00000000
00010000
10000000
00000000
10000000
00000000
01000000
00000000
00100000
00001000
,
00000000
00010000
00000100
00010000
00001000
01000000
00001000
00001000
00001000
00010000
00000000
00000000
,
00001000
00000000
00001000
00000000
00001000
00000000
00001000
01000000
,
00100000
00000000
00100000
00000000
00100000
10000000
01000000
00100000
,
00001000
00000000
00001000
00000000
00001000
00000000
00001000
00000100
,
00000010
00000000
00001010
00000000
00000101
00000000
00000100
00001000
00000000
00000000
00010000
00000000
01000000
00000000
10000000
00000000
,
01000000
00000000
00010000
00000000
00001000
00000000
00000100
00001000
00000000
00000000
00010000
00000000
00000000
00000000
00100000
00000000
,
10000000
00000000
01000000
00000000
00010000
00000000
00001000
00000010
00000000
00000000
00000001
00000000
00001000
00000000
00000001
00000000
,
00000020
00000000
00000000
00000000
00000230
00000000
00000000
00000000
00020300
00000000
00000000
00001000
00000000
00000000
00031000
00000000
,
01000000
00000000
00100000
00000000
10000000
00000000
00010000
01000000
00000000
00000000
00001000
00000000
00010000
00000000
00001000
00000000
,
00000100
00000000
00000010
00000000
00001000
00000000
00000001
00000000
00000010
00000000
00000000
00000100
00000000
00000000
00001100
00000000
,
00010000
00000000
00001000
00000000
01000000
00000000
00100000
10000000
00000000
10000000
01000000
00000000
00100000
00000000
00001000
00000000
,
00010000
00000000
01000000
00000000
10000000
00000000
00010000
00000000
01000000
00000000
00000000
00100000
00000000
00000000
01100000
00000000
,
00010000
00000000
10000000
00000000
01000000
00100000
00000000
00001000
00000000
00010000
00000000
00000100
00000010
00000000
00000001
00000000
,
00001000
00000000
00000100
00000000
00010000
00000000
01000000
00000000
10000000
00000000
00000000
00000000
00010000
01000000
00000000
01200000
,
00000000
10000000
10000000
10300000
,
01000000
00100000
00010000
00001000
00000000
00000000
00000000
00000000
00000000
00000000
00000000
00000000
00000000
00000000
00000000
00000000
;

//---------------dance-double - ----------------
#NOTES:
     dance-double:
     :
     Medium:
     10:
     0.439,0.524,0.117,0.049,0.068:
00000000
00000000
00000000
00000000
,
00000000
00000000
00000000
00000000
,
00000000
00000000
00000000
00000000
,
00000001
00000100
00000101
00000000
00001000
00000100
00001100
00000000
,
00010000
00001000
00011000
00000000
00100000
01000000
01100000
00000000
,
10000000
00000000
01000000
00000000
00100000
00001000
00010000
00000000
,
00001000
00000100
00000010
00000100
00000001
00001000
00000001
00000000
,
00001000
00000000
00000100
00000000
00010000
00001000
01000000
00000000
,
00001000
00010000
00010100
00000000
00000100
00000010
00000011
00000000
,
00000001
00000000
00000100
00000000
00000010
00010000
00001000
00000000
,
00010000
01000000
00100000
01000000
10000000
00010000
10000000
00000000
,
00010000
00000000
01000000
00000000
00001000
00010000
00000100
00000000
,
00010000
00001000
01001000
00000000
01000000
00100000
10100000
00000000
,
10000000
01000000
01100000
00000000
00010000
01000000
01100000
00000000
,
10000000
00000000
01000000
00000000
00100000
00000000
00001000
00010000
,
00001000
00000100
00000020
00000030
,
00000001
00000000
00000100
00000000
00000010
00000000
00010000
00001000
,
00010000
01000000
00200000
00300000
,
10000000
00000000
01000000
00000000
00100000
00000000
00001000
00010000
,
00001000
00000100
00000020
00000030
,
00000001
00000000
00000100
00000000
00001000
00010000
00001000
00000000
,
00010000
01000000
10000000
00010000
,
00100000
00000000
00000000
01000000
00000000
00000000
10000000
00010000
10000000
00010000
00000000
00000000
,
10000000
01000000
00100000
00000000
00001000
01000000
00100000
00000000
,
01000000
00001000
00010000
00001000
00000100
00000000
00000010
00000000
,
00010000
00000100
00000010
00000000
00000001
00000100
00000010
00000000
,
00010000
00001000
00010000
01000000
00100000
00000000
00010000
00000000
,
10000000
00100000
01000000
00000000
00001000
00100000
01000000
00000000
,
00100000
00001000
00010000
00001000
00000010
00000000
00000001
00000000
,
00000100
00001000
00010000
00100000
,
01000000
00010000
10000000
00000000
00010000
10000000
01000000
00000000
,
00100000
00000000
00000000
00000000
00010000
00000000
00000000
00000000
10000000
00000000
00000000
10000000
00000000
00000000
10000000
00000000
,
01000000
00000000
00100000
00000000
00010000
01000000
00100000
00000000
,
01000000
00000000
00001000
00000000
00010000
00000100
00001000
00000000
,
00000010
00000000
00000100
00000000
00000001
00000010
00000100
00000000
,
00000010
00000000
00000001
00000000
00000100
00000010
00010000
00000000
,
00001000
00000000
01000000
00000000
00010000
00100000
01000000
00000000
,
00100000
00000000
00001000
00000000
00010000
01000000
10000000
00000000
,
00100000
00000000
01000000
00000000
00001000
00000000
00010000
00000100
,
00002000
00000001
00000001
00003001
,
00000110
00000000
00000000
00000000
00000000
00000000
00000000
00000000
00000000
00000000
00010000
00000000
00001000
00000000
00000000
00010000
,
00000000
00000000
00000000
00000000
00000000
00000000
00000000
00000000
00000000
00000000
01000000
00000000
00100000
00000000
00000000
01000000
,
00000000
10000000
00010000
01000000
,
00001000
00010000
00000100
00000000
00001000
00000001
00000100
00000000
,
00000010
00000000
00000000
00000000
00000000
00000000
00000000
00000000
00000000
00000000
00000100
00000000
00000001
00000000
00000000
00000100
,
00000000
00000000
00000000
00000000
00000000
00000000
00000000
00000000
00000000
00000000
00001000
00000000
00010000
00000000
00000000
00001000
,
00000000
01000000
00100000
10000000
,
00010000
00100000
01000000
00000000
10000000
00010000
10000000
00000000
,
00010000
00000000
00000000
01000000
00000000
00000000
00001000
00010000
00001000
00010000
00000000
00000000
,
00001000
00001000
00000100
00000100
,
00000001
00000001
00001000
00001000
,
00010000
00010000
10000000
10000000
,
01000000
00000000
00100000
00000000
00010000
00000000
00000000
10000000
00000000
00000000
00010000
00000000
01000000
00000000
00000000
00000000
,
00100000
10000000
00010000
00000000
01000000
00000000
00001000
00000000
,
00010000
00000100
00001000
00000000
00000010
00000000
00000100
00000000
,
00000001
00000010
00000100
00001000
,
00010000
00100000
01000000
10000000
,
00010000
00000000
01000000
00000000
00100000
00000000
00000000
00000000
01000000
00000000
00000000
01000000
00000000
00000000
01000000
00000000
,
00100000
00000000
10000000
00000000
01000000
00010000
00001000
00000000
,
00000100
00000000
00000000
00000000
00000010
00000000
00000000
00000000
00000100
00000000
00000000
00000100
00000000
00000000
00000100
00000000
,
00000001
00000000
00001000
00000000
00000100
00010000
00001000
00000000
,
00100000
00000000
00000000
00000000
00010000
00000000
00000000
00000000
10000000
00000000
00000000
00000000
01000000
00000000
00000000
00200000
,
00000000
00001000
00001000
00301000
,
00010000
00000000
00000000
00011000
00000000
00000000
00000000
00000000
00000000
00000000
00000000
00000000
00000000
00000000
00000000
00000000
;

//---------------dance-double - ----------------
#NOTES:
     dance-double:
     :
     Easy:
     6:
     0.250,0.401,0.029,0.117,0.000:
00000000
00000000
00000000
00000000
,
00000000
00000000
00000000
00000000
,
00000000
00000000
00000000
00000000
,
00002000
00003100
00000200
00001300
,
00020000
01030000
02000000
13000000
,
00010000
00010000
01000000
00000000
,
00010000
01000000
00010000
00000000
01000000
00000000
00000000
00000000
,
00001000
00010000
00000100
00000000
,
00001000
00000100
00001000
00000000
00000020
00000000
00000130
00000000
,
00000001
00000010
00000100
00000000
,
00010000
00001000
00010000
00000000
00001000
00000000
00000000
00000000
,
00100000
01000000
10000000
00000000
,
00100000
01000000
00100000
00000000
20000000
00000000
30010000
00000000
,
02000000
00000000
03001000
00000000
00010000
00001000
00010000
00000000
,
00000100
00000010
00000001
00000000
,
00000001
00000010
00000100
00000000
,
00010000
00001000
00100000
00000000
,
00100000
01000000
10000000
00000000
,
00100000
01000000
00001000
00000000
,
00001000
00010000
00000100
00000000
,
00001000
00000010
00000100
00000000
,
00000001
00000000
00000010
00000000
,
00000100
00010000
00001000
00011000
,
00010000
00000000
00010000
00000000
,
01000000
10000000
00010000
00000000
,
10000000
00000000
00100000
00000000
,
00010000
00001000
00010000
00000000
,
00001000
00000000
00000100
00000000
,
00000010
00001000
00000001
00000000
,
00000010
00000000
00000100
00000000
,
00010000
00000000
00001000
00000000
,
01000000
00010000
00100000
00000000
,
01000000
00000000
01000000
00000000
,
10000000
00010000
10000000
00000000
,
00100000
00000000
01000000
00000000
,
00001000
00010000
00001000
00000000
,
00000100
00000000
00000010
00000000
,
00001000
00000001
00000010
00000000
,
00000100
00001000
00000010
00010000
,
00002000
00000000
00003000
00000000
,
00010000
00000000
00000000
00000000
,
01000000
00000000
00000000
00000000
,
10000000
00000000
00010000
00000000
,
01000000
00001000
00010000
00000100
,
00001000
00000000
00000000
00000000
,
00000010
00000000
00000000
00000000
,
00000001
00000000
00000010
00000000
,
00001000
00000000
00000100
00000000
,
00010000
00001000
01000000
01100000
,
00200000
00000000
00300000
00000000
,
20000000
00000000
30000000
00000000
,
01000000
00000000
00010000
00000000
,
00001000
00010000
00011000
00000000
,
00000100
00000000
00000010
00000000
,
00001000
00000001
00000010
00000000
,
00000100
00000000
00010000
00000000
,
00001000
01000000
00010000
00100000
,
01000000
00000000
01000000
00000000
,
10000000
00010000
10000000
00100000
,
00010000
00000000
00001000
00000000
,
00000100
00000010
00001000
00000001
,
00000010
00000000
00000100
00000000
,
00020000
00000000
00000000
00000000
,
00032000
00000000
00000000
00003000
00000000
00000000
00000000
00000000
00000000
00000000
00000000
00000000
00000000
00000000
00000000
00000000
;
