#TITLE:Ascalon;
#SUBTITLE:;
#ARTIST:Qrispy Joybox;
#TITLETRANSLIT:;
#SUBTITLETRANSLIT:;
#ARTISTTRANSLIT:;
#GENRE:;
#CREDIT:Silverhawke;
#MENUCOLOR:;
#METERTYPE:DDR;
#BANNER:Ascalon.png;
#BACKGROUND:Ascalon-bg.png;
#LYRICSPATH:;
#CDTITLE:cdtitle.png;
#MUSIC:Ascalon.mp3;
#OFFSET:-0.028;
#SAMPLESTART:24.660;
#SAMPLELENGTH:15.000;
#SELECTABLE:YES;
#LISTSORT:;
#BPMS:0.000=185.000;
#STOPS:;
#BGCHANGES:;
#ATTACKS:;

//---------------dance-single - ----------------
#NOTES:
     dance-single:
     :
     Hard:
     12:
     0.695,0.669,0.565,0.128,0.017:
0000
0000
0000
0000
,
0000
0000
0000
0000
,
0000
0000
0000
0000
,
0000
0000
0000
0000
,
1001
0000
0000
1010
0000
0000
0000
0101
,
0000
0000
0000
1100
0000
0011
0000
0000
,
0110
0000
0000
1010
0000
0011
0000
2002
,
0000
0000
0000
3003
,
1000
0100
0010
0100
1000
0010
0100
0010
,
1000
0100
0010
0011
0000
1100
0000
1001
,
0001
0100
0010
0100
0001
0010
0100
0020
,
0000
1000
0100
0031
,
2001
0100
0000
0100
,
0000
0000
3100
1100
0000
1001
0000
0101
,
0010
1000
0010
1000
0010
1000
0010
1000
,
0001
0010
0001
0010
0001
0010
0001
0010
,
0100
1000
0100
1000
0100
1000
0100
1000
,
0001
0001
0100
0100
0001
0001
0100
0100
,
1001
0000
0000
0000
,
1000
1000
0100
0010
0010
0100
1000
1000
,
0100
0010
0010
0011
0000
1100
0000
0101
,
0001
0001
0100
0010
0010
0100
0001
2002
,
0000
3003
0100
0100
,
0010
1000
0010
0100
0001
0100
0010
1000
,
0010
0100
0001
0101
0000
1100
0000
1001
,
0001
0010
1000
0001
0100
1000
0001
0200
,
0000
1000
0010
0301
,
1000
0100
0010
0100
0001
0100
0010
0100
,
1000
0010
0100
0110
0000
0101
0000
1100
,
0001
0100
0010
0100
1000
0100
0010
0100
,
0001
0010
0100
0110
0000
1100
0000
0101
,
1000
0100
0010
0100
0001
0100
0010
0100
,
1000
0010
0100
0110
0000
0101
0000
1100
,
0001
0001
0010
0100
0100
1000
0000
2002
,
0000
0000
0000
3003
,
0001
0000
0000
0001
0000
0000
0001
0000
,
0000
0001
0000
0000
0200
0300
0200
0300
,
0010
0000
0000
0010
0000
0000
0020
0000
,
0000
1000
1000
1030
,
1000
0000
1000
0001
1000
0000
0001
0000
,
1000
0001
1000
0000
0100
0010
0100
0010
,
0001
0100
0001
0100
0001
0100
0001
0100
,
0010
1000
0100
1000
0100
1000
0100
0010
,
0001
0100
1000
0100
0001
0000
1000
0100
,
0001
0100
1000
0000
1001
0000
1001
0000
,
0001
0010
1000
0010
0001
0000
1000
0010
,
0001
0010
1000
0000
1001
0000
1001
0000
,
0010
1000
0100
1000
0010
0000
0100
0001
,
0010
0001
0100
0000
0110
0000
0110
0000
,
1010
0000
0101
0000
,
0011
0000
1100
0000
,
0001
0000
0100
0010
0000
0010
0000
1000
,
0000
1000
0100
0010
0000
0010
0000
0000
,
0001
0000
0001
0100
0000
0001
0000
2000
,
0000
0000
0000
3000
,
1100
0100
0000
0010
0000
0001
0000
0100
,
0000
0100
0010
1000
0000
0001
0000
0000
,
1100
1000
0000
0101
0000
1100
0000
1001
,
0000
0000
0000
0000
,
0001
0001
0100
0010
0010
0100
0001
0001
,
0100
0010
0010
1010
0000
0011
0000
1001
,
1000
1000
0100
0010
0010
0100
1000
0002
,
0000
0103
0101
1001
,
1000
1000
0100
0010
0010
0100
1000
1000
,
0100
0010
0010
0011
0000
1010
0000
1001
,
0001
0100
1000
0001
0010
1000
0100
0020
,
0000
0000
0031
0100
1000
0010
1000
0100
,
0001
0010
0100
0010
0001
0100
0010
0100
,
0001
0010
0100
1100
0000
0101
0000
1001
,
1000
0100
0010
0100
1000
0010
0100
0010
,
1000
0100
0010
0011
0000
1100
0000
1001
,
0001
0100
1000
0100
0001
0010
1000
0010
,
0001
0100
0010
1010
0000
0101
0000
1001
,
1000
0100
0001
0100
0010
0100
0001
0100
,
1000
0000
0100
0000
0001
0000
0100
0000
0010
0000
0100
0000
0000
0000
0100
1000
,
0001
0100
1000
0100
0010
0100
1000
0100
,
0001
0000
0100
0000
1000
0000
0100
0000
0010
0000
0100
0000
0000
0000
0100
0001
,
1000
0000
0010
0000
0001
0000
0010
0000
0100
0000
0010
0000
0000
0000
0010
1000
,
0001
0000
0010
0000
1000
0000
0010
0000
0100
0000
0010
0000
0000
0000
0010
0001
,
1000
0010
0100
0010
1000
0100
0010
0100
,
1000
0010
0001
0010
1000
0100
0001
0100
,
0010
1000
0001
1000
0010
0001
0100
0001
,
0010
0100
1000
0100
0010
0001
0100
1000
,
0100
0001
0010
1000
0010
0001
0100
1000
,
0001
0010
1000
0100
0001
0100
1000
0010
,
0100
0001
0010
1000
0100
1000
0010
0001
,
0100
0100
0100
0100
0010
0010
0010
0010
;

//---------------dance-single - ----------------
#NOTES:
     dance-single:
     :
     Medium:
     9:
     0.484,0.558,0.120,0.103,0.000:
0000
0000
0000
0000
,
0000
0000
0000
0000
,
0000
0000
0000
0000
,
0000
0000
0000
0000
,
0010
1000
0000
0100
0000
0010
0000
0001
,
0000
1000
0100
1000
0000
0001
0000
0000
,
0100
0010
0000
0100
0000
0001
0000
2002
,
0000
0000
0000
3003
,
1000
0100
0000
0010
0000
1000
0000
0010
,
0001
1000
0000
0010
0000
0100
0000
0001
,
0010
0001
0000
0100
0000
0010
0000
0220
,
0000
0000
0000
0330
,
1000
0100
0000
0100
,
0000
0000
0100
0010
0000
0001
0000
1000
,
0010
0100
0010
0000
0010
0100
0010
0000
,
0010
0100
0010
0000
0010
0100
0010
0000
,
1000
0001
1000
0000
1000
0001
1000
0000
,
1000
0100
0010
0001
1000
0100
0010
0000
,
1001
0000
0100
0100
,
0001
0100
0000
0001
0100
0000
0001
0100
,
0000
0001
0100
0010
0000
0100
0000
0001
,
1000
0100
0000
1000
0100
0000
1000
0200
,
0000
0010
0010
0310
,
0001
1000
0000
0001
1000
0000
0001
1000
,
0000
0001
1000
0100
0000
0010
0000
0100
,
1000
0001
1000
0000
0001
0100
0010
2000
,
0000
0000
0000
3000
,
0001
0100
0000
0010
0000
0100
0000
0001
,
1000
0100
0000
0010
0000
0100
0000
1000
,
0001
0100
0000
0010
0000
0100
0000
0001
,
0010
0100
0000
1000
0000
0010
0000
1000
,
0100
0010
0000
0100
0000
1000
0000
0001
,
0100
0010
0000
0100
0000
0001
0000
1000
,
0100
0010
0100
0100
0010
0100
0000
2002
,
0000
0000
0000
3003
,
0010
0000
0000
0010
0000
0000
0010
0000
,
0000
0010
0000
0000
1000
0000
0001
0000
,
0010
0000
0000
0010
0000
0000
0020
0000
,
0000
0000
0000
0030
,
0001
1000
0001
1000
,
0100
0010
0100
0010
,
0001
0100
1000
0010
,
0001
1000
0001
1000
0001
1000
0010
0000
,
1000
0000
0100
0010
0100
0000
1000
0000
,
0100
0010
0100
0000
1000
0000
1000
0000
,
0001
0000
0100
0010
0100
0000
0001
0000
,
0100
0010
0100
0000
0001
0000
0001
0000
,
1000
0010
0100
0010
0100
0000
0001
0010
,
0100
0010
0100
0000
1000
0000
0001
0000
,
1001
0000
1100
0000
,
0101
0001
1001
0000
,
0200
0000
0000
0000
,
0000
0000
0000
0000
,
0000
0000
0000
0000
,
0000
0000
0000
0300
,
1001
0000
0000
0000
,
0000
0000
0000
0000
,
0110
0000
0000
1001
0000
1001
0000
0110
,
0000
0000
0000
0000
,
1000
0100
0000
0001
0100
0000
1000
0100
,
0000
0001
0100
0010
0000
0001
0000
0100
,
1000
0100
0000
0001
0100
0000
0010
0200
,
0000
0001
0001
0301
,
1000
0100
0000
0001
0100
0000
1000
0100
,
0000
0001
0100
0010
0000
0001
0000
0100
,
0010
0100
0010
0100
0001
1000
0100
0020
,
0000
0000
0001
0031
,
0001
0010
0100
0010
0000
0001
0000
1000
,
0000
0010
0100
0001
0000
1000
0000
0001
,
1000
0100
1000
0100
0000
0010
0000
0100
,
0000
1000
0001
0100
0000
0010
0000
0100
,
0001
1000
0100
0010
0000
0100
0000
1000
,
0000
0001
0100
0010
0000
0110
0000
0001
,
1000
0100
0010
0000
0010
0100
1000
0000
,
1000
0100
0010
0000
0010
0001
0000
1000
,
0001
0100
0010
0000
0010
0100
0001
0000
,
0001
0100
0010
0000
0010
1000
0000
0001
,
1000
0100
0010
0000
0010
0001
0000
1000
,
0001
0010
0100
0000
0100
1000
0000
0001
,
1000
0010
0100
0000
0010
0100
0001
0000
,
0001
0010
0100
0000
0010
0100
1000
0000
,
0001
0100
0010
0000
1000
0100
0010
0000
,
0001
0100
1000
0000
1000
0100
0001
0000
,
1000
0100
0010
0000
0001
0100
0010
0000
,
0001
0010
1000
0000
1000
0010
0100
0000
,
1000
0100
0001
0000
0001
0010
0100
0000
,
1000
0001
1000
0001
0010
0100
0010
0100
;

//---------------dance-single - ----------------
#NOTES:
     dance-single:
     :
     Easy:
     5:
     0.258,0.334,0.017,0.017,0.000:
0000
0000
0000
0000
,
0000
0000
0000
0000
,
0000
0000
0000
0000
,
0000
0000
0000
0000
,
1000
0000
0000
0001
0000
0000
0000
1000
,
0000
0000
0000
0001
0000
1000
0000
0000
,
0001
0000
0000
1000
0000
0001
0000
1000
,
0000
0000
0000
0000
,
0001
0001
0100
0010
,
1000
0000
0100
0000
,
1000
1000
0010
0100
,
0001
0000
0000
0000
,
0001
0000
0000
0000
,
0000
0000
0000
1000
0000
1000
0000
0000
,
0001
0000
0100
0000
,
0001
0000
0100
0000
,
0001
0001
0100
0100
,
0001
0100
0001
0100
,
0001
0000
0000
0000
,
1000
0000
0000
1000
0000
0000
1000
0000
,
0000
1000
0000
1000
0000
1000
0000
0000
,
0001
0000
0000
0001
0000
0000
0000
0001
,
0000
0000
0000
0000
,
0100
0000
0000
0100
0000
0000
0100
0000
,
0000
0100
0000
0100
0000
0100
0000
0000
,
0010
0010
1000
0001
,
0010
0000
0000
0000
,
0100
0000
1000
0000
,
0100
0000
0000
0010
0000
0010
0000
0000
,
0100
0000
1000
0000
,
0001
0000
0000
0100
0000
0100
0000
0000
,
0001
0000
0010
0000
,
0100
0000
0000
1000
0000
1000
0000
0000
,
0001
0000
0000
1000
0000
0000
0000
0200
,
0000
0000
0000
0300
,
1000
0000
0000
0000
,
0000
0000
0001
0001
,
0001
0000
0000
0000
,
0000
0000
1000
1000
,
1000
0000
1000
0000
,
0001
0000
0001
0000
,
0100
0010
0100
0010
,
2000
0000
0000
3000
,
0001
0100
0001
0000
,
1000
0100
1000
0000
,
0001
0010
0001
0000
,
1000
0010
1000
0000
,
0001
0000
0001
0000
,
1000
0000
1000
0000
,
0001
0000
0100
0000
,
0010
0000
0110
0000
,
0000
0000
0000
0000
,
0000
0000
0000
0000
,
0000
0000
0000
0000
,
0000
0000
0000
0000
,
1000
0000
0000
0001
0000
0000
0000
0100
,
0000
0000
0000
0010
0000
0010
0000
0000
,
0100
0000
0000
0001
0000
1000
0000
1001
,
0000
0000
0000
0000
,
1000
0000
0000
1000
0000
0000
1000
0000
,
0000
1000
0000
1000
0000
1000
0000
0000
,
0001
0000
0000
0001
0000
0000
0000
0001
,
0000
0000
0100
0100
,
0010
0000
0000
0010
0000
0000
0010
0000
,
0000
0010
0000
0010
0000
0010
0000
0000
,
1000
1000
0001
0100
,
0010
0000
1000
1000
,
0001
0010
0100
0010
,
0001
0010
0100
0000
,
1000
0010
0100
0010
,
1000
0010
0100
0000
,
0001
1000
0001
1000
,
0010
0100
0010
0000
,
1000
0100
0010
0000
,
1000
0100
0010
0000
,
0001
0100
0010
0000
,
0001
0100
0010
0000
,
1000
0100
0001
0000
,
1000
0100
0001
0000
,
1000
0010
0001
0010
,
0000
0010
0100
0010
,
0000
0010
1000
0010
,
0000
0100
0001
0100
,
0000
0100
1000
0100
,
0000
0100
0010
0100
,
0000
0010
1000
0010
,
0100
0100
0100
0100
;

//---------------dance-single - ----------------
#NOTES:
     dance-single:
     :
     Beginner:
     2:
     0.137,0.185,0.017,0.000,0.000:
0000
0000
0000
0000
,
0000
0000
0000
0000
,
0000
0000
0000
0000
,
0000
0000
0000
0000
,
1000
0000
0000
0000
,
0000
0000
0000
0000
,
0001
0000
0000
0000
,
0000
0000
0000
0000
,
0100
0000
0100
0000
,
0100
0000
0000
0000
,
0010
0000
0010
0000
,
0010
0000
0000
0000
,
0100
0000
0000
0000
,
0000
0000
0000
0000
,
0100
0000
0000
0000
,
0100
0000
0000
0000
,
0010
0000
0010
0000
,
0010
0000
0010
0000
,
0010
0000
0000
0000
,
1000
0000
1000
0000
,
1000
0000
0000
0000
,
0001
0000
0001
0000
,
0001
0000
0000
0000
,
0100
0000
0100
0000
,
0100
0000
0000
0000
,
0010
0000
0010
0000
,
0010
0000
0000
0000
,
1000
0000
1000
0000
,
0001
0000
0000
0000
,
0001
0000
0001
0000
,
1000
0000
0000
0000
,
0100
0000
0100
0000
,
0010
0000
0000
0000
,
0010
0000
0010
0000
,
0100
0000
0000
0000
,
1000
0000
0000
0000
,
0000
0000
0000
0000
,
1000
0000
0000
0000
,
0000
0000
0000
0000
,
0001
0000
0001
0000
,
0001
0000
0000
0000
,
1000
0000
1000
0000
,
1000
0000
0000
0000
,
0001
0000
0000
0001
,
0000
0000
0001
0000
,
1000
0000
0000
1000
,
0000
0000
1000
0000
,
0100
0000
0000
0100
,
0000
0000
0100
0000
,
0010
0000
0010
0000
,
0010
0000
0010
0000
,
0000
0000
0000
0000
,
0000
0000
0000
0000
,
0000
0000
0000
0000
,
0000
0000
0000
0000
,
1001
0000
0000
0000
,
0000
0000
0000
0000
,
0110
0000
0000
0000
,
1000
0000
0000
0000
,
0001
0000
0001
0000
,
0001
0000
0000
0000
,
1000
0000
1000
0000
,
1000
0000
0000
0000
,
0100
0000
0100
0000
,
0100
0000
0000
0000
,
0010
0000
0010
0000
,
0010
0000
0000
0000
,
0001
0000
0001
0000
,
1000
0000
0000
0000
,
1000
0000
1000
0000
,
0001
0000
0000
0000
,
0100
0000
0100
0000
,
0010
0000
0000
0000
,
0010
0000
0010
0000
,
0010
0000
0000
0000
,
0100
0000
0100
0000
,
0100
0000
0000
0000
,
0001
0000
0001
0000
,
0001
0000
0000
0000
,
1000
0000
1000
0000
,
0001
0000
0001
0000
,
1000
0000
1000
0000
,
0001
0000
0001
0000
,
1000
0000
1000
0000
,
0001
0000
0001
0000
,
1000
0000
1000
0000
,
0100
0000
0100
0000
;

//---------------dance-double - ----------------
#NOTES:
     dance-double:
     :
     Hard:
     13:
     0.678,0.781,0.514,0.128,0.060:
00000000
00000000
00000000
00000000
,
00000000
00000000
00000000
00000000
,
00000000
00000000
00000000
00000000
,
00000000
00000000
00000000
00000000
,
00011000
00000000
00000000
01001000
00000000
00000000
00000000
01100000
,
00000000
00000000
00000000
10100000
00000000
10010000
00000000
00000000
,
00110000
00000000
00000000
00101000
00000000
00011000
00000000
00010200
,
00000000
00000000
00000000
00000300
,
00000010
00000001
00000100
00000001
00000010
00000100
00010000
00001000
,
00100000
01000000
10000000
11000000
00000000
01100000
00000000
00110000
,
00010000
10000000
00100000
01000000
00100000
00010000
00001000
00012000
,
00000000
00000100
00023000
01030000
,
11000000
00010000
00000000
00001000
,
00000000
00000000
00000001
00000101
00000000
00000110
00000000
00001010
,
00001000
00000100
00000010
00000100
00001000
00000100
00000010
00000100
,
00010000
00100000
01000000
00100000
00010000
00100000
01000000
00100000
,
00001000
00000010
00000100
00000010
00001000
00000010
00000100
00000010
,
00010000
01000000
00100000
01000000
00010000
01000000
00100000
01000000
,
10010000
00000000
00000000
00000000
,
10000000
10000000
01000000
00010000
00010000
00001000
00000100
00000100
,
00000010
00000000
00001000
00000001
00001000
00000000
00001100
00000000
00000000
00000000
00000110
00000000
00000000
00000000
00000011
00000000
,
00000001
00000001
00001000
00000100
00000100
00010000
00001000
00021000
,
00000000
01000000
00032000
00003100
,
00000001
00000001
00000100
00001000
00001000
00010000
01000000
01000000
,
10000000
00000000
00100000
01000000
00100000
00000000
01100000
00000000
00000000
00000000
10100000
00000000
00000000
00000000
10010000
00000000
,
00010000
00100000
00010000
00100000
00010000
00100000
00010000
00000000
01000000
00000000
00001000
00000000
00010000
00000000
00000020
00000000
,
00000000
00000000
00000000
00000030
,
00001000
00000100
00000010
00000100
00010000
00001000
00000100
00001000
,
00010000
00000100
00000010
00000011
00000000
00001001
00000000
00001100
,
00000100
00010000
00001000
00100000
00010000
01000000
00100000
10000000
,
01000000
00010000
00001000
00011000
00000000
01010000
00000000
01100000
,
00100000
00001000
00010000
00001000
00100000
01000000
10000000
01000000
,
00100000
00001000
00010000
00010100
00000000
00000110
00000000
00000011
,
00000001
00000001
00000100
00001000
00001000
00010000
00000000
00022000
,
00000000
00000000
00000000
00033000
,
00001000
00000000
00000000
00001000
00000000
00000000
00001000
00000000
,
00000000
00001000
00000000
00000000
00001000
00000100
00000001
00000100
,
00001000
00000000
00000000
00001000
00000000
00000000
00002000
00000000
,
00000000
00000000
00000000
00003000
,
00010000
00000000
00001000
00010000
00001000
00000000
00010000
00000000
,
00001000
00010000
00001000
00000000
00010000
01000000
10000000
01000000
,
00010000
00000000
00000000
00001000
00000000
00000000
00000100
00000000
,
00000010
00001000
00000001
00001000
00000010
00000100
00000001
00000010
,
00000001
00000100
00001000
00000100
00000001
00000000
00001000
00000100
,
00010000
00000100
00001000
00000000
00010000
00100000
00010000
00100000
,
01000000
10000000
00010000
10000000
01000000
00000000
00100000
00010000
,
00001000
00010000
00100000
00000000
00001000
00010000
00001000
00010000
,
00000010
00000100
00000001
00000100
00000010
00000000
00010000
00001000
,
01000000
00001000
00010000
00000000
00100000
10000000
00100000
10000000
,
10010000
00000000
00011000
00000000
,
00001001
00000000
00011000
00000000
,
02000000
00000000
00000000
00000000
,
00000000
00000000
00000000
00000000
,
00000000
00000000
00000000
00000000
,
00000000
00000000
00000000
03000000
,
10100000
00100000
00000000
01000000
00000000
00001000
00000000
00010000
,
00000000
01000000
00100000
00010000
00000000
00001000
00000000
00000000
,
00000110
00000010
00000000
00000011
00000000
00001100
00000000
00000202
,
00000000
00000000
00000000
00000303
,
00000001
00000001
00000100
00001000
00001000
00010000
01000000
01000000
,
00100000
00000000
00010000
10000000
00010000
00000000
01010000
00000000
00000000
00000000
01100000
00000000
00000000
00000000
10100000
00000000
,
10000000
10000000
00010000
01000000
01000000
00001000
00010000
00012000
,
00000000
00000100
00023000
01030000
,
10000000
10000000
01000000
00010000
00010000
00001000
00000100
00000100
,
00000001
00000000
00000010
00000100
00000010
00000000
00000110
00000000
00000000
00000000
00000011
00000000
00000000
00000000
00001001
00000000
,
00001000
00000010
00001000
00000010
00001000
00000010
00001000
00000000
00000100
00000000
00010000
00000000
00001000
00000000
00200000
00000000
,
00000000
00010000
00010000
00310000
,
00010000
01000000
00100000
01000000
00001000
00010000
01000000
00010000
,
00001000
01000000
00100000
10100000
00000000
10010000
00000000
01010000
,
01000000
00001000
00010000
00000010
00001000
00000100
00000010
00000001
,
00000100
00001000
00010000
00011000
00000000
00001100
00000000
00000110
,
00000010
00010000
00001000
00010000
00000010
00000100
00000001
00000100
,
00000010
00010000
00001000
01001000
00000000
01100000
00000000
10100000
,
10000000
01000000
00100000
01000000
00010000
01000000
00100000
01000000
,
10000000
00000000
01000000
00000000
00100000
00000000
01000000
00000000
00010000
00000000
01000000
00000000
00000000
00000000
01000000
00010000
,
00001000
00000100
00000010
00000100
00000001
00000100
00000010
00000100
,
00001000
00000000
00000100
00000000
00000010
00000000
00000100
00000000
00000001
00000000
00000100
00000000
00000000
00000000
00000100
00001000
,
00010000
00000000
01000000
00000000
00100000
00000000
01000000
00000000
00010000
00000000
01000000
00000000
00000000
00000000
01000000
00010000
,
00001000
00000000
00000100
00000000
00000010
00000000
00000100
00000000
00000001
00000000
00000100
00000000
00000000
00000000
00000100
00001000
,
00010000
00100000
10000000
00100000
01000000
00100000
10000000
00100000
,
01000000
00001000
00010000
00001000
00000100
00001000
00010000
00001000
,
00000100
00000010
00001000
00000010
00000100
00000010
00001000
00000010
,
00000100
00000001
00000010
00000100
00000010
00000001
00000010
00000100
,
00010000
00001000
00000100
00001000
00010000
00001000
00000100
00001000
,
00010000
01000000
10000000
01000000
00010000
01000000
10000000
01000000
,
00010000
00001000
00000100
00000001
00000010
00001000
00010000
01000000
,
10000000
00100000
00100000
00100000
01000000
00010000
00010000
00010000
;

//---------------dance-double - ----------------
#NOTES:
     dance-double:
     :
     Medium:
     9:
     0.472,0.483,0.051,0.111,0.000: // measure 1
00000000
00000000
00000000
00000000
,  // measure 2
00000000
00000000
00000000
00000000
,  // measure 3
00000000
00000000
00000000
00000000
,  // measure 4
00000000
00000000
00000000
00000000
,  // measure 5
10000000
01000000
00000000
00100000
00000000
00001000
00000000
00010000
,  // measure 6
00000000
00000100
00000010
00000001
00000000
00001000
00000000
00000000
,  // measure 7
00000001
00000100
00000000
00000010
00000000
00010000
00000000
00002000
,  // measure 8
00000000
00000000
00000000
00003000
,  // measure 9
00010000
00001000
00000000
01000000
00000000
00100000
00000000
10000000
,  // measure 10
00000000
01000000
00100000
00010000
00000000
10010000
00000000
00010000
,  // measure 11
10000000
01000000
00000000
00100000
00000000
00001000
00000000
00020000
,  // measure 12
00000000
00000000
00001000
00031000
,  // measure 13
00000200
00000010
00000000
00000010
,  // measure 14
00000000
00000000
00000310
00001000
00000000
00000101
00000000
00000010
,  // measure 15
00010000
00001000
00010000
00000000
00001000
00010000
00001000
00000000
,  // measure 16
01000000
00010000
01000000
00000000
00010000
01000000
00010000
00000000
,  // measure 17
10000000
01000000
10000000
00000000
01000000
10000000
01000000
00000000
,  // measure 18
10000000
01000000
00100000
00000000
00010000
00100000
01000000
00000000
,  // measure 19
20000000
00000000
00000000
30000000
,  // measure 20
00010000
01000000
00000000
00010000
01000000
00000000
00010000
01000000
,  // measure 21
00000000
00010000
01000000
00001000
00000000
00010000
00000000
00000100
,  // measure 22
00001000
00000010
00000000
00001000
00000010
00000000
00001000
00000020
,  // measure 23
00000000
00000000
00000100
00000130
,  // measure 24
00000001
00000010
00000000
00000001
00000010
00000000
00000001
00000010
,  // measure 25
00000000
00000001
00000010
00000100
00000000
00010000
00000000
00001000
,  // measure 26
01000000
00100000
10000000
00000000
00010000
00100000
01000000
20000000
,  // measure 27
00000000
00000000
00000000
30000000
,  // measure 28
00010000
01000000
00000000
00001000
00000000
00010000
00000000
00000100
,  // measure 29
00000010
00000001
00000000
00000100
00000000
00000010
00000000
00010000
,  // measure 30
00001000
01000000
00000000
00100000
00000000
10000000
00000000
01000000
,  // measure 31
00010000
00001000
00000000
00000100
00000000
00000010
00000000
00001000
,  // measure 32
00000100
00000010
00000000
00000001
00000000
00000100
00000000
00001000
,  // measure 33
00010000
01000000
00000000
10000000
00000000
00100000
00000000
01000000
,  // measure 34
00001000
00010000
00000000
00001000
00010000
00000100
00000000
00000020
,  // measure 35
00000000
00000000
00000000
00000030
,  // measure 36
00000001
00000000
00000000
00001000
00000000
00000000
00000001
00000000
,  // measure 37
00000000
00001000
00000000
00000000
00000100
00000000
00000100
00000000
,  // measure 38
00010000
00000000
00000000
00001000
00000000
00000000
00020000
00000000
,  // measure 39
00000000
00001000
00001000
00031000
,  // measure 40
01000000
00000000
00000000
00100000
00000000
00000000
01000000
00000000
,  // measure 41
00000000
00100000
00000000
00000000
10000000
00000000
00010000
00000000
,  // measure 42
10000000
00000000
00000000
01000000
00000000
00000000
00200000
00000000
,  // measure 43
00001000
00001000
00001000
00301000
,  // measure 44
00010000
00000000
00000100
00001000
00000100
00000000
00010000
00000000
,  // measure 45
00000100
00001000
00000100
00000000
00000010
00000000
00000010
00000000
,  // measure 46
00000001
00000000
00000100
00000010
00000100
00000000
00000001
00000000
,  // measure 47
00000100
00000010
00000100
00000000
00001000
00000000
00001000
00000000
,  // measure 48
00010000
00000000
01000000
00100000
01000000
00000000
10000000
00000000
,  // measure 49
01000000
00100000
01000000
00000000
00010000
00000000
00001000
00000000
,  // measure 50
00011000
00000000
00010100
00000000
,  // measure 51
01001000
00000000
00011000
00000000
,  // measure 52
00010000
00000000
00000000
00001000
00000000
00001000
00000000
00010000
,  // measure 53
00000000
00001000
00000000
00010000
00000000
00010000
00000000
00000000
,  // measure 54
00001000
00000000
00000000
00010000
00000000
00001000
00000000
00002000
,  // measure 55
00000000
00000000
00000000
00003000
,  // measure 56
00010000
00000000
00000000
00000100
00000000
00000100
00000000
00001000
,  // measure 57
00000000
00000010
00000000
00000100
00000000
00000100
00000000
00000000
,  // measure 58
00000001
00000000
00000000
00001000
00000000
00000100
00000000
00000200
,  // measure 59
00000000
00000000
00000000
00000300
,  // measure 60
00010000
00001000
00000000
00010000
00001000
00000000
00010000
00001000
,  // measure 61
00000000
00010000
00001000
01000000
00000000
00100000
00000000
10000000
,  // measure 62
01000000
00100000
00000000
01000000
00100000
00000000
01000000
00200000
,  // measure 63
00000000
00000000
00001000
00301000
,  // measure 64
00010000
00000100
00000000
00010000
00000100
00000000
00010000
00000100
,  // measure 65
00000000
00010000
00000100
00000010
00000000
00000001
00000000
00000100
,  // measure 66
00000010
00001000
00000100
00000000
00000010
00000001
00000100
00002000
,  // measure 67
00000000
00010000
00010000
00013000
,  // measure 68
01000000
10000000
00000000
00100000
00000000
01000000
00000000
00001000
,  // measure 69
00010000
00000100
00000000
00000010
00000000
00000001
00000000
00000100
,  // measure 70
00001000
00010000
00000000
00100000
00000000
01000000
00000000
00010000
,  // measure 71
00100000
01000000
00000000
10000000
00000000
01000000
00000000
00010000
,  // measure 72
00001000
00000100
00000000
00000010
00000000
00010000
00000000
00001000
,  // measure 73
01000000
00100000
00000000
10000000
00000000
01000000
00000000
00100000
,  // measure 74
00001000
00010000
00001000
00000000
00010000
00000000
00000100
00000000
,  // measure 75
00010000
00001000
00010000
00000000
00001000
01000000
00000000
00000000
,  // measure 76
00001000
00010000
00001000
00000000
00010000
00000000
00000100
00000000
,  // measure 77
00010000
00001000
00010000
00000000
00001000
01000000
00000000
00000000
,  // measure 78
00001000
00010000
00001000
00000000
00010000
00000100
00000000
00000000
,  // measure 79
00010000
00001000
00010000
00000000
00001000
01000000
00000000
00000000
,  // measure 80
00001000
00010000
00001000
00000000
00010000
00000100
00010000
00000000
,  // measure 81
00000100
00001000
00000100
00000000
00001000
00000010
00001000
00000000
,  // measure 82
00000010
00000100
00000010
00000000
00000100
00000001
00000100
00000000
,  // measure 83
00000001
00001000
00000001
00000000
00001000
00000100
00001000
00000000
,  // measure 84
00000001
00000010
00000100
00000000
00000010
00000100
00010000
00000000
,  // measure 85
00000100
00010000
00001000
00000000
00010000
00001000
01000000
00000000
,  // measure 86
00001000
01000000
00100000
00000000
01000000
00100000
10000000
00000000
,  // measure 87
00010000
10000000
00010000
10000000
00100000
01000000
00100000
01000000
;

//---------------dance-double - ----------------
#NOTES:
     dance-double:
     :
     Easy:
     6:
     0.290,0.334,0.043,0.017,0.000: // measure 1
00000000
00000000
00000000
00000000
,  // measure 2
00000000
00000000
00000000
00000000
,  // measure 3
00000000
00000000
00000000
00000000
,  // measure 4
00000000
00000000
00000000
00000000
,  // measure 5
10000000
00000000
00000000
01000000
00000000
00000000
00000000
00010000
,  // measure 6
00000000
00000000
00000000
00001000
00000000
00000100
00000000
00000000
,  // measure 7
00000001
00000000
00000000
00000010
00000000
00000100
00000000
00010000
,  // measure 8
00000000
00000000
00000000
00000000
,  // measure 9
00001000
01000000
00010000
01000000
,  // measure 10
00001000
01000000
00010000
10000000
,  // measure 11
01000000
00010000
00001000
00010000
,  // measure 12
02000000
00000000
00000000
03000000
,  // measure 13
10000000
00010000
00000000
00010000
,  // measure 14
00000000
00000000
00000000
00010000
00000000
00010000
00000000
00000000
,  // measure 15
10000000
01000000
00010000
00000000
,  // measure 16
00001000
00000010
00000001
00000000
,  // measure 17
00000001
00000100
00001000
00000000
,  // measure 18
00010000
00100000
10000000
00000000
,  // measure 19
10010000
00000000
00000000
00000000
,  // measure 20
00010000
01000000
00001000
00010000
,  // measure 21
00000100
00001000
00000010
00000000
,  // measure 22
00000010
00000100
00000001
00000010
,  // measure 23
00000100
00000000
00000100
00000000
,  // measure 24
00000100
00010000
00001000
01000000
,  // measure 25
00010000
00100000
01000000
00000000
,  // measure 26
10000000
00010000
10000000
01000000
,  // measure 27
00010000
00000000
00000000
00000000
,  // measure 28
00001000
00010000
00000100
00010000
,  // measure 29
00000100
00000010
00000001
00000000
,  // measure 30
00000100
00000010
00010000
00000010
,  // measure 31
00010000
00001000
01000000
00000000
,  // measure 32
00010000
00100000
00010000
00100000
,  // measure 33
01000000
10000000
00010000
00000000
,  // measure 34
01000000
00000000
00001000
00000000
,  // measure 35
00010000
00000000
00000000
00000000
,  // measure 36
00000100
00000000
00000000
00000000
,  // measure 37
00000000
00000000
00010000
00010000
,  // measure 38
00001000
00000000
01000000
01000000
,  // measure 39
00010000
00000000
10000000
10000000
,  // measure 40
01000000
00000000
00010000
00000000
,  // measure 41
00001000
00000000
00000100
00000000
,  // measure 42
00000010
00000001
00001000
00000001
,  // measure 43
00000100
00000000
00000100
00000000
,  // measure 44
00000001
00000100
00000001
00000000
,  // measure 45
00001000
00000100
00010000
00000000
,  // measure 46
00001000
01000000
00010000
00000000
,  // measure 47
10000000
01000000
00100000
00000000
,  // measure 48
00001000
00010000
00000100
00000000
,  // measure 49
00001000
00000010
00000100
00000000
,  // measure 50
00000010
00000000
00000100
00000000
,  // measure 51
00000101
00000000
00001010
00000000
,  // measure 52
00020000
00000000
00000000
00000000
,  // measure 53
00000000
00000000
00000000
00000000
,  // measure 54
00000000
00000000
00000000
00000000
,  // measure 55
00030000
00000000
00000000
00000000
,  // measure 56
00011000
00000000
00000000
00000000
,  // measure 57
00000000
00000000
00000000
00000000
,  // measure 58
00011000
00000000
00000000
00010000
00000000
00001000
00000000
00001000
,  // measure 59
00000000
00000000
00000000
00000000
,  // measure 60
00010000
01000000
10000000
01000000
,  // measure 61
00010000
00001000
00000100
00000001
,  // measure 62
00000010
00000001
00000100
00001000
,  // measure 63
00010000
00000000
00100000
00000000
,  // measure 64
10000000
01000000
00100000
01000000
,  // measure 65
10000000
00010000
01000000
00000000
,  // measure 66
00001000
00010000
00000100
00001000
,  // measure 67
00000010
00000000
00000000
00000000
,  // measure 68
00000100
00000001
00001000
00000100
,  // measure 69
00010000
00001000
00100000
00010000
,  // measure 70
01000000
00100000
10000000
01000000
,  // measure 71
00010000
00001000
00000100
00000001
,  // measure 72
00001000
00000100
00000010
00000001
,  // measure 73
00000100
00000010
00000100
00000000
,  // measure 74
00000001
00000100
00001000
00010000
,  // measure 75
00100000
00010000
00001000
00000000
,  // measure 76
00001000
00000010
00001000
00010000
,  // measure 77
01000000
10000000
00100000
00000000
,  // measure 78
00100000
10000000
01000000
00000000
,  // measure 79
00100000
00010000
01000000
00000000
,  // measure 80
00001000
00010000
00000100
00000000
,  // measure 81
00000010
00000001
00000100
00000000
,  // measure 82
00000010
00010000
00001000
00000000
,  // measure 83
01000000
00010000
00100000
00000000
,  // measure 84
01000000
10000000
00010000
00000000
,  // measure 85
01000000
00001000
00010000
00000000
,  // measure 86
00000100
00001000
00000010
00000000
,  // measure 87
00000100
00000001
00001000
00000100
;
