#TITLE:LALALA YO-DEL;
#SUBTITLE:;
#ARTIST:DJ simon;
#TITLETRANSLIT:LALALA YO-DEL;
#SUBTITLETRANSLIT:;
#ARTISTTRANSLIT:DJ simon;
#GENRE:;
#CREDIT:;
#MENUCOLOR:;
#METERTYPE:DDR;
#BANNER:LALALA YO-DEL.png;
#BACKGROUND:LALALA YO-DEL-bg.png;
#LYRICSPATH:;
#CDTITLE:cdtitle.png;
#MUSIC:LALALA YO-DEL.mp3;
#OFFSET:-0.036;
#SAMPLESTART:11.644;
#SAMPLELENGTH:15.000;
#SELECTABLE:YES;
#LISTSORT:;
#BPMS:0.000=165.000;
#STOPS:;
#BGCHANGES:;
#ATTACKS:;

//---------------dance-single - ----------------
#NOTES:
     dance-single:
     :
     Hard:
     12:
     0.600,0.570,0.382,0.011,0.027:
0000
0000
0000
0000
,
0000
0000
0000
0000
,
0000
0000
0000
0000
,
0000
0000
0000
0000
,
1000
1000
1000
1000
,
0001
0001
0001
0001
,
1000
1000
0100
0100
0001
0001
0100
0100
,
1000
0100
0001
0100
1000
0000
1001
0000
,
0001
0100
0000
1000
0100
0000
0001
0000
,
1000
0100
0000
0001
0100
0000
1000
0000
,
0001
0010
0000
1000
0010
0000
0001
0000
,
1000
0010
0001
0010
1000
0000
1001
0000
,
0001
0010
0000
1000
0010
0000
0001
0000
,
1000
0010
0000
0001
0010
0000
1000
0000
,
0001
0100
0000
1000
0100
0000
0001
0000
,
1000
0100
0001
0100
1000
0000
1001
0000
,
0001
0100
0110
0000
1000
0000
0110
0000
,
1000
0100
0110
0000
0001
0000
0110
0000
,
0010
1000
1010
0000
0001
0000
1010
0000
,
0100
0001
0011
0000
1000
0000
0011
0000
,
0010
0100
1100
1000
0001
0000
0101
0000
,
0100
0001
0011
0010
0100
0000
1100
0000
,
1000
0001
0101
0100
0010
0000
1010
0000
,
1000
0100
0001
0100
1000
0000
1001
0000
,
0110
0110
0110
0110
,
1000
0000
1000
0000
1000
0000
1000
0100
,
0000
0100
0010
0100
1000
0000
0001
0100
,
0010
0000
0010
0000
0010
0000
0010
1000
,
0000
1000
0100
0010
0100
0000
1000
0001
,
0100
0010
0100
0001
0100
0010
0100
0001
,
1000
0010
1000
0001
1000
0010
1000
0001
,
0100
0010
0100
0010
1000
0001
1000
0001
,
0010
0100
0010
0100
1000
0001
1001
0000
,
0010
1000
0001
0010
0100
0000
1000
0100
,
0001
0100
1000
0001
0100
0000
0010
0100
,
0001
0000
0000
0001
0100
0000
0001
0000
1000
0000
0000
1000
0100
0000
0010
0000
,
0100
1000
0001
0100
0020
0000
0100
0000
,
0130
0001
0100
0001
1000
0100
1000
0100
,
0010
0001
0100
0010
1000
0010
0100
0001
,
0010
0100
1000
0001
0100
0000
0110
0000
,
0100
0001
0010
0001
0100
0000
0110
0000
,
1000
0100
0001
0100
1000
0000
1001
0000
,
0001
0100
0000
0010
0100
0001
0000
1000
,
0001
0010
1000
0010
0001
0000
1001
0000
,
1000
0010
0001
0010
1000
0000
1001
0000
,
1000
0100
0010
0000
0001
0100
0010
0000
,
1000
0010
0001
0010
1000
0000
1001
0000
,
1000
0100
0000
0010
0000
0000
0001
0100
,
0000
0010
1000
0000
0100
0010
0000
0001
,
0000
0000
0100
0010
0000
1000
0100
0000
,
0010
0001
0000
0100
0000
0000
0010
1000
,
0000
0100
0010
0000
0001
0100
0000
0010
,
0001
0010
1000
0100
0001
0000
0110
0000
,
1000
0010
0001
0100
1000
0000
0110
0000
,
0001
0010
1000
0100
0001
0000
0110
0000
,
1000
0010
0001
0100
1000
0100
0001
0010
,
1000
0010
0001
0100
1000
0000
0110
0000
,
0001
0010
1000
0100
0001
0000
0110
0000
,
0001
0100
1000
0100
0001
0010
1000
0010
,
0001
0010
0100
1000
0001
0000
0110
0000
,
1000
0100
1000
0000
0001
0000
0001
0000
0100
0000
0100
0000
0010
0000
0010
0000
,
1000
0000
0001
0100
0001
0000
1000
0100
1000
0000
0000
0000
0000
0000
0000
0000
;

//---------------dance-single - ----------------
#NOTES:
     dance-single:
     :
     Beginner:
     4:
     0.184,0.235,0.000,0.000,0.000:
0000
0000
0000
0000
,
0000
0000
0000
0000
,
0000
0000
0000
0000
,
0000
0000
0000
0000
,
0000
0000
0000
0000
,
0000
0000
0000
0000
,
0100
0000
0100
0000
,
0100
0100
0100
0000
,
0001
0000
0001
0000
,
1000
0000
1000
0000
,
0001
0000
0001
0000
,
0100
0100
0100
0000
,
0001
0000
0001
0000
,
1000
0000
1000
0000
,
0001
0000
0001
0000
,
0100
0100
0100
0000
,
0000
0010
0000
0010
,
0000
0100
0000
0100
,
0000
0001
0000
0001
,
0000
1000
0000
1000
,
0000
0100
0000
0100
,
0000
0010
0000
0010
,
0000
0001
0000
0001
,
0001
0001
0001
0000
,
0100
0100
0100
0100
,
0100
0000
0100
0000
,
0100
0100
0100
0000
,
0001
0000
0001
0000
,
0001
0001
0001
0000
,
1000
0000
1000
0000
,
1000
1000
1000
0000
,
0100
0000
0100
0000
,
0100
0100
0100
0000
,
0010
0000
0010
0000
,
0010
0010
0010
0000
,
0001
0000
0001
0000
,
0001
0001
0001
0000
,
1000
0000
1000
0000
,
0001
0000
0001
0000
,
1000
0000
1000
0000
,
0100
0000
0100
0000
,
0010
0000
0010
0000
,
0001
0000
0001
0000
,
0100
0000
0100
0000
,
0010
0000
0010
0000
,
0100
0000
0100
0000
,
0100
0100
0100
0000
,
0000
0000
0000
0000
,
0000
0000
0000
0000
,
0000
0000
0000
0000
,
0000
0000
0000
0000
,
0000
0000
0000
0000
,
1000
0000
1000
0000
,
0001
0000
0001
0000
,
0100
0000
0100
0000
,
0010
0010
0010
0000
,
0100
0000
0100
0000
,
0001
0000
0001
0000
,
1000
0000
1000
0000
,
1000
1000
1000
0000
,
0100
0000
0100
0000
,
0100
0100
0100
0000
;

//---------------dance-single - ----------------
#NOTES:
     dance-single:
     :
     Medium:
     9:
     0.463,0.470,0.164,0.000,0.011: // measure 1
0000
0000
0000
0000
,  // measure 2
0000
0000
0000
0000
,  // measure 3
0000
0000
0000
0000
,  // measure 4
0000
0000
0000
0000
,  // measure 5
1000
0100
1000
0100
,  // measure 6
0010
0001
0010
0001
,  // measure 7
0100
0001
0010
0001
,  // measure 8
0100
0010
0100
1000
0100
0000
0001
0000
,  // measure 9
1000
0100
0000
0001
0100
0000
1000
0000
,  // measure 10
0001
0100
0000
0010
0100
0000
1000
0000
,  // measure 11
0100
0010
0000
1000
0100
0000
0010
0000
,  // measure 12
0100
1000
0000
0001
0100
0010
0000
0100
,  // measure 13
0001
1000
0000
0100
0010
0000
0100
0000
,  // measure 14
0001
0100
0000
0010
0100
0000
1000
0000
,  // measure 15
0010
0010
0100
0100
,  // measure 16
0001
1000
0001
1000
0001
0000
0100
0000
,  // measure 17
0010
0100
0001
0101
,  // measure 18
1000
0100
0010
0110
,  // measure 19
1000
0001
0100
0101
,  // measure 20
0010
1000
0001
0011
,  // measure 21
0100
1000
0001
0101
,  // measure 22
0010
1000
0001
1001
,  // measure 23
0100
0010
0001
0011
,  // measure 24
0100
1000
0001
1000
0100
0000
0010
0000
,  // measure 25
0100
0100
0100
0100
,  // measure 26
1000
0000
0001
0000
0100
0000
0001
0100
,  // measure 27
0000
0001
0000
0100
0001
0000
1000
0000
,  // measure 28
0010
0000
0100
0000
0010
0000
1000
0100
,  // measure 29
0000
0001
0000
0100
1000
0000
0001
0000
,  // measure 30
0100
0010
0100
0000
0010
0100
0010
0000
,  // measure 31
1000
0001
1000
0000
0001
1000
0001
0000
,  // measure 32
0010
0100
0010
0100
0010
0100
0010
0000
,  // measure 33
0001
1000
0001
1000
0001
1000
0001
0000
,  // measure 34
0100
1000
0000
0100
0001
0000
1000
0000
,  // measure 35
0100
0001
0100
1000
0100
0000
0010
0001
,  // measure 36
0100
0000
0000
0100
0000
0000
0100
0000
0010
0000
0000
0010
0000
0000
0010
0000
,  // measure 37
1000
0100
0001
0000
0100
0000
1000
0000
,  // measure 38
0001
0100
0001
0100
0001
0100
0001
0000
,  // measure 39
1000
0100
1000
0100
1000
0100
1000
0000
,  // measure 40
0001
0000
0100
0000
1000
0100
0001
0000
,  // measure 41
1000
0000
0100
0000
0001
0100
1000
0000
,  // measure 42
0001
0000
0010
0000
1000
0010
0001
0000
,  // measure 43
1000
0000
0010
0000
0001
0010
1000
0000
,  // measure 44
0001
0000
0010
0000
0100
0010
0001
0000
,  // measure 45
1000
0000
0010
0000
0100
0010
1000
0000
,  // measure 46
0001
0100
1000
0000
1000
0100
0001
0000
,  // measure 47
1000
0100
0001
0100
1000
0000
0001
0000
,  // measure 48
1000
0000
0000
0100
0000
0000
0010
0000
,  // measure 49
0000
0001
0000
0000
0100
0000
0000
1000
,  // measure 50
0000
0000
0100
0000
0000
0001
0000
0000
,  // measure 51
0010
0000
0000
0100
0000
0000
0001
0000
,  // measure 52
0000
0100
0000
0000
1000
0000
0000
0001
,  // measure 53
0100
0001
0100
1001
,  // measure 54
0010
1000
0100
0011
,  // measure 55
1000
0001
0100
1010
,  // measure 56
0001
0100
0000
0010
0100
0001
0000
1000
,  // measure 57
0100
0010
1000
0101
,  // measure 58
0010
0001
0100
1010
,  // measure 59
0001
0100
0001
0000
1000
0100
1000
0000
,  // measure 60
0001
0100
1000
0100
0001
0000
1000
0000
,  // measure 61
0100
0001
0100
1000
0100
0001
0100
0000
,  // measure 62
1100
0101
1001
0000
;

//---------------dance-single - ----------------
#NOTES:
     dance-single:
     :
     Easy:
     6:
     0.305,0.369,0.076,0.000,0.000: // measure 1
0000
0000
0000
0000
,  // measure 2
0000
0000
0000
0000
,  // measure 3
0000
0000
0000
0000
,  // measure 4
0000
0000
0000
0000
,  // measure 5
1000
0000
1000
0000
,  // measure 6
0001
0000
0001
0000
,  // measure 7
0100
0100
0010
0010
,  // measure 8
0100
0010
0100
0000
,  // measure 9
0001
1000
0100
0000
,  // measure 10
0001
0100
1000
0000
,  // measure 11
0010
1000
0100
0000
,  // measure 12
1000
0001
1000
0000
,  // measure 13
1000
0001
0100
0000
,  // measure 14
1000
0100
0001
0000
,  // measure 15
0010
0001
0100
0000
,  // measure 16
0001
1000
0001
0000
,  // measure 17
0001
0100
0001
0100
,  // measure 18
0010
0100
0010
0100
,  // measure 19
0001
0100
0010
0100
,  // measure 20
0001
0100
0010
1000
,  // measure 21
1000
0100
1000
0100
,  // measure 22
0010
0100
0010
0100
,  // measure 23
1000
0100
0010
0100
,  // measure 24
1000
0100
0010
0001
,  // measure 25
0100
0100
0100
0100
,  // measure 26
0001
0000
0001
0000
,  // measure 27
0001
0100
1000
0000
,  // measure 28
1000
0000
1000
0000
,  // measure 29
1000
0100
0010
0000
,  // measure 30
0010
0000
0010
0000
,  // measure 31
0010
1000
0100
0000
,  // measure 32
0100
0000
0100
0000
,  // measure 33
0001
0100
1000
0000
,  // measure 34
0001
0100
0010
0100
,  // measure 35
0001
0001
0001
0000
,  // measure 36
1000
0100
1000
0100
,  // measure 37
0010
0100
1000
0000
,  // measure 38
0001
0100
1000
0010
,  // measure 39
0001
0100
1000
0010
,  // measure 40
0001
0100
0001
0101
,  // measure 41
1000
0100
1000
1100
,  // measure 42
0001
0010
0001
0011
,  // measure 43
1000
0010
1000
1010
,  // measure 44
1000
0100
0010
0011
,  // measure 45
0001
0100
0010
1010
,  // measure 46
1000
0010
0100
0101
,  // measure 47
0001
1000
0001
0000
,  // measure 48
0100
0000
0000
0100
,  // measure 49
0000
0000
0100
0000
,  // measure 50
0000
0100
0000
0000
,  // measure 51
0100
0000
0000
0100
,  // measure 52
0000
0000
0100
0000
,  // measure 53
0100
0001
1000
0100
,  // measure 54
1000
0001
0100
1000
,  // measure 55
0001
0010
1000
0001
,  // measure 56
0010
0100
1000
0001
,  // measure 57
0100
1000
0100
0010
,  // measure 58
0001
1000
0100
0001
,  // measure 59
1000
0100
0010
0001
,  // measure 60
0100
0100
0100
0000
,  // measure 61
0001
0100
1000
0100
,  // measure 62
0001
1000
0100
0000
;
