#TITLE:CANDY☆;
#SUBTITLE:;
#ARTIST:Luv UNLIMITED;
#TITLETRANSLIT:CANDY;
#SUBTITLETRANSLIT:;
#ARTISTTRANSLIT:Luv UNLIMITED;
#GENRE:;
#CREDIT:;
#MENUCOLOR:;
#METERTYPE:DDR;
#BANNER:CANDY.png;
#BACKGROUND:CANDY-bg.png;
#LYRICSPATH:;
#CDTITLE:cdtitle.png;
#MUSIC:CANDY.mp3;
#OFFSET:-0.026;
#SAMPLESTART:32.510;
#SAMPLELENGTH:15.000;
#SELECTABLE:YES;
#LISTSORT:;
#BPMS:0.000=192.000;
#STOPS:;
#BGCHANGES:;
#ATTACKS:;

//---------------dance-single - ----------------
#NOTES:
     dance-single:
     :
     Hard:
     12:
     0.747,0.788,0.742,0.114,0.000:
0000
0000
0000
0000
,
0000
0000
0000
0000
,
0000
0000
0000
0000
,
0000
0000
0000
0000
,
0101
0000
0101
0000
0001
0010
0100
0000
,
1100
0000
1100
0000
1000
0010
0100
0000
,
0001
0100
1000
0100
0001
0010
1000
0010
,
0001
0100
0010
1000
0000
0001
0001
0100
,
0010
0000
1000
0100
0000
1000
0010
0100
,
0001
0000
0010
0001
0000
0100
0001
1000
,
0010
0000
0101
0000
0010
1000
0100
0001
,
0000
0100
1000
0000
0010
0000
0100
0001
,
0101
0000
1100
0000
0001
0010
1000
0010
,
0000
0001
0100
0000
0010
0000
1000
0001
,
0101
0000
1100
0000
0001
0100
1000
0100
,
0000
0001
0010
0000
0100
0000
1000
0010
,
0110
0000
1001
0000
0010
1000
0100
0001
,
0000
0100
1000
0010
0100
0001
0010
0100
,
1000
0000
0101
0000
1000
0100
0001
0100
,
1000
0010
0100
0000
0001
0010
0100
1000
,
1001
0000
0110
0000
0010
1000
0100
0001
,
0100
1000
0010
0000
0100
0001
0010
0100
,
0110
0000
0011
0000
0001
0100
1000
0100
,
0001
0010
0100
0000
1000
0100
0001
0100
,
1100
0000
0011
0000
0010
0100
1000
0001
,
0100
0010
0100
0002
2000
0000
3003
0000
,
0101
0000
1100
0000
0101
0000
0010
1000
,
0000
1000
0001
0000
0020
0000
0030
0000
,
1100
0000
0101
0000
1100
0000
0010
0001
,
0000
0001
1000
0000
0020
0000
0130
0001
,
1000
0000
0101
0001
0100
0000
0010
1000
,
0010
0100
0001
0000
0010
0100
1000
0000
,
0001
0100
0010
1000
0100
0000
0010
0100
,
1000
0001
0100
0000
0110
0000
1001
0000
,
1010
0000
0011
0000
1010
0000
0100
0001
,
0000
0001
1000
0000
0200
0000
0300
0000
,
0011
0000
1010
0000
0011
0000
0100
1000
,
0000
1000
0001
0000
0200
0000
0310
1000
,
0001
0000
1010
1000
0010
0000
0100
0001
,
0100
0010
1000
0000
0100
0010
0001
0000
,
1000
0010
0100
0001
0010
0000
0100
0010
,
0001
1000
0010
0000
0110
0000
1001
0000
,
0001
0000
1000
0100
0000
0001
0100
0000
,
1000
0010
0000
0001
0010
0000
1000
0100
,
0010
0000
0001
0100
0000
1000
0100
0000
,
0001
0010
0000
1000
0010
0000
0001
0100
,
0010
0000
1000
0100
0000
0001
0100
0000
,
1000
0010
0000
0001
0010
0000
1000
0100
,
0010
0001
0100
1000
0100
0001
0010
0100
,
1000
0001
0000
1001
0000
0101
1100
0000
,
1001
0000
0110
0000
1001
0000
0001
0100
,
1000
0100
0001
0000
0220
0000
0330
0000
,
1001
0000
0110
0000
1001
0000
1000
0100
,
0001
0100
1000
0000
0110
0000
0010
1000
,
0100
0000
1100
0100
1000
0000
0101
0000
,
0010
1000
0001
1000
0100
0010
0001
1000
,
0001
0100
0010
0100
0010
1000
0001
1000
,
0100
0010
0100
1000
1001
0000
0110
0000
,
1001
0000
0110
0000
1001
0000
1000
0010
,
0001
0010
1000
0000
0220
0000
0330
0000
,
1001
0000
0110
0000
1001
0000
0001
0010
,
1000
0010
0001
0000
0110
0000
0100
0001
,
0010
0000
0011
0010
0001
0000
1010
0000
,
0100
0001
1000
0001
0010
0100
1000
0001
,
1000
0010
0100
0010
0100
0001
1000
0001
,
0010
0100
0010
0001
1000
0010
0100
0000
,
1001
1000
0100
0010
0001
1000
0010
0100
,
1001
0100
0010
0001
1000
0010
0100
0001
,
1001
0100
1000
0100
0001
0010
1000
0010
,
1001
0000
0000
0000
;

//---------------dance-single - ----------------
#NOTES:
     dance-single:
     :
     Medium:
     9:
     0.478,0.512,0.000,0.171,0.000:
0000
0000
0000
0000
,
0000
0000
0000
0000
,
0000
0000
0000
0000
,
0000
0000
0000
0000
,
1000
0001
1000
0001
,
0100
0010
0100
0010
,
1000
0001
1000
0000
0001
1000
0001
0000
,
0100
0010
0100
0010
0000
0000
0100
0000
,
0010
0000
0000
0010
0000
0000
0010
0000
,
0100
0000
0000
0100
0000
0000
0100
0000
,
0001
0000
1000
0000
0100
0000
1000
0001
,
0000
0100
0001
0000
1000
0000
0001
0000
,
1000
0000
0010
0000
0100
0000
0001
1000
,
0000
0100
1000
0000
0001
0000
1000
0000
,
0010
0000
0100
0000
0001
0000
1000
0010
,
0000
1000
0001
0000
0100
0000
0010
0000
,
0100
0000
0001
0000
1000
0000
0001
0010
,
0000
0001
1000
0010
0100
0000
0010
0000
,
0100
0000
0001
0000
0100
0000
0010
1000
,
0010
0100
0010
0000
1000
0000
0001
0000
,
0100
0000
0010
0000
0100
0000
0001
1000
,
0001
0100
0001
0000
1000
0000
0100
0000
,
0010
0000
0100
0000
1000
0000
0001
0100
,
0001
1000
0001
0000
1000
0000
0010
0000
,
0100
0000
0001
0000
0010
0000
0001
1000
,
0000
0001
1000
0002
2000
0000
3003
0000
,
0010
0000
0100
0000
0001
0000
0000
0100
,
0000
0100
0001
0000
2000
0000
3000
0000
,
0100
0000
0010
0000
0001
0000
0000
1000
,
0000
1000
0100
0000
0010
0000
0100
0000
,
2000
0000
0000
0001
3002
0000
0000
0000
,
0003
1000
0100
0010
,
0001
0000
0100
0000
0010
0000
1000
0100
,
0000
1000
0010
0000
0100
0000
0001
0000
,
0100
0000
0010
0000
1000
0000
0000
0010
,
0000
0010
1000
0000
0002
0000
0003
0000
,
0010
0000
0100
0000
1000
0000
0000
0001
,
0000
0001
0010
0000
0100
0000
0010
0000
,
0002
0000
0000
1000
2003
0000
0000
0000
,
3000
0001
0010
0100
,
1000
0000
0010
0000
0100
0000
0001
0010
,
0000
0001
0100
0000
0010
0000
1000
0000
,
0001
0000
0000
1000
0000
0000
0001
0000
,
0000
0100
0000
0000
0010
0000
1000
0000
,
0001
0000
0000
0010
0000
0000
0100
0000
,
0000
1000
0000
0000
0001
0000
0100
0000
,
0010
0000
0000
0100
0000
0000
0001
0000
,
0000
0010
0000
0000
1000
0000
0010
0000
,
0001
0000
0000
0100
0000
0000
0010
0000
,
0000
1000
0000
0001
0000
1000
0001
0000
,
0100
0000
0010
0000
1000
0000
0000
0100
,
0000
0100
0010
0000
0002
0000
0003
0000
,
1000
0000
0010
0000
0100
0000
0001
1000
,
0000
1000
0001
0000
0010
0000
0100
1000
,
0200
0000
0000
0010
0320
0000
0000
0000
,
0031
0100
0001
1000
,
0100
0000
0010
0000
0001
0000
0010
0100
,
0000
0100
1000
0000
0010
0000
0100
0000
,
0001
0000
1000
0000
0001
0100
0010
0100
,
0000
0001
0100
0000
0020
0000
0030
0000
,
1000
0000
0100
0000
0010
0001
0010
0100
,
0000
1000
0100
0000
0020
0000
0031
0100
,
0002
0000
0000
1000
2003
0000
0000
0000
,
3010
0100
0010
1000
,
0001
0000
0010
0100
0010
0000
0001
1000
,
0000
1000
0001
0000
0100
0010
0100
0000
,
0001
0000
0001
0010
0100
0010
0001
0000
,
1000
0000
1000
0100
0010
0100
1000
0000
,
0001
0100
0010
0100
0001
1000
0100
0010
,
0001
0000
0000
0000
;

//---------------dance-single - ----------------
#NOTES:
     dance-single:
     :
     Easy:
     7:
     0.392,0.433,0.354,0.000,0.000: // measure 1
0000
0000
0000
0000
,  // measure 2
0000
0000
0000
0000
,  // measure 3
0000
0000
0000
0000
,  // measure 4
0000
0000
0000
0000
,  // measure 5
1000
0000
0001
0000
,  // measure 6
1000
0000
0001
0000
,  // measure 7
1000
0100
0010
0001
,  // measure 8
0100
0010
1000
0000
,  // measure 9
0001
0000
0000
0001
0000
0000
0001
0000
,  // measure 10
1000
0000
0000
1000
0000
0000
1000
0000
,  // measure 11
0001
0100
0001
0010
,  // measure 12
0100
0100
1100
0000
,  // measure 13
1000
0010
0100
0001
,  // measure 14
0010
0010
0011
0000
,  // measure 15
0001
1000
0100
0010
,  // measure 16
0001
0001
1001
0000
,  // measure 17
1000
0001
0010
0100
,  // measure 18
1000
1000
1001
0000
,  // measure 19
1000
0100
0001
0100
,  // measure 20
1000
0010
0100
0001
,  // measure 21
0010
0100
1000
0100
,  // measure 22
0010
0001
0100
0000
,  // measure 23
0001
0100
1000
0100
,  // measure 24
0001
0010
0100
1000
,  // measure 25
0001
0100
0010
1000
,  // measure 26
0001
1000
0100
0000
,  // measure 27
0010
0010
0010
0000
,  // measure 28
0011
0011
0011
0000
,  // measure 29
0100
0100
0100
0000
,  // measure 30
1100
1100
1100
0000
,  // measure 31
0001
0100
0010
0000
,  // measure 32
1000
0100
0010
0000
,  // measure 33
0001
1000
0001
1000
,  // measure 34
0010
0010
0110
0000
,  // measure 35
1000
1000
1000
0000
,  // measure 36
1010
1010
1010
0000
,  // measure 37
0001
0001
0001
0000
,  // measure 38
0101
0101
0101
0000
,  // measure 39
0001
1000
0001
0000
,  // measure 40
1000
0001
1000
0000
,  // measure 41
0100
0010
0001
0100
,  // measure 42
0010
0010
0110
0000
,  // measure 43
1000
0000
0001
0000
,  // measure 44
1000
0000
0001
0000
,  // measure 45
0100
0000
0010
0000
,  // measure 46
0100
0000
0010
0000
,  // measure 47
1000
0000
0001
0000
,  // measure 48
1000
0000
0001
0000
,  // measure 49
0010
0000
0100
0000
,  // measure 50
0010
0000
0100
0000
,  // measure 51
1000
0100
1000
0100
,  // measure 52
1100
1100
1100
0000
,  // measure 53
0001
0100
0001
0100
,  // measure 54
0101
0101
0101
0000
,  // measure 55
1000
0100
0010
0000
,  // measure 56
0001
0100
0010
0000
,  // measure 57
1000
0100
0001
0100
,  // measure 58
1000
0010
0110
0000
,  // measure 59
0001
0100
0001
0100
,  // measure 60
0101
0101
0101
0000
,  // measure 61
1000
0010
1000
0010
,  // measure 62
1010
1010
1010
0000
,  // measure 63
0001
0010
0100
0000
,  // measure 64
1000
0100
0010
0000
,  // measure 65
0001
0010
1000
0010
,  // measure 66
0001
0100
1000
0100
,  // measure 67
0001
0010
0100
1000
,  // measure 68
0001
0100
0010
1000
,  // measure 69
0001
0100
1000
0100
,  // measure 70
0001
0000
0000
0000
;

//---------------dance-single - ----------------
#NOTES:
     dance-single:
     :
     Beginner:
     4:
     0.209,0.236,0.000,0.023,0.000: // measure 1
0000
0000
0000
0000
,  // measure 2
0000
0000
0000
0000
,  // measure 3
0000
0000
0000
0000
,  // measure 4
0000
0000
0000
0000
,  // measure 5
1000
0000
0000
0000
,  // measure 6
0001
0000
0000
0000
,  // measure 7
0100
0000
0100
0000
,  // measure 8
0100
0100
0100
0000
,  // measure 9
0002
0000
0003
0000
,  // measure 10
2000
0000
3000
0000
,  // measure 11
0001
0000
0100
0000
,  // measure 12
0001
0001
0001
0000
,  // measure 13
1000
0000
0100
0000
,  // measure 14
1000
1000
1000
0000
,  // measure 15
0001
0000
0000
0000
,  // measure 16
1000
0000
0000
0000
,  // measure 17
0010
0000
0010
0000
,  // measure 18
0010
0010
0010
0000
,  // measure 19
0100
0000
0000
0000
,  // measure 20
0100
0000
0000
0000
,  // measure 21
0001
0000
0000
0000
,  // measure 22
0001
0000
0000
0000
,  // measure 23
1000
0000
0000
0000
,  // measure 24
1000
1000
1000
0000
,  // measure 25
0001
0000
0000
0000
,  // measure 26
0001
0001
0001
0000
,  // measure 27
1000
0000
1000
0000
,  // measure 28
0001
0000
0001
0000
,  // measure 29
1000
0000
0001
0000
,  // measure 30
1000
1000
1000
0000
,  // measure 31
0100
0000
0100
0000
,  // measure 32
0010
0000
0010
0000
,  // measure 33
0100
0000
0100
0000
,  // measure 34
0010
0010
0010
0000
,  // measure 35
0001
0000
0001
0000
,  // measure 36
1000
0000
1000
0000
,  // measure 37
0001
0000
1000
0000
,  // measure 38
0001
0001
0001
0000
,  // measure 39
0100
0000
0100
0000
,  // measure 40
0010
0000
0010
0000
,  // measure 41
0100
0000
0010
0000
,  // measure 42
0100
0100
0100
0000
,  // measure 43
0010
0000
0000
0000
,  // measure 44
1000
0000
0000
0000
,  // measure 45
0100
0000
0000
0000
,  // measure 46
0001
0000
0000
0000
,  // measure 47
0010
0000
0000
0000
,  // measure 48
1000
0000
0000
0000
,  // measure 49
0100
0000
0000
0000
,  // measure 50
0001
0000
0010
0000
,  // measure 51
1000
0000
1000
0000
,  // measure 52
0100
0000
0100
0000
,  // measure 53
1000
0000
0100
0000
,  // measure 54
1000
1000
1000
0000
,  // measure 55
0001
0000
0001
0000
,  // measure 56
0100
0000
0100
0000
,  // measure 57
0001
0000
0100
0000
,  // measure 58
0001
0001
0001
0000
,  // measure 59
1000
0000
1000
0000
,  // measure 60
0010
0000
0010
0000
,  // measure 61
1000
0000
0010
0000
,  // measure 62
1000
1000
1000
0000
,  // measure 63
0001
0000
0001
0000
,  // measure 64
0010
0000
0010
0000
,  // measure 65
0001
0000
0010
0000
,  // measure 66
0001
0001
0001
0000
,  // measure 67
1000
0000
0001
0000
,  // measure 68
0100
0000
0010
0000
,  // measure 69
0100
0000
1000
0000
,  // measure 70
0001
0000
0000
0000
;
