#TITLE:Gymnopedie 009;
#SUBTITLE:;
#ARTIST:Studio Bongo Mango feat. Junko Wada (BE THE VOICE);
#TITLETRANSLIT:;
#SUBTITLETRANSLIT:;
#ARTISTTRANSLIT:;
#CREDIT:;
#BANNER:gymnopedie 009.png;
#BACKGROUND:gymnopedie 009-bg.jpg;
#LYRICSPATH:;
#CDTITLE:cchiez.png;
#MUSIC:Gymnopedie 009.mp3;
#OFFSET:-0.220;
#SAMPLESTART:50.214;
#SAMPLELENGTH:15.000;
#SELECTABLE:YES;
#BPMS:0.000=200.000;
#STOPS:;
#BGCHANGES:;

//---------------dance-single - ----------------
#NOTES:
     dance-single:
     :
     Challenge:
     10:
     0.509,0.630,0.312,0.374,0.000:
0000
0000
0000
0000
,
0000
0000
0000
0000
,
0000
0000
0000
0000
,
0000
0000
0000
0000
,
0000
0000
0000
0000
,
0000
0000
0000
0000
,
0000
0000
0000
0000
,
0000
0000
0000
0000
,
0001
0000
0000
0100
,
0010
0000
0000
0010
,
0001
0000
0000
0000
,
0020
0000
0030
0000
,
1000
0000
0000
1001
0000
0000
0001
0000
,
0010
0000
0000
0101
0000
0000
0100
0000
,
1000
0000
0000
0110
0000
0000
0001
0000
,
0020
0000
0030
0000
,
0001
0000
0000
1000
0000
0000
1000
0000
,
0001
0000
0000
1000
0000
0000
0010
0000
,
0002
0000
0000
0000
,
0200
0000
0000
0300
,
2000
0000
0000
3003
,
0010
0000
1000
0001
0010
0100
1000
0000
,
1001
0000
0110
0000
0001
0010
0001
0100
,
0010
0000
1100
0000
0010
0100
0001
1000
,
0001
1100
1010
0110
,
2000
3100
0002
0013
,
0200
0310
2000
3001
,
1000
0001
1000
0001
,
0010
0100
0010
0100
0010
0100
0110
0000
,
1000
0000
0001
0010
0100
0000
1000
0001
,
0010
0000
1000
0100
0020
0000
2030
0000
,
3100
0000
0010
1000
0010
0000
0010
0001
,
0010
0000
1000
0100
0020
0000
2030
0000
,
3001
0000
0100
0010
1000
0000
0001
0010
,
0100
0000
1000
0100
0002
0000
0013
0000
,
0101
0000
0000
0110
0000
0000
2002
0000
,
0000
3003
0000
0000
,
1000
0000
0001
0010
0001
0000
1000
0001
,
0010
0000
1000
0100
0002
0000
0023
0000
,
0130
0000
1000
0100
0001
0000
1000
0100
,
1000
0000
0001
0010
2000
0000
3020
0000
,
0130
0000
1000
0001
0010
0000
1000
0001
,
0100
0000
0010
0100
2000
0000
3001
0000
,
1000
0001
1000
0001
1000
0001
1000
0001
,
0010
0100
0010
0100
0010
0100
0010
0100
,
0001
0000
1000
0001
0000
0001
0100
0000
,
1001
0000
0010
0100
0000
0100
0010
0000
,
0001
0000
1000
0001
0000
0001
1000
0000
,
1001
0000
0001
0010
0002
0000
0103
0010
,
1000
0000
0010
0100
0000
0100
1000
0000
,
0001
0000
0100
0010
0000
0001
1000
0000
,
0101
0000
1000
0001
0000
0001
1000
0000
,
0110
0000
1000
0100
0020
0000
0032
0100
,
1003
0000
0000
1001
0000
0000
0010
0000
,
1000
0000
0000
0101
0000
0000
0001
0000
,
1000
0000
0000
0110
0000
0000
0001
0000
,
1000
0000
0100
0010
2000
0000
3100
0010
,
0001
0000
1000
0001
0000
0001
1000
0000
,
0010
0000
0100
1000
0000
1000
0100
0000
,
0001
0000
1000
0001
0000
0001
1000
0000
,
0022
0033
0000
0000
,
2000
0000
0001
0000
,
0001
0000
3001
0000
,
0020
0000
0100
0000
,
0100
0000
0130
0000
,
2000
0000
3001
0000
,
0002
0000
1003
0000
,
0200
0000
0320
0000
,
0130
0001
0010
0110
,
0002
0000
0013
0000
,
2000
0000
3100
0000
,
0010
0000
0000
0110
0000
0000
1000
0000
,
0001
0000
0000
0110
0000
0000
1000
0000
,
0022
0000
0000
0030
,
0200
0000
0000
0303
,
1001
1001
2002
0000
3003
0000
0000
0000
,
0110
0110
0220
0000
0330
0000
0000
0000
,
1000
0000
0001
1000
0000
1000
0001
0000
,
0010
0000
0100
0010
0000
0010
0100
0000
,
1000
0000
0001
0010
0000
0010
0001
0000
,
1000
0000
0001
1000
0000
1000
0001
0000
,
0020
0000
0130
0000
,
2000
0000
3001
0000
,
0020
0000
0031
0000
,
1000
0000
0001
1000
0200
0000
0310
0001
,
1000
0000
0000
0110
0000
0000
0001
0000
,
1000
0000
0000
0101
0000
0000
1000
0000
,
0010
0000
0000
1001
0000
0000
0100
0000
,
0010
0000
0001
1000
0020
0000
0130
0001
,
1000
0000
0001
0010
0000
0010
0001
0000
,
1000
0000
0001
1000
0000
1000
0001
0000
,
0010
0100
0010
0100
0010
0100
0010
0100
,
1000
0100
1000
0100
1000
0100
1000
0100
,
0001
1000
0000
1000
0001
1000
0000
0000
,
1000
0100
0000
0001
1000
0100
0000
0000
,
0100
1000
0000
0001
0010
0001
0000
0000
,
1000
0001
0000
0001
1000
0000
0101
0000
,
1010
0000
0000
1001
0000
0000
0010
0000
,
0100
0000
0000
0101
0000
0000
1000
0000
,
0001
0000
0000
1001
0000
0000
0010
0000
,
0100
0000
1000
0001
0020
0000
0130
0001
,
1001
0000
0000
0000
;
