#TITLE:トルコ行進曲;
#SUBTITLE:;
#ARTIST:T.M. Orchestra;
#TITLETRANSLIT:Turkey Koushinkyoku;
#SUBTITLETRANSLIT:;
#ARTISTTRANSLIT:;
#GENRE:;
#CREDIT:;
#MENUCOLOR:;
#METERTYPE:DDR;
#BANNER:Turkey Koushinkyoku.png;
#BACKGROUND:Turkey Koushinkyoku-bg.png;
#LYRICSPATH:;
#CDTITLE:cdtitle.png;
#MUSIC:Turkey Koushinkyoku.mp3;
#OFFSET:-0.037;
#SAMPLESTART:62.220;
#SAMPLELENGTH:14.000;
#SELECTABLE:YES;
#LISTSORT:;
#BPMS:0.000=150.000,40.000=151.000,44.000=152.000,48.000=153.000,52.000=154.000,56.000=155.000,60.000=156.000,64.000=157.000,68.000=158.000,72.000=159.000,76.000=160.000,80.000=161.000,84.000=162.000,88.000=163.000,92.000=164.000,96.000=165.000,100.000=166.000,104.000=167.000,108.000=168.000,112.000=169.000,116.000=170.000,120.000=171.000,124.000=172.000,128.000=173.000,132.000=174.000,168.000=175.000,172.000=176.000,176.000=177.000,180.000=178.000,184.000=179.000,188.000=180.000,192.000=181.000,196.000=182.000,200.000=183.000,204.000=184.000,208.000=185.000,212.000=186.000,216.000=187.000,220.000=188.000,224.000=189.000,228.000=190.000,232.000=191.000,236.000=192.000,240.000=193.000,244.000=194.000,248.000=195.000,252.000=196.000,256.000=197.000,260.000=198.000,264.000=199.000;
#STOPS:;
#BGCHANGES:;
#ATTACKS:;

//---------------dance-single - ----------------
#NOTES:
     dance-single:
     :
     Hard:
     12:
     0.708,0.663,0.262,0.302,0.116: // measure 1
0000
0000
0000
0000
,  // measure 2
0000
0000
0000
0000
,  // measure 3
0000
0000
0000
0000
,  // measure 4
0000
0000
0000
0000
,  // measure 5
0002
0203
0320
2030
,  // measure 6
3002
0000
0013
0000
1001
1001
0200
0000
,  // measure 7
1300
0000
0001
0010
0100
0000
0001
0010
,  // measure 8
0100
0010
0001
0010
0100
0000
1000
0100
,  // measure 9
0010
0100
1000
0100
0010
0100
1000
0001
,  // measure 10
0100
0001
1000
0010
0100
0000
0001
0010
,  // measure 11
0100
0000
1000
0100
0010
0000
0001
0010
,  // measure 12
0100
0010
0100
0010
0100
0000
1000
0001
,  // measure 13
0100
0010
0100
0001
1000
0100
0010
0100
,  // measure 14
1000
0001
0100
0010
0100
0000
0001
0010
,  // measure 15
0100
0100
0100
1000
0010
0000
1000
0010
,  // measure 16
0100
0100
0100
0001
0010
0000
0100
1000
,  // measure 17
0001
0001
0001
0100
0010
0000
0100
0001
,  // measure 18
0010
0010
0010
0100
1000
0000
0001
0100
,  // measure 19
1000
0000
0001
0100
1000
0000
0001
0100
,  // measure 20
1000
0100
0001
0100
1000
0000
0001
0010
,  // measure 21
0100
1000
0001
0100
0010
1000
0100
0001
,  // measure 22
0100
0000
1000
0001
0200
0000
0310
1000
,  // measure 23
1010
0000
0010
1000
1010
0100
0001
0010
,  // measure 24
0100
1000
0001
0100
0010
0100
0001
0010
,  // measure 25
0011
0000
0100
1000
1100
0001
0100
0010
,  // measure 26
0100
0001
0010
0100
1000
0000
0001
0100
,  // measure 27
0101
0000
1000
0100
1100
0010
0100
1000
,  // measure 28
0001
0100
0010
0100
0001
0010
0100
1000
,  // measure 29
1100
0000
0001
0100
0101
0010
0100
0001
,  // measure 30
0010
0100
1000
0001
0100
0000
0001
0010
,  // measure 31
0100
0000
0000
0100
1000
0000
0000
1000
0010
0000
0000
0010
0100
0000
0000
0100
,  // measure 32
0001
0000
0000
0001
0010
0000
0000
0010
0100
0000
0000
0100
1000
0000
0100
0000
,  // measure 33
0010
0000
0000
0010
0001
0000
0000
0001
0100
0000
0000
0100
1000
0000
0000
1000
,  // measure 34
0100
0000
0000
0100
0001
0000
0010
0000
0100
0000
0000
0000
1000
0000
0001
0000
,  // measure 35
0100
0100
1000
0001
0100
0100
1000
0001
,  // measure 36
0010
0010
1000
0001
0010
0100
1000
0001
,  // measure 37
0100
0100
0010
0001
0100
0100
1000
0010
,  // measure 38
0100
0100
1000
0001
0100
0000
0010
1000
,  // measure 39
0100
0000
0000
0100
1000
0000
0000
1000
0001
0000
0000
0001
0010
0000
0000
0010
,  // measure 40
1000
0000
0000
1000
0010
0000
0000
0010
0001
0000
0000
0001
0100
0000
0000
0100
,  // measure 41
0010
0100
0010
0100
0010
0100
0010
0100
,  // measure 42
0001
0000
1000
0000
0001
1000
0001
1000
0001
0000
0000
0000
1000
0000
0100
0000
,  // measure 43
0010
0000
1000
0100
0010
0000
1000
0001
,  // measure 44
0100
0001
0100
0001
0100
0000
0010
1000
,  // measure 45
0100
0010
0001
0100
0010
1000
0100
0010
,  // measure 46
0001
0000
1000
0100
1100
0000
0001
0001
,  // measure 47
0100
0000
1000
1000
0100
0010
0100
1000
,  // measure 48
0001
0001
0100
0010
0010
0100
0001
0001
,  // measure 49
0010
0000
1000
1000
0100
0010
0100
0100
,  // measure 50
1000
0001
0001
0010
0100
0000
0100
0100
,  // measure 51
1000
0000
1000
1000
0100
0010
0100
0100
,  // measure 52
1000
0010
0010
0100
0001
0010
0100
0100
,  // measure 53
1000
0000
0001
0001
0100
0001
0010
0010
,  // measure 54
0100
0000
1000
0000
0100
0000
0010
0000
0001
0000
0000
0000
1000
0000
0000
0001
,  // measure 55
2000
3000
2002
3003
,  // measure 56
1000
0100
0001
0100
2000
0000
3000
0000
,  // measure 57
0001
0001
0001
1000
0200
0000
0300
0010
,  // measure 58
2200
3300
0022
0033
,  // measure 59
0001
0010
1000
0010
0002
0000
0003
0000
,  // measure 60
2002
0000
3003
0000
1000
1000
1000
0001
,  // measure 61
0100
0001
0100
0001
1000
0100
1000
0100
,  // measure 62
0010
0001
0010
0001
1000
0010
1000
0010
,  // measure 63
0100
0001
0010
0100
1000
0001
0100
0010
,  // measure 64
1000
0001
1000
0001
2002
0000
3003
0000
,  // measure 65
0220
0000
0330
0000
0001
0100
1000
0100
,  // measure 66
0002
0003
2002
3003
,  // measure 67
0010
0100
0010
0100
0220
0000
0330
0001
,  // measure 68
0101
0000
0000
1000
1100
0000
0000
0001
,  // measure 69
1001
1000
1010
0010
0110
0000
1001
0000
,  // measure 70
0220
0330
0000
0000
;

//---------------dance-single - ----------------
#NOTES:
     dance-single:
     :
     Medium:
     8:
     0.364,0.452,0.181,0.181,0.000: // measure 1
0000
0000
0000
0000
,  // measure 2
0000
0000
0000
0000
,  // measure 3
0000
0000
0000
0000
,  // measure 4
0000
0000
0000
0000
,  // measure 5
1000
0100
0010
0001
,  // measure 6
1000
0000
0100
0000
0010
0010
0000
0000
,  // measure 7
0001
2000
3100
0020
,  // measure 8
0031
0100
0001
0100
0001
0000
1000
0000
,  // measure 9
0100
0001
0100
1000
,  // measure 10
0100
0001
0100
0000
,  // measure 11
0010
0200
0301
0020
,  // measure 12
0130
1000
0100
1000
0100
0000
1000
0000
,  // measure 13
0100
0001
0100
1000
,  // measure 14
0010
0001
0010
0000
,  // measure 15
1000
0000
0001
0010
0001
0000
0000
0000
,  // measure 16
0100
0000
0001
0010
0001
0000
0000
0000
,  // measure 17
0001
0000
1000
0100
1000
0000
0000
0000
,  // measure 18
0010
0000
1000
0100
1000
0000
0000
0000
,  // measure 19
0001
1000
0001
1000
,  // measure 20
0010
0100
1000
0100
0010
0000
0000
0000
,  // measure 21
1000
0100
0001
0010
,  // measure 22
1000
0110
1001
0000
,  // measure 23
0100
0010
0100
0010
,  // measure 24
0100
0100
0010
0000
,  // measure 25
0100
0010
0100
0010
,  // measure 26
1000
1000
0001
0000
,  // measure 27
0001
1000
0001
1000
,  // measure 28
0010
0010
0100
0000
,  // measure 29
0001
0010
0001
0010
,  // measure 30
0100
0100
1000
0000
,  // measure 31
0002
0010
0010
0013
,  // measure 32
2000
0100
0100
3100
,  // measure 33
2000
0010
0010
3010
,  // measure 34
0002
0100
0100
0003
,  // measure 35
1000
0100
0010
0000
,  // measure 36
1000
0100
0010
0000
,  // measure 37
0001
0010
0100
0000
,  // measure 38
0001
0010
0100
0000
,  // measure 39
1000
0001
1000
0001
,  // measure 40
0010
0100
0010
0100
,  // measure 41
1000
1000
1000
1000
,  // measure 42
0001
0001
0001
0000
,  // measure 43
1100
0000
0101
0000
,  // measure 44
0001
1000
1001
0000
,  // measure 45
0010
1000
0001
0010
,  // measure 46
0100
0100
0100
0000
,  // measure 47
1001
0000
0110
0000
,  // measure 48
0010
0010
0010
0000
,  // measure 49
1010
0000
0101
0000
,  // measure 50
0100
0100
0100
0000
,  // measure 51
0011
0000
1100
0000
,  // measure 52
1000
1000
1000
0000
,  // measure 53
0110
0000
1001
0000
,  // measure 54
0001
0001
0001
0000
,  // measure 55
0020
0030
0020
0030
,  // measure 56
1000
0100
0001
0000
,  // measure 57
0010
0010
0010
0000
,  // measure 58
0200
0300
0200
0300
,  // measure 59
0001
0100
1000
0000
,  // measure 60
0200
0300
0100
0100
,  // measure 61
0100
0000
2000
3000
,  // measure 62
2000
3000
0001
0100
,  // measure 63
1000
0000
1000
1000
,  // measure 64
1000
0000
0002
0003
,  // measure 65
0002
0003
0001
0100
,  // measure 66
1000
0000
0002
0003
,  // measure 67
0001
0001
0001
0000
,  // measure 68
1100
0000
0011
0000
,  // measure 69
0010
0100
0110
1001
,  // measure 70
0110
0000
0000
0000
;

//---------------dance-single - ----------------
#NOTES:
     dance-single:
     :
     Easy:
     5:
     0.239,0.278,0.020,0.000,0.000:
0000
0000
0000
0000
,
0000
0000
0000
0000
,
0000
0000
0000
0000
,
0000
0000
0000
0000
,
1000
0000
0001
0000
,
1000
0000
1001
0000
,
1000
0000
0001
0000
,
1000
1000
1000
0000
,
0001
0000
1000
0000
,
0001
0000
1000
0000
,
0010
0000
0100
0000
,
0010
0010
0010
0000
,
0100
0000
0010
0000
,
0100
0000
0010
0000
,
1000
1000
1000
0000
,
0001
0001
0001
0000
,
0100
0100
0100
0000
,
0010
0010
0010
0000
,
1000
0000
0100
0000
,
0010
0010
0010
0000
,
0001
0100
0010
1000
,
0001
0001
0001
0000
,
0010
0000
0100
0000
,
0010
0001
0010
0000
,
0100
0000
0010
0000
,
0100
1000
0100
0000
,
1000
0000
0001
0000
,
0100
0010
0100
0000
,
0001
0000
1000
0000
,
0100
0010
0100
0000
,
1000
0000
0100
0000
,
0010
0000
0001
0000
,
1000
0000
0010
0000
,
0100
0000
0001
0000
,
1000
1000
1000
0000
,
0001
0001
0001
0000
,
0010
0010
0010
0000
,
0100
0100
0100
0000
,
1000
0000
0010
0000
,
0001
0000
0100
0000
,
1000
0000
0010
0000
,
0001
0000
0100
0000
,
1000
0000
0100
0000
,
0010
0010
0010
0000
,
0001
0000
0100
0000
,
0010
0010
0010
0000
,
1000
0000
0001
0000
,
0100
0000
0010
0000
,
1000
0000
0100
0000
,
0010
0000
0001
0000
,
1000
0000
0100
0000
,
1000
1000
1000
0000
,
0001
0000
0100
0000
,
0001
0001
0001
0000
,
1000
0000
0001
0000
,
1000
0001
1000
0000
,
0001
1000
0001
0000
,
0001
0000
1000
0000
,
0001
1000
0001
0000
,
1000
0000
0100
0010
,
0100
1000
1000
0000
,
0001
0000
0001
0100
,
0001
0000
1000
0100
,
1000
0000
0010
0000
,
0010
0000
0100
0001
,
0100
0000
0010
0000
,
1000
0100
1000
0000
,
0001
0000
1000
0000
,
0010
0010
0010
0010
,
0110
0000
0000
0000
;

//---------------dance-single - ----------------
#NOTES:
     dance-single:
     :
     Beginner:
     1:
     0.119,0.174,0.000,0.060,0.000:
0000
0000
0000
0000
,
0000
0000
0000
0000
,
0000
0000
0000
0000
,
0000
0000
0000
0000
,
0001
0000
0000
0000
,
1000
0000
0000
0000
,
0001
0000
0000
0000
,
0001
0000
0001
0000
,
0001
0000
0000
0000
,
1000
0000
0000
0000
,
0001
0000
0000
0000
,
1000
0000
1000
0000
,
1000
0000
0000
0000
,
0001
0000
0000
0000
,
1000
0000
1000
0000
,
0001
0000
0001
0000
,
1000
0000
1000
0000
,
0001
0000
0001
0000
,
1000
0000
0000
0000
,
0001
0000
0001
0000
,
0001
0000
0000
0000
,
1000
0000
1000
0000
,
1000
0000
0000
0000
,
0001
0000
0000
0000
,
1000
0000
0000
0000
,
0001
0000
0000
0000
,
1000
0000
0000
0000
,
0001
0000
0000
0000
,
1000
0000
0000
0000
,
0001
0000
0000
0000
,
2000
0000
0000
3000
,
0000
0000
0000
0000
,
0002
0000
0000
0003
,
0000
0000
0000
0000
,
2000
0000
0000
3000
,
0000
0000
0000
0000
,
0002
0000
0000
0003
,
0000
0000
0000
0000
,
2000
0000
0000
3000
,
0000
0000
0000
0000
,
0002
0000
0000
0003
,
0000
0000
0000
0000
,
1000
0000
1000
0000
,
0001
0000
0000
0000
,
0001
0000
0001
0000
,
1000
0000
0000
0000
,
1000
0000
0000
0000
,
0001
0000
0001
0000
,
1000
0000
0000
0000
,
0001
0000
0001
0000
,
1000
0000
0000
0000
,
0001
0000
0001
0000
,
1000
0000
0000
0000
,
0001
0000
0001
0000
,
1000
0000
0000
0000
,
0001
0000
0000
0000
,
1000
0000
0000
0000
,
0001
0000
0000
0000
,
1000
0000
0000
0000
,
1000
0000
0000
0000
,
0001
0000
0001
0000
,
0000
0000
1000
0000
,
0000
0000
0001
0000
,
0000
0000
1000
0000
,
0000
0000
0001
0000
,
0000
0000
1000
0000
,
0000
0000
1000
0000
,
0001
0000
0001
0000
,
0001
0000
0001
0000
,
0001
0000
0000
0000
;

//---------------dance-single - ----------------
#NOTES:
     dance-single:
     :
     Challenge:
     16:
     0.885,1.000,0.645,0.151,0.519: // measure 1
0000
0000
0000
0000
,  // measure 2
0000
0000
0000
0000
,  // measure 3
0000
0000
0000
0000
,  // measure 4
0000
0000
0000
0000
,  // measure 5
0001
0010
0100
1000
,  // measure 6
0001
0000
0000
0000
0010
0000
0000
0000
0100
0000
0100
0000
0100
0000
1000
0100
,  // measure 7
1000
0000
0000
0000
0001
0000
0100
0001
0100
0000
0000
0000
0010
0000
1000
0100
,  // measure 8
1000
0000
0001
0100
0001
0000
1000
0100
1000
0000
0000
0000
0001
0000
0010
0000
,  // measure 9
0011
0000
1000
0100
1100
0000
0010
0100
,  // measure 10
0110
0000
0000
0000
1000
0000
0001
0000
1001
0000
0000
0000
0010
0000
1000
0100
,  // measure 11
1000
0000
0000
0000
0001
0000
0100
0010
0100
0000
0000
0000
0001
0000
1000
0100
,  // measure 12
1000
0000
0001
0010
0001
0000
1000
0010
1000
0000
0000
0000
0001
0000
0010
0000
,  // measure 13
0011
0000
1000
0100
1100
0000
0010
0100
,  // measure 14
0110
0000
0001
1000
1001
0000
1000
1000
,  // measure 15
0100
0000
0100
0000
0010
0001
0010
0001
0010
0000
0000
0000
0001
0000
0001
0000
,  // measure 16
0100
0000
0100
0000
0010
1000
0010
1000
0010
0000
0000
0000
0100
0000
0100
0000
,  // measure 17
0010
0000
0010
0000
1000
0001
1000
0001
1000
0000
0000
0000
0100
0000
0100
0000
,  // measure 18
0010
0000
0010
0000
0001
1000
0001
1000
0001
0000
0000
0000
1000
0000
0001
0100
,  // measure 19
0010
0000
0000
0000
0001
0000
1000
0100
0010
0000
0000
0000
1000
0000
0001
0010
,  // measure 20
0100
0000
1000
0010
0100
0000
0001
0010
0100
0000
0000
0000
1000
0000
0100
0000
,  // measure 21
0001
0100
1000
0010
0001
0010
1000
0100
,  // measure 22
1001
0000
0110
0000
1001
0000
0001
1000
,  // measure 23
1100
0000
1000
0001
0101
0100
0001
0010
,  // measure 24
0110
0100
1000
0001
0100
0010
0100
0001
,  // measure 25
0101
0000
0100
0010
0110
0100
0001
1000
,  // measure 26
1100
0100
0010
0001
1001
0000
1000
0100
,  // measure 27
1100
0000
0001
0100
0101
0001
1000
0100
,  // measure 28
0110
0010
0100
1000
1100
0100
0001
0100
,  // measure 29
1100
0000
0001
0100
0101
0001
1000
0100
,  // measure 30
1100
1000
0010
0100
1001
0000
1000
0001
,  // measure 31
1000
0000
0001
0100
0001
0100
0001
0100
0001
0000
1000
0010
1000
0010
1000
0010
,  // measure 32
1000
0000
0001
0100
0001
0100
0010
0100
0010
0000
1000
0100
1000
0100
1000
0010
,  // measure 33
0100
0000
0010
1000
0010
1000
0100
1000
0100
0000
0010
0001
0010
0001
0100
0001
,  // measure 34
0100
0000
0001
0010
0001
1000
0001
1000
0100
0000
0000
0000
0001
0000
1000
0000
,  // measure 35
0001
0100
0001
0100
0001
0000
0010
0000
0100
0000
1000
0000
0001
0000
0100
0000
,  // measure 36
0010
1000
0010
1000
0010
0000
0100
0000
0001
0000
0010
0000
0100
0000
1000
0000
,  // measure 37
0001
0100
0001
0100
0001
0000
1000
0000
0100
0000
0010
0000
0100
0000
1000
0000
,  // measure 38
0001
0100
0001
0100
0010
1000
0010
1000
0200
0000
0000
0000
0310
0000
0001
0000
,  // measure 39
0100
0000
0010
0100
0001
0100
0010
0100
0001
0000
0010
0100
1000
0100
0010
0100
,  // measure 40
1000
0000
0001
0100
0010
0100
0001
0100
0010
0000
1000
0100
1000
0010
0100
0001
,  // measure 41
1000
0001
1000
0001
1000
0001
1000
0001
1000
0000
0001
0100
0001
0000
1000
0100
,  // measure 42
1000
0000
0001
0010
0100
0000
1000
0001
1000
0000
0000
0000
0001
0100
0001
0100
,  // measure 43
0001
0000
0000
0000
1000
0100
1000
0100
1000
0000
0000
0000
0001
0100
0001
0100
,  // measure 44
0001
0010
0100
0010
0001
0010
0100
0010
0001
0000
0000
0000
1000
0000
0100
0000
,  // measure 45
0010
0100
1000
0001
0100
0010
1000
0001
,  // measure 46
1000
0000
0000
0000
0001
1000
0001
1000
0001
0000
0000
0000
1000
0000
0100
0000
,  // measure 47
0110
0000
0010
0100
1100
1000
0001
0100
,  // measure 48
0101
0001
0010
0100
1100
1000
0001
0100
,  // measure 49
0110
0000
0010
0100
0110
0010
1000
0001
,  // measure 50
0101
0100
0001
0010
0110
0000
0100
1000
,  // measure 51
1100
0000
0001
0100
0101
0001
0010
0100
,  // measure 52
1100
1000
0001
0100
0110
0010
1000
0010
,  // measure 53
0110
0000
0100
0001
0101
0100
0001
0100
,  // measure 54
0110
0000
0010
0000
1000
0000
0010
0000
0110
0000
0000
0000
1001
0000
0000
0001
,  // measure 55
2000
3010
1002
0103
,  // measure 56
0010
0100
0001
0100
0010
0100
0001
0100
0020
0000
0000
0000
0130
0000
0000
0000
,  // measure 57
0010
0010
0010
0010
0110
0000
0001
1000
,  // measure 58
0120
0130
2001
3100
,  // measure 59
0001
1000
0100
1000
0001
1000
0100
1000
0002
0000
0000
0000
0103
0000
0000
0000
,  // measure 60
2001
0000
3010
0000
0100
0100
0100
0100
,  // measure 61
0110
1001
0120
1030
,  // measure 62
0210
0000
0000
0000
0301
0000
0000
0000
0010
0100
1000
0100
0010
0100
1000
0100
,  // measure 63
0020
0000
0031
0000
1000
1000
1000
1000
,  // measure 64
1001
0000
0001
1000
0120
0000
0031
0000
,  // measure 65
0210
0000
0000
0000
1300
0000
0000
0000
0100
1000
0001
1000
0100
1000
0001
1000
,  // measure 66
0200
0310
1002
0013
,  // measure 67
0001
0001
0001
0001
1001
0000
0010
0100
,  // measure 68
1001
0000
0100
0010
1001
0000
0010
0100
,  // measure 69
1001
0100
1001
0010
1001
0000
0110
0000
,  // measure 70
1001
0000
0000
0000
;
