#TITLE:Ristaccia;
#SUBTITLE:;
#ARTIST:Zektbach;
#TITLETRANSLIT:;
#SUBTITLETRANSLIT:;
#ARTISTTRANSLIT:;
#GENRE:;
#CREDIT:;
#MENUCOLOR:;
#METERTYPE:DDR;
#BANNER:Ristaccia.png;
#BACKGROUND:Ristaccia-bg.png;
#LYRICSPATH:;
#CDTITLE:;
#MUSIC:Ristaccia.mp3;
#OFFSET:-3.285;
#SAMPLESTART:114.280;
#SAMPLELENGTH:12.000;
#SELECTABLE:YES;
#LISTSORT:;
#DISPLAYBPM:160.000;
#BPMS:0.000=80.000,20.000=160.000;
#STOPS:;
#BGCHANGES:0.000=Ristaccia.avi=1.000=1=0=0,
99999=-nosongbg-=1.000=0=0=0 // don't automatically add -songbackground-
;
#ATTACKS:;

//---------------dance-single - ----------------
#NOTES:
     dance-single:
     :
     Hard:
     12:
     0.521,0.572,0.436,0.171,0.207:
0000
0000
0000
0000
,
0000
0000
0000
0000
,
0000
0000
0000
0000
,
0000
0000
0000
0000
,
0000
0000
0000
0000
,
1000
1000
0010
0010
,
0100
0100
0001
0001
,
0110
0110
1001
1001
,
0010
0010
0100
0100
,
0001
0001
0001
0001
0011
0000
1100
0000
,
0010
0000
0010
0000
1000
0000
1000
0001
,
0200
0000
0001
0000
0301
0000
0001
1000
,
0200
0000
1000
0000
1300
0000
0010
1000
,
0100
1100
0001
0101
,
0010
1000
0100
1000
0010
0000
0100
0000
,
0101
0101
1100
1100
,
0010
0100
0110
0110
,
2002
3003
0220
0330
,
1002
1003
2001
3001
,
0210
0001
0010
0301
,
0120
1000
0100
1030
,
2001
0010
0001
3010
,
1002
0100
1000
0103
,
1000
0000
0001
0000
,
0010
0100
1000
0000
,
0001
0001
1000
1000
,
0020
0000
0000
0100
0130
0000
0000
0000
,
1001
0010
1000
0100
0001
0100
1000
0010
,
0100
0001
0010
0001
0100
0010
1000
0100
,
0010
1000
0010
0001
0100
0010
1000
0100
,
0010
0100
1000
0001
0100
0010
0010
0000
,
1000
0100
1000
0100
0001
0100
0001
0100
,
1000
0010
0100
0001
0010
0100
1000
0001
,
0100
0010
0100
0010
1000
0010
1000
0010
,
0100
0001
0010
0100
1000
0001
0100
0010
,
1000
1000
0001
0001
1000
0010
0100
0010
,
0100
0100
0001
0001
1000
0001
0010
0100
,
0110
0000
0000
1100
0000
0000
0101
0000
,
0000
0110
0000
0000
0010
1000
0001
0100
,
0110
0000
0000
1010
0000
0000
0101
0000
,
0000
0110
0000
0000
1000
0001
0100
0010
,
0110
0000
0010
1010
0000
1000
1001
0000
,
0001
0000
0101
0000
0000
0000
0001
0000
1000
0010
1000
0000
0001
0100
0001
0000
,
1001
0000
0010
0110
0000
1000
1010
0000
,
0001
0000
0101
0000
0000
0000
0001
0000
1000
0100
1000
0000
0001
0100
0001
0000
,
1000
0000
0001
1000
0001
0000
0010
0000
,
0100
1000
0010
0000
0010
0100
0000
0100
,
0001
0000
1000
0100
0010
0000
0001
0000
,
0110
0000
1001
0000
0001
1000
0000
1000
,
0010
0000
0100
0001
0010
0000
0100
0000
,
1000
0000
0001
0000
1000
1100
0000
0001
,
0101
0000
0010
1000
0100
0000
1100
0000
,
0001
0000
1001
0000
0001
1001
0000
1000
,
0001
0001
0010
0000
0001
0100
0010
0000
,
1000
0010
0100
0001
0010
0100
1000
0000
,
0001
0001
0100
0000
0010
1000
0100
0000
,
1000
0100
0001
0100
1000
0010
0100
0000
,
0001
1000
0100
0000
1000
0001
0100
0000
,
0001
0000
0010
0000
0100
1000
0100
0000
0010
0000
0001
0000
0100
0000
0000
0000
,
0010
1000
0001
0000
0100
0001
0010
0000
,
0100
0000
1000
0000
0010
0100
0010
0000
1000
0000
0001
0000
0100
0000
0000
0000
,
0210
0000
0002
0303
,
0120
0000
2000
3030
,
2001
0000
0020
3030
,
1002
0000
0200
0303
,
1001
0000
0001
1000
0000
1000
0001
0000
0000
0001
0000
0010
,
0100
0000
0000
1000
0000
0010
0100
0000
0000
0001
0000
1000
,
0100
0000
0100
1000
0000
1000
0001
0000
0000
0100
0000
0001
,
0010
0000
0000
0100
0000
1000
0010
0000
0000
0010
0000
0100
,
0001
0000
0000
0001
0100
0010
1000
0000
0000
0110
0000
0000
,
1001
0000
0000
0010
1000
0001
0100
0000
0000
1010
0000
0000
,
0101
0000
0000
0001
0010
0100
1000
0000
0000
0001
0100
0010
,
1000
0000
0000
1000
0010
0100
0001
0100
0010
1000
0000
0000
,
0110
0000
0000
0010
1000
0001
0100
0000
0000
0101
0000
0000
,
1010
0000
0000
1000
0001
0010
0100
0000
0000
0110
0000
0000
,
1001
0000
0000
0001
0010
0001
0010
0000
0000
0100
1000
0100
,
1000
0000
0000
0010
0100
0010
0100
0001
1000
0001
0000
0000
,
1000
0000
1000
0000
1000
0000
0010
0000
0010
0000
0010
0000
,
0100
0000
0100
0000
0100
0001
0200
0000
0000
0301
0000
0000
,
0010
0000
0010
0000
0010
0000
0100
0000
0100
0000
0100
0000
,
1000
0000
1000
0000
1000
0001
0100
0010
1000
0100
0010
0001
,
0000
0000
0000
2002
,
0000
0000
0000
0000
,
0000
0000
0000
0000
,
0000
3003
0000
0000
;

//---------------dance-single - ----------------
#NOTES:
     dance-single:
     :
     Medium:
     9:
     0.349,0.355,0.107,0.200,0.057:
0000
0000
0000
0000
,
0000
0000
0000
0000
,
0000
0000
0000
0000
,
0000
0000
0000
0000
,
0000
0000
0000
0000
,
1000
1000
1000
1000
,
0001
0001
0001
0001
,
0020
0100
0100
0130
,
1000
1000
1000
1000
,
0010
0100
0010
0000
0100
0000
0100
0000
,
0001
0010
0100
1000
,
0002
0000
1003
0100
,
0020
0000
0031
0100
,
0020
0000
1030
0001
,
1000
0010
1000
0000
0001
0000
0100
0000
,
0010
0010
0100
0100
,
0001
0010
0100
0000
1000
0000
0010
0000
,
0110
0000
1001
0000
,
0001
0001
1000
1000
,
2002
0000
0000
3003
,
0220
0000
0000
0330
,
2020
0000
0000
3030
,
0202
0000
0000
0303
,
1000
0000
0001
0000
,
0100
0010
1000
0000
,
0001
0001
1000
0010
,
0100
0000
0000
0010
0010
0000
0000
0000
,
1000
0001
0100
0000
0001
1000
0100
0000
,
0010
0001
0100
0000
0010
1000
0100
0000
,
1000
1000
0001
0001
,
0100
0000
0000
0010
0010
0000
0000
0000
,
1000
0001
1000
0001
,
0010
0100
0010
0100
,
1000
0001
0100
0000
0001
1000
0100
0000
,
1000
0001
0100
0000
0001
1000
0100
0000
,
0010
0010
0001
0001
,
0100
0010
0100
0010
1000
0001
1000
0000
,
0001
0000
0000
0010
0000
0000
0100
0000
,
0000
1000
0000
0000
0001
0000
1001
0000
,
1000
0000
0000
0010
0000
0000
0100
0000
,
0000
0001
0000
0000
1000
0000
1010
0000
,
0010
0000
0010
0100
0000
0100
0001
0000
,
0001
0010
0000
0010
0100
0000
1100
0000
,
1000
0000
1000
0001
0000
0001
0100
0000
,
0100
0010
0000
0010
1000
0000
1001
0000
,
0002
0000
0000
1003
0200
0000
0000
0000
,
0310
0001
0100
0010
,
2000
0000
0000
3001
0200
0000
0000
0000
,
0301
0010
0100
1000
,
0020
0000
0000
0130
0002
0000
0000
0000
,
1003
0010
0100
0001
,
0200
0000
0000
0310
2000
0000
0001
0000
,
3001
0100
0010
1000
,
0001
0010
0001
0000
1000
0100
1000
0000
,
0001
1000
0001
1000
,
0010
0100
0010
0000
0100
0010
0100
0000
,
0010
1000
0001
0100
,
0001
0010
0100
0000
1000
0100
0010
0000
,
0001
1000
0010
0100
,
0010
1000
0100
0000
0010
0001
0100
0000
,
0001
0010
0100
1000
,
0001
0000
0011
0000
,
1000
0000
1100
0000
,
0010
0000
0110
0000
,
1000
0000
1001
0000
,
0001
0010
0100
1000
,
0001
0100
0010
1000
,
0001
1000
0001
1000
,
0010
0100
0010
0100
,
0001
0000
0000
1000
0000
0001
2000
0000
0000
3000
0000
0000
,
1000
0000
0000
0010
0000
1000
0020
0000
0000
0030
0000
0000
,
0100
0001
1000
0100
,
0010
0000
0000
0001
0000
0000
1000
0001
1000
0001
0000
0000
,
1000
0000
0000
0010
0000
0100
0020
0000
0000
0030
0000
0000
,
0100
0000
0000
0001
0000
0010
0002
0000
0000
0003
0000
0000
,
1000
0010
0100
0001
,
1000
0000
0000
0001
0000
0000
1000
0001
1000
0001
0000
0000
,
1000
0000
0000
0000
1000
0000
1000
0000
0000
0000
0010
0000
,
0010
0000
0000
0000
0100
0000
0200
0000
0000
0300
0000
0000
,
0001
0000
0000
0000
0001
0000
0001
0000
0000
0000
0010
0000
,
0010
0000
0000
0000
0100
0000
0100
0000
1000
0001
0000
2000
,
0000
0000
0000
3000
0000
0000
0220
0000
,
0000
0000
0000
0330
;

//---------------dance-single - ----------------
#NOTES:
     dance-single:
     :
     Easy:
     5:
     0.208,0.266,0.064,0.171,0.000:
0000
0000
0000
0000
,
0000
0000
0000
0000
,
0000
0000
0000
0000
,
0000
0000
0000
0000
,
0000
0000
0000
0000
,
1000
0000
0001
0000
,
1000
0000
0001
0000
,
0100
0000
0110
0000
,
0001
0000
0010
0000
,
0100
0000
1100
0000
,
1000
0000
0010
0000
,
0200
0000
0300
0000
,
0002
0000
0003
0000
,
2000
0000
3000
0000
,
0020
0000
0030
0000
,
1000
0001
1000
0001
,
0010
0100
0010
0100
,
2000
0000
0002
3003
,
1000
1000
0001
0001
,
2000
0000
0000
3000
,
0002
0000
0000
0003
,
0020
0000
0000
0030
,
0200
0000
0000
0300
,
1000
0000
0001
0000
,
1000
0010
0100
0000
,
0001
0000
0001
0000
,
0010
0100
1000
0000
,
0001
0000
0001
0000
,
0010
0010
0010
0000
,
0100
0000
0100
0000
,
1000
1000
1000
0000
,
0010
0100
0001
0100
,
0010
0000
1000
0000
,
0100
0010
0001
0010
,
0100
0000
1000
0000
,
0010
0000
0100
0000
,
0001
1000
0001
1000
,
0001
0000
0000
0001
0000
0000
0001
0000
,
0000
0001
0000
0000
0000
0000
0000
0000
,
1000
0000
0000
1000
0000
0000
1000
0000
,
0000
1000
0000
0000
0000
0000
0000
0000
,
0010
0000
0000
0010
0000
0000
0010
0000
,
0000
0010
0000
0000
0000
0000
0000
0000
,
0100
0000
0000
0100
0000
0000
0100
0000
,
0000
0100
0000
0000
0000
0000
0000
0000
,
2002
0000
0000
3003
,
0000
0000
0010
0000
0000
0010
0000
0000
,
0220
0000
0000
0330
,
0000
0000
1000
0000
0000
1000
0000
0000
,
2020
0000
0000
3030
,
0000
0000
0001
0000
0000
0001
0000
0000
,
0202
0000
0000
0303
,
0000
0000
1000
0000
0000
1000
0000
0000
,
1000
0010
1000
0000
,
0001
0100
0001
0000
,
1000
0100
0010
0000
,
0001
0010
0100
0000
,
1000
0010
0100
0000
,
0001
0100
0010
0000
,
1000
0100
0001
0000
,
0001
0100
1000
0000
,
0001
0000
0100
0000
,
0010
0000
1000
0000
,
0001
0000
0010
0000
,
0100
0000
1000
0000
,
2002
0000
0000
0000
,
3003
0000
0000
0000
,
0220
0000
0000
0000
,
0330
0000
0000
0000
,
1000
0001
1000
0000
,
0001
1000
0001
0000
,
1000
0010
0100
0001
,
1000
0010
0100
0001
,
1000
0100
1000
0000
,
0001
0100
0001
0000
,
1000
0010
0100
0001
,
1000
0100
0010
0001
,
1000
0000
0001
0000
,
1000
0000
0001
0000
,
0100
0000
0010
0000
,
0100
0000
0010
0000
,
0000
0000
0000
0220
,
0000
0000
0000
0330
;

//---------------dance-single - ----------------
#NOTES:
     dance-single:
     :
     Beginner:
     1:
     0.133,0.207,0.036,0.100,0.000: // measure 1
0000
0000
0000
0000
,  // measure 2
0000
0000
0000
0000
,  // measure 3
0000
0000
0000
0000
,  // measure 4
0000
0000
0000
0000
,  // measure 5
0000
0000
0000
0000
,  // measure 6
0000
0000
0000
0000
,  // measure 7
0000
0000
0000
0000
,  // measure 8
1000
0000
1000
0000
,  // measure 9
0001
0000
0001
0000
,  // measure 10
1000
0000
1000
0000
,  // measure 11
0001
0000
0001
0000
,  // measure 12
2000
0000
3000
0000
,  // measure 13
0200
0000
0300
0000
,  // measure 14
0020
0000
0030
0000
,  // measure 15
0002
0000
0003
0000
,  // measure 16
2000
0000
3000
0000
,  // measure 17
0020
0000
0030
0000
,  // measure 18
0200
0000
0300
0000
,  // measure 19
0002
0000
0003
0000
,  // measure 20
1000
0000
0000
0000
,  // measure 21
1000
0000
0000
0000
,  // measure 22
0001
0000
0000
0000
,  // measure 23
0001
0000
0000
0000
,  // measure 24
0100
0000
0100
0000
,  // measure 25
0100
0000
0000
0000
,  // measure 26
0010
0000
0010
0000
,  // measure 27
0010
0000
0000
0000
,  // measure 28
1000
0000
0100
0000
,  // measure 29
0010
0000
0000
0000
,  // measure 30
0001
0000
0010
0000
,  // measure 31
0100
0000
0000
0000
,  // measure 32
1000
0000
0010
0000
,  // measure 33
0100
0000
0001
0000
,  // measure 34
0010
0000
0100
0000
,  // measure 35
1000
0000
0001
0000
,  // measure 36
0100
0000
0000
0000
,  // measure 37
0010
0000
0000
0000
,  // measure 38
0110
0000
0000
0000
,  // measure 39
0000
0000
0000
0000
,  // measure 40
1001
0000
0000
0000
,  // measure 41
0000
0000
0000
0000
,  // measure 42
0110
0000
0000
0000
,  // measure 43
0000
0000
0000
0000
,  // measure 44
1001
0000
0000
0000
,  // measure 45
0000
0000
0000
0000
,  // measure 46
0010
0000
0010
0000
,  // measure 47
0000
0100
0000
0100
,  // measure 48
0100
0000
0100
0000
,  // measure 49
0000
0001
0000
0001
,  // measure 50
0001
0000
0001
0000
,  // measure 51
0000
1000
0000
1000
,  // measure 52
1000
0000
1000
0000
,  // measure 53
0000
0010
0000
0010
,  // measure 54
0010
0000
0010
0000
,  // measure 55
0010
0000
0000
0000
,  // measure 56
0100
0000
0100
0000
,  // measure 57
0100
0000
0000
0000
,  // measure 58
0001
0000
0001
0000
,  // measure 59
0001
0000
0000
0000
,  // measure 60
1000
0000
1000
0000
,  // measure 61
1000
0000
0000
0000
,  // measure 62
0200
0000
0300
0000
,  // measure 63
0020
0000
0030
0000
,  // measure 64
0002
0000
0003
0000
,  // measure 65
2000
0000
3000
0000
,  // measure 66
0100
0000
0000
0000
,  // measure 67
0010
0000
0000
0000
,  // measure 68
0001
0000
0000
0000
,  // measure 69
0010
0000
0000
0000
,  // measure 70
0100
0100
0100
0000
,  // measure 71
1000
1000
1000
0000
,  // measure 72
0010
0010
0010
0000
,  // measure 73
0100
0100
0100
0000
,  // measure 74
0001
0001
0001
0000
,  // measure 75
1000
1000
1000
0000
,  // measure 76
0001
0001
0001
0000
,  // measure 77
1000
1000
1000
0000
,  // measure 78
0100
0000
0000
0000
,  // measure 79
0010
0000
0000
0000
,  // measure 80
0001
0000
0000
0000
,  // measure 81
0100
0000
0000
0000
,  // measure 82
0000
0000
0000
2002
,  // measure 83
0000
0000
0000
3003
;
