#TITLE:ペパーミントは私の敵;
#SUBTITLE:;
#ARTIST:常盤ゆう;
#TITLETRANSLIT:Peppermint wa watashi no teki;
#SUBTITLETRANSLIT:;
#ARTISTTRANSLIT:Yuu Tokiwa;
#GENRE:;
#CREDIT:;
#MENUCOLOR:;
#METERTYPE:DDR;
#BANNER:Peppermint wa watashi no teki.png;
#BACKGROUND:Peppermint wa watashi no teki-bg.png;
#LYRICSPATH:;
#CDTITLE:cdtitle.png;
#MUSIC:Peppermint wa watashi no teki.mp3;
#OFFSET:-0.491;
#SAMPLESTART:42.440;
#SAMPLELENGTH:12.000;
#SELECTABLE:YES;
#LISTSORT:;
#BPMS:0.000=170.000,48.000=162.000,56.000=170.000;
#STOPS:;
#BGCHANGES:;
#ATTACKS:;

//---------------dance-single - ----------------
#NOTES:
     dance-single:
     :
     Hard:
     10:
     0.561,0.566,0.386,0.202,0.028:
0000
0000
0000
0000
,
0000
0000
0000
0000
,
0000
0000
0000
0000
,
0000
0000
0000
0000
,
1000
0000
0000
0000
1001
0000
0000
1000
0010
0000
0100
0000
0001
0000
0000
0000
,
1000
0001
0200
0000
0010
0000
0301
0000
,
0010
0000
0000
0000
0101
0000
0000
0100
0010
0000
1000
0000
0100
0000
0000
0000
,
1000
0001
0020
0000
0100
0000
0031
0000
,
1000
0000
0000
0000
0110
0000
0000
0001
0010
0000
0001
0000
0100
0000
0000
0000
,
0010
1000
0200
0000
0001
0000
1300
0000
,
0100
0000
1001
0000
0001
0010
0001
1000
,
0000
0100
0010
0000
0001
0100
0010
0000
,
2000
0100
3020
0100
,
2030
0001
3200
0010
,
1300
0001
0100
0000
0001
0100
0010
0100
,
0000
0001
0100
0000
0001
1000
0010
0000
,
0200
0000
0301
0000
0100
0001
0010
0001
,
0000
0100
0010
0000
0100
0100
0010
0000
,
1001
0000
0110
0000
0010
1000
0001
0000
,
0020
0230
2300
3002
,
0103
0000
0110
0000
0010
1000
0010
1000
,
0000
0001
0001
0000
0010
0001
0000
0011
,
0000
0001
0100
0000
0010
1000
0100
1000
,
0000
0001
0100
0000
0100
0001
0010
0000
,
1100
0000
0011
0000
0100
1000
0001
0100
,
0000
0001
1000
0001
0000
1000
0100
0000
,
0010
0001
0100
0000
0010
1000
0100
0000
,
0010
0100
1000
0000
0100
0010
0001
0000
,
0100
0100
0010
0010
1000
0100
0010
0001
,
0010
0010
0100
0100
1000
0010
0100
0000
,
1001
0000
1001
0000
0010
0100
0010
0000
,
0110
0000
0110
0000
1000
0001
1000
0000
,
1000
0100
0001
0000
1000
0100
0010
0000
,
0100
1000
0010
0100
0000
0001
0001
0000
,
1100
0000
0011
0000
0010
0100
1000
0000
,
1010
0000
0101
0000
0010
0100
0001
0000
,
1000
0001
0100
0000
0001
0100
1000
0000
,
0100
0001
0020
0000
0230
0000
2300
0000
,
3001
0000
0101
0000
0001
1000
0001
1000
,
0010
0000
0110
0000
1000
0100
1000
0100
,
0010
1100
1000
0001
,
1000
1000
0100
0010
0000
0001
0010
0100
,
1000
0000
0001
0000
1000
0010
0100
0100
,
0010
0000
0100
0100
0000
0001
0100
0010
,
1000
0000
1001
0100
0000
0010
0000
1000
,
0100
0001
0100
1000
0000
0001
0100
0010
,
0000
0000
0110
0000
0000
0001
0100
1000
,
0000
0100
0100
0000
0001
0010
1000
0010
,
0000
0000
0101
0000
0000
1000
0100
0001
,
0000
0100
0100
0000
1000
0010
0100
1000
,
0000
0000
0101
0000
0000
0001
0010
0100
,
0000
1000
2000
0000
3020
0000
0032
0000
,
0103
1010
0100
0011
,
0001
0100
0001
0010
0000
0100
0100
0000
,
1100
0000
1100
0000
0001
0010
0001
0010
,
0001
0000
1100
0000
0010
0100
0010
0100
,
0010
0000
0101
0000
0001
1000
0001
1000
,
0100
0000
0110
0000
0010
0100
1000
0100
,
0010
0000
0101
0000
0010
1000
0100
1000
,
0010
0000
1100
0000
1000
0010
0001
0010
,
1000
0000
0110
0000
0001
0101
0000
2000
,
0000
0001
0001
0001
,
0002
0000
0000
3003
,
1001
0000
0000
0000
0110
0000
0000
0100
0010
0000
1000
0000
0100
0000
0001
0000
,
0000
0001
0100
0000
1000
0010
0100
0000
,
0001
0000
0000
0000
1100
0000
0000
1000
0001
0000
0100
0000
0010
0000
0100
0000
,
0000
0001
1000
0000
0010
0100
0001
1000
,
0100
0000
0000
0000
0110
0000
0000
0100
1000
0000
0010
0000
0100
0000
0001
0000
,
0000
1000
0100
0000
0001
0100
1000
0000
,
0110
0000
0100
0000
0001
1000
0100
1000
,
0000
0010
0100
2002
0000
0000
0000
0000
,
0000
0000
0000
0000
,
0000
0000
0000
3003
0000
0000
0000
0000
;

//---------------dance-single - ----------------
#NOTES:
     dance-single:
     :
     Medium:
     8:
     0.385,0.433,0.018,0.092,0.000:
0000
0000
0000
0000
,
0000
0000
0000
0000
,
0000
0000
0000
0000
,
0000
0000
0000
0000
,
1000
0000
1000
0000
0001
0100
0001
0100
,
0000
0010
1000
0001
,
0010
0000
0010
0000
0100
1000
0100
1000
,
0000
0010
0100
0001
,
1000
0000
1000
0000
0001
0010
0001
0010
,
0000
0100
1000
0001
,
1000
0000
0010
0000
0100
0000
0000
0010
,
0000
0100
0001
1000
,
0100
0000
0000
0000
0010
0000
0000
0001
,
0000
0000
0000
0100
0000
0000
0000
0000
,
0010
1000
0001
0100
,
0001
0010
0001
0000
1000
0000
0100
0000
,
0020
0000
0032
0000
,
1003
1000
0001
0001
,
1000
0000
0001
0000
1000
0001
1000
0000
,
0010
0000
0100
0000
0010
0100
0010
0000
,
1000
0100
0010
0100
,
1000
0000
0001
0000
1000
0001
0000
1001
,
0000
0000
0010
0000
0000
0010
0100
0010
,
0000
0000
0000
0110
0000
0000
1000
0000
,
0001
0000
1000
0000
0010
0100
1000
0100
,
0000
0001
0100
0001
0000
1000
0100
0000
,
1000
0010
0100
0001
,
1000
0001
0100
0010
,
1000
0000
1000
0100
0000
0100
0000
0100
,
0010
0000
0010
0001
0000
0001
0000
0001
,
0100
0000
0100
0001
0000
0000
1000
0000
,
0001
0000
1000
0100
0000
0000
0100
0000
,
0010
0000
0001
0100
0000
0001
0000
0010
,
0000
0100
1000
0010
0000
0000
0100
0000
,
0001
0000
1000
0100
0000
0000
1000
0000
,
0001
0000
0100
0010
0000
0000
0100
0000
,
0001
0000
0010
0100
0000
0010
0000
0001
,
0100
0002
0023
0230
,
1300
0000
0001
0100
0000
0001
0100
0000
,
0010
0000
1000
0100
0000
1000
0100
0000
,
0010
0000
0001
0010
0000
0100
0000
1000
,
0000
0010
0100
0001
0000
1000
0001
0000
,
1000
0000
0001
0000
1000
0001
1000
0000
,
0001
0000
1000
0000
0001
1000
0001
0000
,
0100
0010
1000
0001
,
1000
0010
0100
0001
0000
1000
0100
1000
,
0000
0000
0000
0000
0000
0001
0010
0001
,
0000
0000
0000
0000
0000
1000
0010
1000
,
0000
0000
0000
0000
0000
0001
0100
0001
,
0000
0000
0000
0000
0000
1000
0001
1000
,
0000
0000
0000
0000
0000
0001
1000
0001
,
0000
2000
3002
0203
,
0310
0010
0100
0100
,
0001
0001
1000
1000
,
0001
0100
1000
0010
,
0001
0100
1000
0010
,
0001
0100
1000
0010
,
0001
0100
1000
0010
,
1000
0100
0001
0010
,
1000
0100
0001
0010
,
0001
0000
1000
0000
0001
1000
0000
0001
,
0000
0010
0001
1000
,
0100
0000
0100
0000
0100
0100
0100
0000
,
1000
0000
0001
0000
1000
0100
0001
0000
,
0100
1000
0001
0100
,
0010
0000
0100
0000
0010
1000
0100
0000
,
0010
0001
0100
0001
,
1000
0000
0010
0000
1000
0100
0010
0000
,
0001
0100
0001
0010
,
0100
0000
1000
0000
0001
0100
0001
0010
,
0000
0100
2000
0002
0000
0000
0000
0000
,
0000
0000
0000
0000
,
0000
0000
0000
3003
0000
0000
0000
0000
;

//---------------dance-single - ----------------
#NOTES:
     dance-single:
     :
     Easy:
     5:
     0.216,0.260,0.046,0.110,0.000:
0000
0000
0000
0000
,
0000
0000
0000
0000
,
0000
0000
0000
0000
,
0000
0000
0000
0000
,
1000
0001
1000
0000
,
0001
1000
0001
0000
,
1000
0000
0100
0000
,
0010
0000
0001
0000
,
1000
0010
1000
0000
,
0001
0100
0001
0000
,
1000
0000
0100
0000
,
0010
0000
0001
0000
,
2000
0000
0000
0000
,
0002
0000
0000
3003
,
1000
0000
0001
0000
,
1000
0100
1000
0000
,
0001
0000
0100
0000
,
0001
0010
0001
0000
,
1000
0000
0100
0000
,
0010
0010
0010
0000
,
0001
0000
0100
0000
,
0010
0010
0010
0000
,
1000
0000
0001
0000
,
1001
0000
1000
0000
,
0010
0000
1000
0000
,
0100
1000
0100
0000
,
1000
0000
0001
0000
,
0100
0000
0001
0000
,
1000
0100
1000
0100
,
0010
0001
0010
0000
,
0001
0000
1001
0000
,
1000
0000
1001
0000
,
0001
0001
0001
0000
,
1000
1000
1000
0000
,
0010
0000
0110
0000
,
0100
0000
0110
0000
,
0010
0010
0010
0000
,
0100
0100
0100
0000
,
0001
0000
1000
0000
,
0100
0000
0010
0000
,
0001
0000
0100
0000
,
0010
0000
0000
0000
,
1000
0000
0001
0000
,
1000
0000
0001
0000
,
0100
0000
0010
0000
,
1000
0100
1000
0100
,
2000
0000
3000
0000
,
0002
0000
0003
0000
,
0200
0000
0300
0000
,
0020
0000
0030
0000
,
0200
0000
0300
0000
,
0002
0000
0003
0000
,
2000
0000
3000
0000
,
0020
0000
0030
0000
,
0100
0100
0100
0000
,
0010
0010
0010
0000
,
1000
1000
1000
0000
,
0001
0001
0001
0000
,
1000
0000
0100
0000
,
0010
0000
0001
0000
,
1000
0000
0001
0000
,
2000
0000
0000
0000
,
0002
0000
0000
3003
,
1000
0000
0100
0000
,
0010
0100
1000
0000
,
0001
0000
0100
0000
,
0010
0100
0001
0000
,
1000
0000
0001
0000
,
1000
0000
0100
0000
,
1000
0100
0001
0000
,
0001
0100
1000
0000
;

//---------------dance-single - ----------------
#NOTES:
     dance-single:
     :
     Beginner:
     1:
     0.120,0.162,0.000,0.101,0.000: // measure 1
0000
0000
0000
0000
,  // measure 2
0000
0000
0000
0000
,  // measure 3
0000
0000
0000
0000
,  // measure 4
0000
0000
0000
0000
,  // measure 5
1000
0000
0001
0000
,  // measure 6
1000
0000
0000
0000
,  // measure 7
0001
0000
1000
0000
,  // measure 8
0001
0000
0000
0000
,  // measure 9
1000
0000
0001
0000
,  // measure 10
1000
0000
0000
0000
,  // measure 11
0001
0000
1000
0000
,  // measure 12
0001
0000
0000
0000
,  // measure 13
2000
0000
3000
0000
,  // measure 14
0002
0000
0003
0000
,  // measure 15
1000
0000
0001
0000
,  // measure 16
1000
0000
0000
0000
,  // measure 17
0001
0000
1000
0000
,  // measure 18
0001
0000
0000
0000
,  // measure 19
1000
0000
1000
0000
,  // measure 20
1000
0000
0000
0000
,  // measure 21
0001
0000
0001
0000
,  // measure 22
0001
0000
0000
0000
,  // measure 23
1000
0000
1000
0000
,  // measure 24
1000
0000
0000
0000
,  // measure 25
0001
0000
0001
0000
,  // measure 26
0001
0000
0000
0000
,  // measure 27
1000
0000
1000
0000
,  // measure 28
1000
0000
0000
0000
,  // measure 29
0001
0000
0001
0000
,  // measure 30
0001
0000
0000
0000
,  // measure 31
2000
0000
3000
0000
,  // measure 32
0002
0000
0003
0000
,  // measure 33
2000
0000
3000
0000
,  // measure 34
0002
0000
0003
0000
,  // measure 35
1000
0000
1000
0000
,  // measure 36
0001
0000
0000
0000
,  // measure 37
0001
0000
0001
0000
,  // measure 38
1000
0000
0000
0000
,  // measure 39
2000
0000
3000
0000
,  // measure 40
0002
0000
0003
0000
,  // measure 41
2000
0000
3000
0000
,  // measure 42
0002
0000
0003
0000
,  // measure 43
1000
0000
1000
0000
,  // measure 44
1000
0000
0000
0000
,  // measure 45
0001
0000
0001
0000
,  // measure 46
0001
0000
0000
0000
,  // measure 47
0000
0000
0000
0000
,  // measure 48
0000
0000
0000
0000
,  // measure 49
0000
0000
0000
0000
,  // measure 50
0000
0000
0000
0000
,  // measure 51
0000
0000
0000
0000
,  // measure 52
0000
0000
0000
0000
,  // measure 53
0000
0000
0000
0000
,  // measure 54
0000
0000
0000
0000
,  // measure 55
1000
0000
0000
0000
,  // measure 56
0001
0000
0000
0000
,  // measure 57
1000
0000
0000
0000
,  // measure 58
0001
0000
0000
0000
,  // measure 59
0001
0000
0000
0000
,  // measure 60
1000
0000
0001
0000
,  // measure 61
1000
0000
0000
0000
,  // measure 62
0002
0000
0000
0000
,  // measure 63
0003
0000
0000
0000
,  // measure 64
1000
0000
0001
0000
,  // measure 65
1000
0000
0000
0000
,  // measure 66
0001
0000
1000
0000
,  // measure 67
0001
0000
0000
0000
,  // measure 68
0001
0000
1000
0000
,  // measure 69
0001
0000
0000
0000
,  // measure 70
1000
0000
1000
0000
,  // measure 71
1000
0000
1000
0000
;
