#TITLE:Paralyzed;
#SUBTITLE:;
#ARTIST:Agnes Monica;
#TITLETRANSLIT:;
#SUBTITLETRANSLIT:;
#ARTISTTRANSLIT:;
#CREDIT:;
#BANNER:Paralyzed.png;
#BACKGROUND:Paralyzed-bg.png;
#LYRICSPATH:;
#CDTITLE:cdtitle.png;
#MUSIC:Paralyzed.mp3;
#OFFSET:-0.080;
#SAMPLESTART:51.605;
#SAMPLELENGTH:14.000;
#SELECTABLE:YES;
#BPMS:0.000=110.000;
#STOPS:;
#BGCHANGES:;

//---------------dance-single - ----------------
#NOTES:
     dance-single:
     :
     Hard:
     9:
     0.379,0.360,0.138,0.224,0.021:
0000
0000
0000
0000
,
0000
0000
0000
0000
,
0000
0000
0000
0000
,
0000
0000
0000
0000
,
1000
0000
0001
0000
0010
0100
1000
0000
,
0001
0000
0100
0000
1000
0100
0001
0000
,
1000
0000
0100
0000
1000
0001
0100
0000
,
0010
0000
1000
0000
0100
0010
0002
0000
,
1003
0100
0010
0001
0001
0010
0100
1000
,
0010
0100
0001
0010
0100
0100
0000
1000
,
0001
0100
0001
0010
0100
1000
0100
0001
,
0100
0010
0001
0100
0010
0100
0001
0100
,
0010
0001
0010
1000
0100
0010
0000
0010
,
0100
1000
0010
0100
0001
0010
0000
0100
,
1000
0001
0100
1000
0100
0001
0000
0100
,
0010
0001
0010
1000
0001
0010
0000
0000
,
2001
0000
0000
3020
0000
0000
0230
0000
,
0000
0302
0000
0000
1003
0010
0100
0001
,
0020
0000
0000
0230
0000
0000
2300
0000
,
0000
3002
0000
0000
1003
0001
0010
1000
,
0020
0000
0000
0032
0000
0000
0203
0000
,
0000
2300
0000
0000
3100
0010
1000
0100
,
0020
0000
0000
0032
0000
0000
0023
0000
,
0000
2030
0000
0000
3010
0100
1000
0010
,
0000
1000
0000
0001
0000
0010
0000
0100
,
0000
1000
1010
0010
0100
0101
0001
0001
,
0000
0010
0000
0100
0000
1000
0000
0001
,
0000
1000
1001
0001
0100
0110
0010
0110
,
0000
1100
0000
0011
0000
1010
0000
0100
,
0000
1000
1010
0010
1000
1100
0100
0200
,
0000
0320
0000
0000
1000
2030
0000
0000
,
0010
3020
0000
0000
0001
0031
0001
1001
,
1000
0100
0010
0001
0000
0010
0100
1000
,
0001
0000
1000
0100
1000
0000
0010
0000
0100
0000
0001
0000
0010
0000
1000
0000
,
0010
0001
0100
1000
0000
0100
0001
0100
,
0001
0000
0010
0001
0010
0000
0100
0000
0010
0000
0100
0000
1000
0000
0001
0000
,
1000
0010
0100
0001
0000
1000
0100
0001
,
0100
0000
1000
0010
1000
0000
0010
0000
0100
0000
1000
0000
0001
0000
0010
0000
,
1000
0010
0100
0001
0000
1000
0010
0100
,
0001
0000
1000
0001
0100
0000
0010
0000
1000
0000
0001
0000
1001
0000
0000
0000
;

//---------------dance-single - ----------------
#NOTES:
     dance-single:
     :
     Medium:
     6:
     0.192,0.212,0.011,0.128,0.064:
0000
0000
0000
0000
,
0000
0000
0000
0000
,
0000
0000
0000
0000
,
0000
0000
0000
0000
,
1000
0000
0000
0000
0000
0000
0001
0010
0000
0000
0000
0000
0000
0000
0000
0000
,
0001
0000
0000
0000
0000
0000
1000
0010
0000
0000
0000
0000
0000
0000
0000
0000
,
1000
0000
0000
0000
0000
0000
0001
0100
0000
0000
0000
0000
0000
0000
0000
0000
,
0001
0000
0000
0000
0000
0000
1000
0100
0000
0000
0000
0000
0000
0000
0000
0000
,
0001
0000
0001
0000
,
1000
0010
0100
0000
,
1000
0000
1000
0000
,
0001
0010
0100
0000
,
1000
1000
0001
0001
,
0100
0100
0010
0000
,
0001
0001
1000
1000
,
0010
0010
0100
0000
,
0002
0000
2003
0000
,
3020
0000
0130
0000
,
0002
0000
0023
0000
,
0230
0000
1300
0000
,
0020
0000
0230
0000
,
0302
0000
1003
0000
,
0020
0000
2030
0000
,
3002
0000
0103
0000
,
0001
1000
0001
1000
,
0010
0000
0100
0000
0010
0100
0010
0000
,
1000
0001
1000
0001
,
0100
0000
0010
0000
0100
0010
0100
0000
,
0001
0100
0001
0100
,
0010
0000
1000
0000
0010
1000
0010
0000
,
1000
0100
1000
0100
,
0010
0000
0001
0000
0010
0001
0010
0000
,
0001
0010
0000
0000
0000
0000
0000
0000
0100
0000
0000
0000
0000
0000
0000
0000
,
1000
0100
0000
0000
0000
0000
0000
0000
0010
0000
0000
0000
0000
0000
0000
0000
,
0001
0100
0000
0000
0000
0000
0000
0000
0010
0000
0000
0000
0000
0000
0000
0000
,
1000
0010
0000
0000
0000
0000
0000
0000
0100
0000
0000
0000
0000
0000
0000
0000
,
0001
1000
0000
0000
0000
0000
0000
0000
0100
0000
0000
0000
0000
0000
0000
0000
,
1000
0001
0000
0000
0000
0000
0000
0000
0100
0000
0000
0000
0000
0000
0000
0000
,
0001
1000
0000
0000
0000
0000
0000
0000
0010
0000
0000
0000
0000
0000
0000
0000
,
1000
0001
0000
0000
0000
0000
0000
0000
0010
0000
0000
0000
0110
0000
0000
0000
;

//---------------dance-single - ----------------
#NOTES:
     dance-single:
     :
     Easy:
     3:
     0.137,0.190,0.096,0.106,0.000: // measure 1
0000
0000
0000
0000
,  // measure 2
0000
0000
0000
0000
,  // measure 3
0000
0000
0000
0000
,  // measure 4
0000
0000
0000
0000
,  // measure 5
1000
0000
0001
0000
,  // measure 6
2000
0000
3000
0000
,  // measure 7
0001
0000
1000
0000
,  // measure 8
0002
0000
0003
0000
,  // measure 9
1000
0000
1000
0000
,  // measure 10
0010
0000
0100
0000
,  // measure 11
0001
0000
0001
0000
,  // measure 12
0010
0000
0100
0000
,  // measure 13
1000
0000
0100
0000
,  // measure 14
0010
0000
0001
0000
,  // measure 15
1000
0000
0010
0000
,  // measure 16
0100
0000
0001
0000
,  // measure 17
2000
0000
0000
3000
,  // measure 18
0020
0000
0000
0030
,  // measure 19
0200
0000
0000
0300
,  // measure 20
0002
0000
0000
0003
,  // measure 21
2000
0000
0000
3000
,  // measure 22
0200
0000
0000
0300
,  // measure 23
0020
0000
0000
0030
,  // measure 24
0002
0000
0000
0003
,  // measure 25
1000
1000
1000
0000
,  // measure 26
1000
0000
0001
0000
,  // measure 27
0001
0001
0001
0000
,  // measure 28
0001
0000
0100
0000
,  // measure 29
0100
0100
0100
0000
,  // measure 30
0100
0000
0010
0000
,  // measure 31
0010
0000
0010
0000
,  // measure 32
0100
0000
0100
0010
,  // measure 33
0110
0000
0100
0000
,  // measure 34
1001
0000
0001
1000
,  // measure 35
1001
0000
1000
0000
,  // measure 36
0110
0000
0010
1000
,  // measure 37
1010
0000
1000
0000
,  // measure 38
0101
0000
0001
0010
,  // measure 39
0011
0000
0001
0000
,  // measure 40
1100
1000
1000
1001
;

//---------------dance-single - ----------------
#NOTES:
     dance-single:
     :
     Beginner:
     0:
     0.071,0.106,0.032,0.000,0.000: // measure 1
0000
0000
0000
0000
,  // measure 2
0000
0000
0000
0000
,  // measure 3
0000
0000
0000
0000
,  // measure 4
0000
0000
0000
0000
,  // measure 5
0100
0000
0000
0000
,  // measure 6
0010
0000
0000
0000
,  // measure 7
1000
0000
0000
0000
,  // measure 8
0001
0000
0000
0000
,  // measure 9
1000
0000
0000
0000
,  // measure 10
0000
0000
0000
0000
,  // measure 11
0010
0000
0000
0000
,  // measure 12
0000
0000
0000
0000
,  // measure 13
0100
0000
0000
0000
,  // measure 14
0000
0000
0000
0000
,  // measure 15
0001
0000
0000
0000
,  // measure 16
0000
0000
0000
0000
,  // measure 17
1000
0000
0000
0010
,  // measure 18
0010
0000
0000
0100
,  // measure 19
0100
0000
0000
0001
,  // measure 20
0001
0000
0000
1000
,  // measure 21
1000
0000
0000
0010
,  // measure 22
0010
0000
0000
0100
,  // measure 23
0100
0000
0000
0001
,  // measure 24
0001
0000
0000
0000
,  // measure 25
0110
0000
0000
0000
,  // measure 26
0000
0000
0000
0000
,  // measure 27
1001
0000
0000
0000
,  // measure 28
0000
0000
0000
0000
,  // measure 29
0110
0000
0000
0000
,  // measure 30
0000
0000
0000
0000
,  // measure 31
1000
0000
0001
0000
,  // measure 32
1000
0000
0001
0001
,  // measure 33
0000
0001
0000
0001
,  // measure 34
0000
1000
0000
0000
,  // measure 35
0000
1000
0000
1000
,  // measure 36
0000
0001
0000
0000
,  // measure 37
0000
0001
0000
0001
,  // measure 38
0000
1000
0000
0000
,  // measure 39
0000
0010
0000
0010
,  // measure 40
0000
0010
0000
0010
;
