#TITLE:緑の風;
#SUBTITLE:;
#ARTIST:ナヤ~ン;
#TITLETRANSLIT:Midori no Kaze;
#SUBTITLETRANSLIT:;
#ARTISTTRANSLIT:Naya~n;
#GENRE:;
#CREDIT:;
#MENUCOLOR:;
#METERTYPE:DDR;
#BANNER:Midori no Kaze.png;
#BACKGROUND:Midori no Kaze-bg.png;
#LYRICSPATH:;
#CDTITLE:cdtitle.png;
#MUSIC:Midori no Kaze.mp3;
#OFFSET:2.075;
#SAMPLESTART:80.420;
#SAMPLELENGTH:13.500;
#SELECTABLE:YES;
#LISTSORT:;
#DISPLAYBPM:23.000:72.000;
#BPMS:0.000=72.000,99.000=71.000,100.000=72.000,112.000=68.000,114.000=64.000,116.000=62.000,116.500=68.000,117.000=62.000,117.500=60.000,118.000=58.000,118.500=54.000,119.000=42.000,119.500=20.000,120.000=23.000;
#STOPS:;
#BGCHANGES:;
#ATTACKS:;

//---------------dance-single - ----------------
#NOTES:
     dance-single:
     :
     Hard:
     7:
     0.263,0.255,0.072,0.224,0.013:
0000
0000
0000
0000
,
1000
0000
0001
0010
0100
0000
1000
0000
,
0010
0000
0100
0001
0010
0000
0100
0000
,
1000
0000
0001
0100
1000
0000
0100
0001
,
0010
0100
1000
0001
0100
0000
0010
0000
,
1000
0000
0010
1000
0100
0000
0010
0000
,
1000
0000
0010
0001
0100
0000
0010
0000
,
1000
0000
0001
0100
0010
0000
1000
0100
,
0001
0100
1000
0010
0100
0000
0001
1000
,
0200
0300
0010
0001
0200
0300
0010
1000
,
0002
0003
0010
0100
2000
3000
0001
0100
,
2000
3000
0100
0001
0010
0100
1000
0001
,
0200
0000
0010
0000
0310
0000
0001
1000
,
0200
0300
0001
0100
2000
3000
0010
0100
,
0002
0003
0010
0100
2000
3000
0001
0100
,
0020
0030
1000
0010
0001
0010
0100
1000
,
0100
0000
0000
0000
0001
0010
0100
1000
0001
0000
1000
0000
0010
0000
0100
0000
,
0002
0000
1003
0100
0001
0000
0010
0000
,
2001
0000
3010
0001
0100
0000
0010
0000
,
0201
0000
0310
1000
0100
0000
1000
0001
,
0010
1000
0001
0010
0100
0000
1000
0000
,
0201
0000
0301
0010
0002
0000
1003
0100
,
2000
0000
3010
0001
0200
0000
0301
0010
,
2000
0000
0000
0000
3001
0000
0100
0000
0010
0000
0000
1000
0001
0000
0010
0000
,
0100
1000
1001
0010
,
0210
0000
0301
0001
0020
0000
0130
1000
,
2100
0000
3001
0001
0200
0000
0310
0100
,
0102
0000
0013
0010
0100
1000
0001
0100
,
0200
0010
0000
0310
,
1000
0001
0010
0100
1000
0001
0100
0010
,
1001
0000
0000
0000
;

//---------------dance-single - ----------------
#NOTES:
     dance-single:
     :
     Medium:
     4:
     0.165,0.174,0.063,0.304,0.000:
0000
0000
0000
0000
,
1000
0002
0013
0000
,
1000
0020
0130
0000
,
0010
0200
1300
0000
,
0100
0001
0010
0000
,
0100
2000
3001
0000
,
0001
0200
0310
0000
,
0010
0002
1003
0000
,
0001
1000
0100
0000
,
0002
1003
2000
3001
,
0002
1003
2000
3001
,
0020
0130
0200
1300
,
0002
0000
0003
0000
,
2000
3010
0020
0130
,
0200
0301
0002
0013
,
0020
0130
0200
1300
,
2000
0000
3000
0000
,
0002
1003
0100
0000
,
2000
3001
0100
0000
,
0002
0103
0010
0000
,
0200
0301
0010
0000
,
1100
0000
0101
0000
,
0011
0000
1010
0000
,
0110
0000
1001
0000
,
0220
0000
0330
0000
,
2000
0000
3001
0001
0001
0000
0000
0000
,
0020
0000
0130
0100
0100
0000
0000
0000
,
0002
0000
0013
0010
0010
0000
0100
0000
,
2000
0000
3000
0000
,
0002
0023
0230
2300
,
3001
0000
0000
0000
;

//---------------dance-single - ----------------
#NOTES:
     dance-single:
     :
     Easy:
     2:
     0.089,0.107,0.009,0.089,0.000:
0000
0000
0000
0000
,
1000
0000
0001
0000
,
0100
0000
0010
0000
,
1000
0000
0001
0000
,
0010
0000
0000
0000
,
0100
0000
1000
0000
,
0010
0000
0100
0000
,
0001
0000
0010
0000
,
0100
0000
0000
0000
,
2000
3000
0000
0000
,
0002
0003
0000
0000
,
0020
0030
0000
0000
,
0200
0300
0000
1000
,
2000
3000
0000
0001
,
0002
0003
0000
0010
,
0020
0030
0000
0100
,
0200
0300
0000
0000
,
1000
0000
0001
0000
,
1000
0001
1000
0000
,
0001
0000
1000
0000
,
0002
0000
0003
0000
,
0010
0000
0100
0000
,
1000
0001
0010
0000
,
0100
0000
1000
0000
,
0001
0000
1000
0000
,
0010
0100
0001
0000
,
0010
0100
1000
0000
,
0001
1000
0100
1000
,
0020
0000
0030
0000
,
1000
0001
0010
0100
,
0110
0000
0000
0000
;

//---------------dance-single - Copied from----------------
#NOTES:
     dance-single:
     Copied from:
     Beginner:
     1:
     0.046,0.067,0.009,0.036,0.000: // measure 1
0000
0000
0000
0000
,  // measure 2
0001
0000
0000
0000
,  // measure 3
1000
0000
0000
0000
,  // measure 4
1000
0000
0000
0000
,  // measure 5
0001
0000
0000
0000
,  // measure 6
1000
0000
0000
0000
,  // measure 7
0001
0000
0000
0000
,  // measure 8
0001
0000
0000
0000
,  // measure 9
1000
0000
0000
0000
,  // measure 10
2000
0000
3000
0000
,  // measure 11
0000
0000
0000
0000
,  // measure 12
0002
0000
0003
0000
,  // measure 13
0000
0000
0000
0000
,  // measure 14
2000
0000
3000
0000
,  // measure 15
0000
0000
0000
0000
,  // measure 16
0002
0000
0003
0000
,  // measure 17
0000
0000
0000
0000
,  // measure 18
1000
0000
0000
0000
,  // measure 19
0001
0000
0001
0000
,  // measure 20
0001
0000
0000
0000
,  // measure 21
1000
0000
0000
0000
,  // measure 22
1000
0000
0000
0000
,  // measure 23
0001
0000
0001
0000
,  // measure 24
0001
0000
0000
0000
,  // measure 25
1000
0000
0000
0000
,  // measure 26
1000
0000
0001
0000
,  // measure 27
1000
0000
0000
0000
,  // measure 28
0001
0000
1000
0000
,  // measure 29
0001
0000
0000
0000
,  // measure 30
1000
0000
1000
0000
,  // measure 31
1001
0000
0000
0000
;
